<?xml version="1.0" standalone="no"?>
<!DOCTYPE svg PUBLIC "-//W3C//DTD SVG 1.1//EN" "http://www.w3.org/Graphics/SVG/1.1/DTD/svg11.dtd" >
<svg xmlns="http://www.w3.org/2000/svg" xmlns:xlink="http://www.w3.org/1999/xlink" version="1.1">
<metadata>
Created by FontForge 20201107 at Tue Oct 13 10:47:48 2020
 By Jimmy Wärting
</metadata>
<defs>
<font id="BubbleeKids-Regular" horiz-adv-x="433" >
  <font-face 
    font-family="Bubblee Kids"
    font-weight="400"
    font-stretch="normal"
    units-per-em="1000"
    panose-1="2 0 5 3 0 0 0 0 0 0"
    ascent="800"
    descent="-200"
    x-height="354"
    cap-height="546"
    bbox="20 -271 766 759"
    underline-thickness="50"
    underline-position="-150"
    unicode-range="U+000D-2122"
  />
<missing-glyph horiz-adv-x="364" 
d="M33 0v666h265v-666h-265zM66 33h199v600h-199v-600z" />
    <glyph glyph-name=".notdef" horiz-adv-x="364" 
d="M33 0v666h265v-666h-265zM66 33h199v600h-199v-600z" />
    <glyph glyph-name=".null" horiz-adv-x="250" 
 />
    <glyph glyph-name=".null" horiz-adv-x="250" 
 />
    <glyph glyph-name="nonmarkingreturn" horiz-adv-x="333" 
 />
    <glyph glyph-name="CR" unicode="&#xd;" horiz-adv-x="250" 
 />
    <glyph glyph-name="space" unicode=" " horiz-adv-x="250" 
 />
    <glyph glyph-name="exclam" unicode="!" horiz-adv-x="197" 
d="M104 96q69 -3 69 -65q0 -60 -62 -68h-9q-36 0 -53 30q-7 13 -7 36q0 27 7.5 40.5t25.5 22.5q9 4 29 4zM62 545q9 3 29 3t26 -3q17 -7 25 -22q13 -24 18 -251q0 -8 0.5 -22.5t0.5 -19.5q0 -45 -5 -61t-19 -22q-18 -9 -47 -9q-24 0 -34 7q-14 10 -19 48q-13 140 -13 256
q0 85 38 96z" />
    <glyph glyph-name="quotedbl" unicode="&#x22;" horiz-adv-x="365" 
d="M258 549q6 2 18 2q20 0 37 -8.5t24 -20.5q6 -11 6 -25q0 -33 -27 -76q-25 -40 -53 -40h-6q-30 3 -30 33q0 9 5 22q4 9 -9 26q-10 14 -11 25v5q0 19 13 35.5t33 21.5zM24 514q12 48 64 48q10 0 15 -1q55 -10 55 -54q0 -25 -18 -57q-31 -53 -47 -57q-3 -1 -12 -1
q-17 0 -24 3q-16 6 -16 29q0 12 2 19l5 16l-10 11q-15 16 -15 34q0 7 1 10z" />
    <glyph glyph-name="numbersign" unicode="#" horiz-adv-x="544" 
d="M293 274q-4 2 -36 2h-4q-1 -1 -4 -15l19 -3q20 -3 22 -1q1 2 2.5 9t0.5 8zM195 496q13 17 41 17q41 0 55 -27q3 -6 3 -21q0 -17 -5 -40q-5 -18 -5 -22q1 -1 19 -3.5t22 -2.5h1q4 10 7 20q20 63 51 70q10 2 16 2q31 0 49 -18q13 -13 13 -36q0 -19 -9 -46l-5 -17
q8 -3 16 -5q56 -15 56 -56q0 -46 -77 -50l-25 -1l-3 -12q0 -3 -1 -6.5t-2 -5.5v-2q0 -1 14.5 -4.5t31.5 -12t22 -20.5q3 -8 3 -20q0 -25 -12 -42t-61 -17h-30l-4 -18q-8 -39 -21 -57q-13 -19 -42 -19q-28 0 -47 19q-11 12 -11 32q0 12 7 59l-18 3q-8 1 -15.5 3t-8.5 2
q-4 0 -13 -28q-14 -45 -31 -55q-7 -5 -27 -5q-33 0 -49 10t-16 34q0 18 9 45l6 19l-19 6q-32 10 -43.5 20.5t-11.5 29.5q0 38 36 55q9 5 37 5h27l2 10q1 5 1.5 7t-1 4t-2 2t-5.5 1t-8 2q-34 10 -51 27q-10 11 -10 28q0 9 1 14q5 29 25 39q10 5 48 6l36 1l7 20q14 41 27 57z
" />
    <glyph glyph-name="dollar" unicode="$" horiz-adv-x="440" 
d="M228 145q33 0 33 23t-59 39q-44 12 -85 31q-62 30 -80 73q-12 28 -12 65v14q3 84 50 122q33 26 77 31l13 2q2 18 10 24.5t27 8.5q9 1 25 1q45 0 45 -30v-8l25 -6q95 -21 98 -86v-5q0 -26 -13.5 -42t-36.5 -19h-8q-15 0 -55 15q-34 14 -59 14q-14 0 -27 -7t-13 -16
q0 -5 6 -11q10 -9 66 -26q34 -11 54 -18q62 -27 89 -72q18 -32 18 -76q0 -22 -5 -54q-10 -56 -41 -87q-36 -37 -88 -42q-14 -1 -15 -8q-3 -17 -19 -25q-12 -5 -26 -5q-41 0 -55 16q-8 10 -11 26q0 4 -18 10q-56 18 -83 52q-26 31 -26 62q0 32 26 52q19 14 48 14q30 0 52 -18
q40 -34 73 -34z" />
    <glyph glyph-name="percent" unicode="%" horiz-adv-x="569" 
d="M472 107q0 27 -16 27q-4 0 -11 -5q-15 -12 -15 -35q0 -30 18 -30q10 0 17 13t7 30zM431 228q9 4 25 4q18 0 32 -6q27 -13 42.5 -45t15.5 -75q0 -18 -3 -38q-4 -33 -23.5 -59t-46.5 -36q-13 -5 -27 -5q-17 0 -33 7q-37 18 -51 71q-4 16 -4 35v19q2 38 4 46q19 63 69 82z
M140 380q0 16 -6 28t-18 12q-11 0 -18 -18q-3 -8 -3 -15q0 -31 18 -40q7 -4 13 0q14 11 14 33zM100 516q10 2 15 2q52 0 80 -57q18 -37 19 -84v-17q0 -16 -4 -31q-20 -63 -68 -74q-6 -2 -18 -2q-24 0 -46 15.5t-35 42.5q-17 36 -18 81v13q0 29 12 57q9 19 27 34.5t36 19.5z
M396 528q7 3 17 3q17 0 33.5 -9t22.5 -22q5 -10 5 -28q0 -8 -2 -20q-11 -46 -217 -391q-38 -64 -53 -80q-10 -11 -17.5 -14t-24.5 -3q-18 0 -26.5 3.5t-21.5 15.5q-17 16 -17 35q0 18 16 50q20 43 119 214t116 195q32 43 50 51z" />
    <glyph glyph-name="ampersand" unicode="&#x26;" horiz-adv-x="491" 
d="M177 192q-1 0 -8 -15q-7 -16 -6 -22q2 -11 11 -19t20 -8q7 0 17.5 4.5t10.5 7.5q0 2 -21.5 27t-23.5 25zM200 431q-16 14 -25 -6q-1 -2 -1 -7q0 -12 11 -30q19 17 19 32q0 7 -4 11zM47 410q0 108 116 136q10 2 42 2q34 -1 48 -6q13 -5 20 -5q5 0 20 -14q41 -36 41 -111
q0 -24 -6 -47q-7 -30 -37 -74q-7 -10 -5 -15q2 -4 19 -20.5t19 -16.5q1 0 9 8q22 22 40 28q4 2 19 2q14 0 18 -2q16 -5 29.5 -22.5t14.5 -38.5q1 -18 -5 -28q-5 -10 -21 -28l-16 -16l13 -13q42 -45 42 -86q0 -9 -3 -18q-7 -20 -30.5 -35.5t-45.5 -15.5h-6q-15 2 -25 8
t-28 26l-24 25l-25 -25q-36 -35 -71 -41q-15 -3 -28 -3q-55 0 -102 47q-54 54 -54 135q0 29 7 51q15 42 46 78l16 19l-14 19q-33 49 -33 97z" />
    <glyph glyph-name="quotesingle" unicode="'" horiz-adv-x="181" 
d="M23 510q0 24 19.5 41t46.5 17q16 0 33 -7q37 -14 37 -49q0 -7 -1 -11q-2 -12 -16 -40t-24 -41q-16 -19 -35 -22q-1 0 -4 -0.5t-4 -0.5q-17 0 -26 9q-6 6 -6 25q0 10 2 20l3 11l-8 9q-17 20 -17 39z" />
    <glyph glyph-name="parenleft" unicode="(" horiz-adv-x="288" 
d="M156 557q4 1 19 1q32 0 45 -5q19 -7 31.5 -27t12.5 -43q0 -21 -20 -48q-45 -59 -58 -101q-11 -37 -11 -89q0 -59 14 -95q11 -28 32 -52q30 -35 30 -67q0 -40 -41 -61q-10 -5 -30 -5q-18 0 -36 8q-36 19 -59 55q-43 65 -57 176q-3 23 -3 47q0 111 63 236q31 60 68 70z" />
    <glyph glyph-name="parenright" unicode=")" horiz-adv-x="281" 
d="M99 555q10 2 15 2q26 0 51 -24q42 -39 71 -140q21 -72 21 -135q0 -70 -27 -151t-74 -119q-29 -24 -61 -24q-52 0 -67 51q-3 9 -3 18q0 30 37 70q32 33 47 84q6 19 6 71q0 53 -6 72q-11 37 -35 78q-30 51 -30 86q0 26 17 42q16 14 38 19z" />
    <glyph glyph-name="asterisk" unicode="*" horiz-adv-x="357" 
d="M166 574q9 3 19 3q22 0 37 -12q16 -12 17 -49l1 -24q10 3 21 6q17 5 32 5q19 0 27 -8q13 -12 13 -29q0 -9 -5 -17q-5 -6 -19.5 -18.5t-16.5 -12.5l2 -2q2 -3 6.5 -8t9.5 -10q22 -22 22 -32q0 -2 -2 -8q-11 -35 -49 -35q-16 0 -31 5q-4 1 -10 3l-5 1q-1 0 -1 -17
q0 -21 -8 -32t-28 -17q-11 -4 -32 -4q-16 0 -24 3q-14 6 -17 29q-3 30 -5 30q-1 -1 -2 -1q-16 -7 -31 -7q-33 0 -50 18q-13 13 -13 33q0 17 12 31q11 11 21 16q6 4 9.5 6.5t2.5 3.5q-35 28 -41 50q-1 3 -1 9q0 11 10 21q15 17 36 17h4q13 -1 42 -19l9 -5l4 20q7 48 34 57z
" />
    <glyph glyph-name="plus" unicode="+" horiz-adv-x="392" 
d="M171 449q8 2 13 2q16 0 35 -16q23 -21 30 -72q4 -23 7 -25q4 -2 15 -2h10q42 0 60 -7.5t24 -28.5q4 -14 1 -26q-6 -18 -25 -30q-13 -9 -59 -18l-20 -3l-1 -42q-1 -41 -6 -54q-7 -21 -21 -26q-8 -3 -18 -3q-23 0 -36 10t-19.5 26t-11.5 54l-4 27h-37q-41 0 -56.5 4.5
t-22.5 18.5q-5 10 -4 25q1 26 19 39.5t59 19.5q28 5 31 9q2 3 2 14v12q0 53 7 70q8 17 28 22z" />
    <glyph glyph-name="comma" unicode="," horiz-adv-x="177" 
d="M60 72q7 3 29 2q31 -1 50 -14t19 -39q0 -13 -6 -30q-19 -48 -42 -71q-11 -11 -22 -13q-10 -2 -14 -2q-32 0 -32 33q0 5 2 17l3 14l-10 14q-15 18 -15 35q0 36 38 54z" />
    <glyph glyph-name="hyphen" unicode="-" horiz-adv-x="376" 
d="M78 316q28 2 70 2q75 0 102 -3q78 -8 94 -22q12 -10 12 -38q0 -11 -3 -19q-15 -33 -87 -33q-3 0 -9.5 0.5t-10.5 0.5q-118 6 -160 15q-34 7 -51 20q-13 10 -13 26q0 18 15 33q14 15 41 18z" />
    <glyph glyph-name="period" unicode="." horiz-adv-x="171" 
d="M22 33v6q0 29 17 47.5t46 18.5q28 0 43 -14q22 -19 22 -53q0 -25 -14 -44q-18 -24 -52 -24q-26 0 -43.5 17.5t-18.5 45.5z" />
    <glyph glyph-name="slash" unicode="/" horiz-adv-x="394" 
d="M292 552q6 3 18 3q10 0 19 -3q38 -13 41 -55v-5q0 -22 -27 -82q-31 -69 -108 -225.5t-90 -175.5q-21 -30 -33 -35q-10 -4 -20 -4q-18 0 -35 9q-32 17 -32 44v7q2 22 38 100q153 326 185 374q26 41 44 48z" />
    <glyph glyph-name="zero" unicode="0" horiz-adv-x="495" 
d="M275 383q-13 6 -29 6q-28 0 -51 -22q-37 -37 -37 -95v-13q3 -61 36 -99q21 -24 47 -25h5q39 0 65.5 33.5t26.5 84.5q0 12 -4 36q-16 75 -59 94zM156 536q36 16 84 16q53 0 98 -21q45 -23 78 -71q34 -51 48 -117q5 -24 6 -78v-23q0 -53 -9 -90q-29 -118 -123 -161
q-47 -21 -94 -21q-60 0 -106 33.5t-71 81.5q-42 82 -42 196q0 63 15 112q15 48 46.5 87t69.5 56z" />
    <glyph glyph-name="one" unicode="1" horiz-adv-x="305" 
d="M175 553q6 1 24 1q33 0 40 -3q5 -1 15 -12q27 -25 27 -70q0 -41 -10 -168q-6 -93 -11 -238q-1 -44 -4 -54t-14 -20q-15 -14 -44 -17q-1 0 -3.5 -0.5t-4.5 -0.5q-26 0 -40 8q-16 9 -22 37q-2 8 -2 30q0 30 1 59q2 58 12 269l2 26q-27 -16 -46 -19h-6q-17 0 -34.5 8.5
t-23.5 20.5q-6 10 -6 35q0 9 2 19q7 20 38.5 42.5t73.5 36.5q29 9 36 10z" />
    <glyph glyph-name="two" unicode="2" horiz-adv-x="451" 
d="M226 542q26 2 32 2q12 0 30 -2q38 -5 64 -32.5t34 -71.5q2 -8 2 -27q0 -70 -34 -128q-33 -57 -113 -137l-32 -33h78q80 0 92 -4q48 -14 48 -66q0 -40 -21 -56q-12 -9 -66 -12q-16 -1 -81 -1q-133 0 -167 3q-41 4 -52 12.5t-14 39.5q0 2 -0.5 6t-0.5 6q0 51 28 91
q24 34 101 121q58 66 69 84q15 24 15 41q0 9 -5 16q-5 6 -16 6q-26 0 -72 -36q-32 -26 -42 -26h-3q-22 2 -40.5 23t-18.5 48q0 10 3 19q7 22 42 50q78 58 140 64z" />
    <glyph glyph-name="three" unicode="3" horiz-adv-x="434" 
d="M25 96q0 30 16.5 48.5t43.5 18.5q19 0 53 -22q42 -29 63 -29q8 0 20 5q11 5 19.5 17.5t8.5 27.5q0 4 -2 12q-3 9 -10 19q-15 17 -76 27q-31 3 -42 23q-12 22 -12 48q0 28 12 41.5t39 18.5q54 12 64 18q14 8 14 21q0 20 -22 32q-7 3 -14 3q-13 0 -60 -17q-20 -8 -38 -8
q-20 0 -37 10q-28 17 -28 52q0 32 23 53q38 36 120 36q17 0 49 -4q82 -13 120 -70q24 -36 24 -84t-26 -85q-1 -2 -3.5 -5t-3.5 -5l-1 -2l10 -6q10 -5 25 -21.5t20 -27.5q15 -31 15 -93v-14q-1 -51 -21 -84q-21 -33 -46 -49q-49 -32 -116 -32q-29 0 -59 6q-78 15 -122 67
q-20 23 -20 54z" />
    <glyph glyph-name="four" unicode="4" horiz-adv-x="469" 
d="M170 542q2 0 5.5 0.5t5.5 0.5q23 0 40.5 -10t21.5 -26q2 -8 2 -15q0 -30 -34 -132q-17 -48 -17 -53q0 -1 13 -1q47 0 55 4q4 2 6 8q6 27 32 36q11 4 31 4q32 0 43 -8q3 -1 11 -20l7 -17l12 -3q23 -5 31 -18t10 -46v-13q0 -29 -8 -40q-11 -16 -47 -20v-114l-1 -64l-5 -10
q-7 -12 -13.5 -15.5t-23.5 -4.5h-10q-45 0 -59 6q-14 7 -18 55t-4 92t-5 44q-3 0 -23 -4q-32 -8 -88 -13q-28 -2 -36 -2q-36 0 -58 21q-21 20 -21 58q0 35 16 87q7 24 33 94t34 88q22 47 62 51z" />
    <glyph glyph-name="five" unicode="5" horiz-adv-x="456" 
d="M108 556q8 3 20 3q44 0 62 -18q3 -3 53.5 -6.5t89.5 -3.5q47 0 64 -3.5t25 -15.5q10 -15 10 -51q0 -39 -13 -53q-10 -11 -35 -11q-17 0 -56 3q-48 4 -75 4q-30 0 -36.5 -2.5t-10.5 -15.5q-2 -10 -2 -13q0 -9 9 -15q9 -7 62 -15q51 -7 77 -24q50 -33 64 -79q10 -31 10 -81
q0 -25 -2 -35q-7 -41 -32.5 -77.5t-60.5 -54.5q-44 -22 -99 -22q-81 0 -141 42q-13 9 -32.5 30t-26.5 32q-7 12 -7 38q0 25 6 38q10 21 23 31q14 11 34 11q17 0 32 -8q12 -7 31 -24q45 -41 80 -41q19 0 29 6q30 18 30 51q0 1 -0.5 3.5t-0.5 3.5q-5 27 -47 35q-14 2 -51 4
q-60 3 -80 8t-36 22q-13 14 -15.5 29t-2.5 79q0 70 4 99q7 51 16 68q12 21 31 29z" />
    <glyph glyph-name="six" unicode="6" horiz-adv-x="466" 
d="M279 211q-12 4 -28 4q-44 0 -66 -20q-14 -13 -14 -31q0 -19 15 -34t39 -18q1 0 4 -0.5t5 -0.5q40 0 59 21q15 15 15 36q0 32 -29 43zM261 541q2 0 5 0.5t4 0.5q38 0 52 -38q5 -15 5 -32q0 -34 -12 -48q-9 -9 -35 -14q-62 -12 -89 -48q-6 -8 -16.5 -26.5t-10.5 -21.5
q0 -1 1 -1q5 0 34 10.5t33 11.5q32 8 59 8h7q31 -4 51 -13q52 -25 78 -87q15 -39 15 -79q0 -66 -37 -115q-51 -68 -157 -78q-8 -1 -22 -1q-74 0 -128 44q-52 40 -69 121q-4 17 -4 64q0 94 15 144q37 121 140 169q50 25 81 29z" />
    <glyph glyph-name="seven" unicode="7" horiz-adv-x="488" 
d="M93 553q11 1 33 1q28 0 48 -1q128 -6 215 -22q39 -8 57 -24.5t18 -47.5q0 -45 -34 -71l-12 -10l-18 -65q-59 -213 -77 -264.5t-39 -64.5q-20 -13 -44 -13q-23 0 -43.5 11.5t-29.5 29.5q-8 18 -8 39q0 19 4 36q8 42 42 169q33 124 33 134t-159 27q-28 3 -36 6
q-18 6 -18 43v9q3 35 19 53q19 22 49 25z" />
    <glyph glyph-name="eight" unicode="8" horiz-adv-x="473" 
d="M265 186q-12 6 -25 6q-22 0 -39 -14.5t-17 -32.5q0 -17 14 -30t33 -13q12 0 26.5 6.5t21.5 15.5q9 10 9 25q0 25 -23 37zM255 386q3 8 3 14q0 15 -13.5 26t-30.5 11q-14 0 -26 -9q-20 -15 -20 -33q0 -11 11 -24q14 -15 35 -15q26 0 41 30zM172 538q16 4 52 4q29 0 45 -3
q47 -9 83.5 -51t36.5 -97q0 -7 -2 -25q-3 -16 -21 -57q7 -6 14 -11q43 -32 62 -87q5 -12 6 -46v-7q0 -122 -81 -161q-51 -25 -141 -25q-101 0 -145 34q-40 31 -51 80q-4 20 -4 56q0 29 3 41q8 34 42 74l7 8l-13 15q-40 45 -40 106q0 8 2 22q8 54 42.5 85t102.5 45z" />
    <glyph glyph-name="nine" unicode="9" horiz-adv-x="447" 
d="M268 394q-11 6 -31 7h-7q-39 0 -46 -33q-1 -4 -1 -10q0 -27 29 -39q14 -6 28 -6q41 0 51 28q2 8 2 12q0 26 -25 41zM186 534q13 3 34 3h22q63 -1 95 -13q43 -16 64 -56q12 -26 19 -121q3 -42 3 -77q0 -62 -8 -100q-3 -13 -5 -28q-4 -30 -27 -68q-50 -86 -163 -99
q-18 -2 -29 -2q-48 0 -92.5 15.5t-61.5 39.5q-12 16 -12 43q0 18 6 33q4 12 14 22t20 13q6 2 24 2q27 0 51 -5q28 -6 46 -6q22 0 44 13q14 8 31 27t17 26q0 3 -30 3q-69 0 -108.5 14.5t-64.5 49.5q-29 42 -29 97q0 39 17 73q39 77 123 101z" />
    <glyph glyph-name="colon" unicode=":" horiz-adv-x="189" 
d="M61 264q10 3 20 3q33 0 53 -22q17 -19 17 -50q0 -13 -2 -19q-10 -34 -51 -34h-5q-57 3 -68 57q-1 5 -1 14q0 39 37 51zM100 429q31 -2 49 -17t18 -42q0 -52 -54 -60q-5 -1 -14 -1q-25 0 -43 12.5t-22 34.5q-2 10 -2 14q0 20 11.5 36t30.5 22q3 1 26 1z" />
    <glyph glyph-name="semicolon" unicode=";" horiz-adv-x="194" 
d="M81 262q8 2 18 2q21 0 34 -5q37 -14 37 -52q0 -5 -2 -17q-2 -10 -15 -38t-21 -39q-15 -20 -40 -20q-35 0 -35 34q0 5 2 15l3 14l-12 13q-16 19 -16 33q0 8 1 12q8 38 46 48zM37 421q15 18 49 18q24 0 38 -9q33 -19 33 -56q0 -23 -17 -40q-17 -16 -44 -16q-43 0 -63 34
q-8 14 -8 32q0 24 12 37z" />
    <glyph glyph-name="less" unicode="&#x3c;" horiz-adv-x="397" 
d="M291 463q15 3 25 3q30 0 46 -24q13 -19 13 -38q0 -37 -53 -72q-15 -10 -57 -31q-40 -20 -40 -23q0 -2 61 -35q42 -22 57.5 -34t19.5 -26q2 -5 2 -15q0 -39 -31 -55q-13 -6 -31 -6q-25 0 -93 30q-46 20 -102 54t-66 48q-17 23 -17 54q0 23 11 39q9 12 91 55q122 64 164 76
z" />
    <glyph glyph-name="equal" unicode="=" horiz-adv-x="403" 
d="M198 264q85 5 93 5q27 0 50 -4q35 -6 38 -41v-6q0 -27 -30 -41q-43 -21 -226 -23q-57 0 -75 13q-15 11 -15 29q0 30 25 47q20 13 140 21zM182 416q22 2 97 2h60l9 -6q18 -10 22 -30q1 -3 1 -9q0 -20 -16.5 -34.5t-44.5 -18.5q-13 -2 -15 -4q-2 -3 -73.5 -6.5t-121.5 -3.5
q-76 0 -76 43q0 35 32 50q21 9 126 17z" />
    <glyph glyph-name="greater" unicode="&#x3e;" horiz-adv-x="389" 
d="M34 418q17 40 59 40q17 0 32 -7q28 -11 114.5 -56.5t99.5 -55.5q24 -18 26 -50v-7q0 -29 -12 -48q-8 -12 -26 -23q-100 -64 -199 -96q-27 -9 -43 -9q-9 0 -23 4q-17 6 -27 22t-10 35q0 24 16 37q23 20 137 66q17 7 17 9q0 3 -84 50q-61 35 -75 57q-6 10 -6 17t4 15z" />
    <glyph glyph-name="question" unicode="?" horiz-adv-x="389" 
d="M99 65q17 34 52 34q13 0 25 -4q28 -7 39 -27q9 -15 9 -33q0 -22 -11.5 -40t-30.5 -25q-13 -5 -28 -5q-23 0 -39.5 12.5t-21.5 31.5q-2 10 -2 18q0 22 8 38zM161 538q17 4 45 4q22 0 30 -2q53 -9 91 -55.5t38 -110.5q0 -120 -113 -157q-21 -7 -28.5 -14.5t-8.5 -23.5
q-3 -27 -13 -36q-14 -12 -42 -12q-24 0 -44 9q-11 5 -13.5 12t-4.5 34q0 6 -1 26t-2 27q0 3 -0.5 7.5t-0.5 6.5q0 34 15.5 49t52.5 25q26 7 35.5 12.5t13.5 14.5q3 6 3 12q0 15 -21 25q-8 4 -16 4q-13 0 -49 -18q-34 -17 -51 -18h-4q-26 0 -42 32q-6 12 -6 35q0 24 6 35
q12 21 54.5 45.5t75.5 31.5z" />
    <glyph glyph-name="at" unicode="@" horiz-adv-x="556" 
d="M282 260q-10 5 -18 1q-7 -3 -13.5 -12t-6.5 -15q0 -11 6.5 -19t15.5 -8q7 0 13 3q6 2 7.5 6.5t3.5 24.5l1 14zM200 460q30 10 67 10h30q65 -1 109 -14q126 -36 126 -180q0 -10 -2 -36q-9 -66 -44 -104t-93 -38q-28 0 -55 12l-10 4l-12 -6q-24 -12 -54 -12q-29 0 -49 12
q-43 28 -53 67q-5 18 -5 48q0 27 4 38q10 34 47.5 62.5t78.5 28.5q22 0 31 -3q11 -3 23 1q16 4 22 4q30 0 36 -25v-7q0 -38 -10 -93q-5 -22 -5 -32q0 -3 2 -5q9 -6 24 4q38 25 38 78q0 23 -9 42q-6 12 -20 26.5t-26 20.5q-43 20 -88 20q-21 0 -53 -7q-63 -16 -97 -73
q-20 -34 -20 -80t20 -85.5t54 -56.5q24 -12 50 -12q19 0 53 8q24 6 40 6q11 0 17 -3q10 -6 19.5 -21t9.5 -29q0 -10 -6 -19q-8 -12 -35 -21q-53 -18 -108 -18q-37 0 -64 9q-42 13 -74 38q-30 23 -54 70q-30 57 -30 128q0 14 1 21q4 39 24 92q37 94 150 130z" />
    <glyph glyph-name="A" unicode="A" horiz-adv-x="511" 
d="M250 290q-6 10 -8 10h-1q-10 0 -21 -47q-2 -13 -3 -15q-1 -4 4 -4l21 2q27 2 27 4q0 12 -19 50zM224 547q13 3 29 3q46 0 59 -19q7 -11 52 -137q10 -30 59.5 -165t61.5 -172q3 -12 3 -21q0 -40 -48 -50q-12 -2 -17 -2q-22 0 -39 11q-10 6 -17 16t-24 44q-17 33 -23 33
q-114 -9 -115 -10l-1 -2q-1 -3 -2.5 -6.5t-2.5 -6.5q-14 -39 -33 -66q-13 -19 -27 -26.5t-39 -7.5q-50 0 -62 41q-3 9 -3 14q0 6 7 41l6 29q-25 25 -25 64q0 16 6 30q9 17 33 25l16 6l9 24q54 177 74 234q3 8 9 28t9 24.5t14 12t31 11.5z" />
    <glyph glyph-name="B" unicode="B" horiz-adv-x="489" 
d="M266 219q-9 4 -26 4q-26 0 -54 -7l1 -30q3 -45 3 -47l1 -17q41 5 64 17q16 8 28 22.5t12 25.5q0 19 -29 32zM253 398q0 29 -35 29q-10 0 -22 -3l-13 -2l-1 -31q0 -34 1 -38q1 -7 8 -6q62 16 62 51zM220 551h18q49 0 71 -4q38 -9 61.5 -41t23.5 -77q0 -17 -3 -33
q-7 -33 -23 -65l-7 -15l20 -10q34 -18 51.5 -35.5t25.5 -48.5q9 -32 9 -63q0 -69 -34 -109q-18 -21 -49 -40.5t-57 -26.5q-70 -18 -186 -18q-52 0 -65.5 2t-23.5 11q-17 15 -17 40q0 12 3 25q7 41 7 220q0 144 -4 148q-1 1 -11 16q-7 13 -7 33t6 32q13 25 45.5 37.5
t100.5 18.5q5 0 15.5 1t18 1.5t11.5 0.5z" />
    <glyph glyph-name="C" unicode="C" horiz-adv-x="483" 
d="M280 541q6 2 32 2q35 0 63 -4q43 -9 64.5 -29.5t21.5 -63.5q0 -26 -9 -39.5t-29 -24.5q-13 -5 -23 -5q-2 0 -9 0.5t-13 0.5q-19 1 -66 1q-30 0 -49 -7q-44 -17 -66 -59q-14 -27 -14 -64q0 -33 11 -55q9 -18 27 -34.5t33 -20.5q10 -2 19 -2q27 0 58 7q28 5 41 5
q19 0 33 -8q21 -12 33 -36q6 -13 6 -41q0 -25 -6 -40q-11 -27 -56 -42q-49 -16 -100 -16q-43 0 -69.5 6.5t-58.5 24.5q-35 20 -54 38q-77 71 -77 195v13q6 148 103 226q68 54 154 72z" />
    <glyph glyph-name="D" unicode="D" horiz-adv-x="491" 
d="M237 381q-20 7 -33 7q-5 0 -5 -2q0 -18 -11 -185l-3 -72q2 -2 37.5 13t42.5 20q59 38 59 102q0 9 -1 14q-7 44 -25.5 66.5t-60.5 36.5zM127 549q3 1 17 1q46 0 71 -6q96 -19 156 -58q76 -49 94 -155q4 -23 4 -76q0 -40 -2 -52q-13 -87 -64 -146q-43 -50 -96.5 -69.5
t-153.5 -20.5h-19q-43 0 -61 4.5t-32 18.5q-18 18 -18 46q0 30 19 55q8 13 11 48.5t7 154.5q0 9 1.5 32.5t2 43t0.5 29.5q0 9 -1 9q-3 0 -14.5 13t-15.5 20q-5 9 -5 26q0 27 18 44q21 21 61 32q8 2 20 6z" />
    <glyph glyph-name="E" unicode="E" horiz-adv-x="464" 
d="M84 526q9 6 22 6q28 0 55 -18q6 -3 11 -3q12 0 24 1q29 3 104 3q43 0 61 -2q34 -3 34 -53q0 -42 -27 -56q-14 -8 -100 -11q-48 -2 -69 -4l-17 -1l1 -12q1 -4 1.5 -16t0.5 -17l2 -21l22 2q32 2 62 2q57 0 65 -3q12 -4 19.5 -21t7.5 -36q0 -17 -7 -30q-11 -19 -75 -31
q-71 -13 -92 -13q-3 0 -3 -44v-44l14 2q20 3 88 9t88 6q32 0 42 -5q18 -10 22 -41q2 -14 2 -20q0 -45 -31 -59q-23 -11 -145 -22q-83 -8 -127 -8q-35 0 -52 5q-23 7 -38 29q-8 11 -10.5 54.5t-3.5 201.5l-1 144l-6 9q-5 7 -5 24t5 27q21 45 56 66z" />
    <glyph glyph-name="F" unicode="F" horiz-adv-x="487" 
d="M135 529q1 0 8 0.5t13 0.5q53 0 159.5 -7t118.5 -11q14 -5 22.5 -20.5t8.5 -34.5q0 -4 -2 -16q-4 -20 -15.5 -30t-36.5 -17q-23 -5 -98 -5q-78 0 -80 -2t-2 -37l-1 -37l19 2q13 1 52 1q46 0 55 -2q53 -9 53 -56q0 -11 -1 -16q-7 -38 -36 -46q-30 -9 -109 -18l-32 -4
l-1 -19q-1 -8 -3 -67q-4 -63 -11 -85q-8 -21 -21 -28t-44 -7q-28 0 -41 6q-30 14 -38 40q-7 23 -7 87q0 5 0.5 16t0.5 16l1 44q-28 16 -38 36q-6 11 -6 26q0 10 5 22q3 6 16 20t22 20q5 4 7 49q2 50 2 75q0 57 21 82q14 19 39 22z" />
    <glyph glyph-name="G" unicode="G" horiz-adv-x="501" 
d="M220 529q59 19 134 19q37 0 59 -7q25 -7 39.5 -26.5t14.5 -42.5q0 -36 -33 -55q-11 -6 -53 -8q-66 -3 -92 -9.5t-50 -25.5q-30 -25 -49.5 -66t-19.5 -79q0 -7 2 -21q6 -36 33 -57.5t64 -21.5h9q20 1 37 7.5t19 12.5q1 2 -1 15l-1 11l-25 -1q-5 0 -10 -0.5t-7 -0.5
q-9 0 -16 4q-28 19 -28 56q0 18 6 30q12 25 39 39q14 7 50.5 13t59.5 6h9q31 -4 46.5 -14t20.5 -30q2 -7 2 -21q0 -26 -9 -42q-6 -11 -7 -67q-1 -88 -12 -111q-12 -26 -35 -38q-34 -18 -113 -18h-23q-134 4 -198 68q-37 37 -50 98q-9 42 -9 84q0 126 66 215q44 60 131 84z
" />
    <glyph glyph-name="H" unicode="H" horiz-adv-x="524" 
d="M95 548l11 7l30 -1q32 -1 40 -5q32 -13 33 -56v-8q0 -61 -7 -131l-2 -14l15 -4q56 -14 79 -14q2 0 4 34.5t4 76.5t3 51q6 55 75 55q36 0 50 -19q10 -14 11 -26.5t2 -91.5l1 -96l10 -3q25 -7 36.5 -22.5t11.5 -47.5q0 -25 -6 -36q-13 -24 -41 -25q-13 -1 -14 -6
q0 -1 -0.5 -7t-1.5 -16.5t-1 -20.5q-3 -95 -13 -117q-4 -9 -15.5 -18t-18.5 -11q-4 -1 -16 -1q-33 0 -44 6q-25 11 -31 34t-6 109v67l-18 4l-85 16q-4 -27 -8 -59q-13 -104 -22 -125q-17 -36 -52 -36q-9 0 -13 1q-22 4 -41 15t-27 24q-5 10 -5 31q0 26 17.5 226t22.5 221
q6 24 32 39z" />
    <glyph glyph-name="I" unicode="I" horiz-adv-x="205" 
d="M67 543q12 3 24 3q41 0 63 -24q9 -12 13 -19q6 -13 8.5 -61.5t7.5 -266.5q1 -31 1 -79q0 -66 -4 -77q-6 -19 -31 -30q-26 -12 -55 -12q-20 0 -30 6q-25 13 -28 48q-6 73 -8 281q-1 128 -4 136q-1 2 -1 16q0 35 4 44q10 27 40 35z" />
    <glyph glyph-name="J" unicode="J" horiz-adv-x="462" 
d="M308 532q15 14 39 14q12 0 30 -3q44 -6 59 -30q4 -6 4 -68q0 -275 -31 -370q-22 -69 -85 -91q-17 -6 -59 -7h-19q-60 0 -89 10q-68 23 -96 72q-32 53 -37 118q0 3 -0.5 7t-0.5 6q0 18 8 34q7 12 27.5 21.5t39.5 9.5q9 0 12 -1q19 -5 31 -21t22 -51q8 -26 24.5 -41.5
t36.5 -15.5h7q30 5 40 33q14 37 18 216q2 91 5.5 120t13.5 38z" />
    <glyph glyph-name="K" unicode="K" horiz-adv-x="517" 
d="M117 553q10 2 16 2q24 0 45.5 -12.5t23.5 -28.5q1 -5 3 -75l1 -65l25 28q6 7 13 15.5t12.5 15t7.5 8.5q15 20 65 75q29 31 40 35q9 4 24 4q35 0 58 -23q15 -16 15 -39q0 -15 -11 -38q-16 -33 -49.5 -71.5t-58 -62.5t-24.5 -29q0 -2 33 -41q85 -99 116 -146q24 -35 24 -53
q0 -8 -5 -23q-8 -26 -22 -36.5t-40 -12.5h-8q-27 0 -47 19q-10 9 -84 94q-72 82 -72 83q-2 2 -2 -36q0 -85 -8 -113q-10 -35 -59 -37h-7q-42 0 -67 37q-17 25 -19 97l-1 43l-10 8q-22 18 -22 43q0 27 22 50l10 11l2 87q1 125 8 151t52 36z" />
    <glyph glyph-name="L" unicode="L" horiz-adv-x="477" 
d="M97 549q3 1 25 1q19 0 28 -4q8 -4 19 -14.5t15 -18.5q13 -27 20 -268q2 -82 3 -94l2 -24h83q81 0 101 -4q32 -8 46 -21t16 -38v-9q0 -40 -30 -56q-26 -12 -94 -16q-20 -1 -84 -1q-135 0 -160 4q-33 4 -48 15t-16 38v9q0 39 27 66l1 112q3 274 8 288q7 25 38 35z" />
    <glyph glyph-name="M" unicode="M" horiz-adv-x="543" 
d="M57 533q26 13 50 13q15 0 28 -6q11 -5 21.5 -21t56.5 -96q36 -62 46 -78.5t11 -15.5l3 4q3 4 8.5 12.5t9.5 14.5q61 92 99 136q28 33 67 33q38 0 57 -35q7 -14 7 -33q0 -30 -16 -49l-7 -9v-193v-118v-30.5v-22t-1.5 -16t-1 -10t-2 -7t-2.5 -4t-3.5 -3t-4.5 -3.5
q-18 -15 -47 -16h-9q-38 0 -54 27q-5 7 -7 46q-3 60 -3 81q0 60 -1 78l-2 34l-21 -25q-49 -57 -61 -64q-6 -3 -17 -3q-14 0 -21 4q-9 4 -28 28t-33.5 43.5t-14.5 16.5v-11q-1 -11 -2 -30.5t-1 -37.5q-4 -137 -18 -155q-15 -19 -50 -19q-47 0 -63 25q-6 9 -8 37q-1 9 -1 80
q0 232 4 322q2 44 8 55q7 13 24 21z" />
    <glyph glyph-name="N" unicode="N" horiz-adv-x="507" 
d="M342 255q0 18 -2.5 100.5t-2.5 101.5v40l7 9q13 18 37 24q12 3 25 3q39 0 57 -16q17 -16 23 -275q1 -42 1 -112q0 -111 -5 -124q-12 -26 -57 -26h-6q-22 0 -32 5q-34 18 -138 167q-38 56 -43 62l-9 11l-1 -6q0 -18 4 -80t4 -80q1 -14 1 -32q0 -15 -2.5 -21t-13.5 -19
q-18 -21 -49 -22h-9q-58 0 -73 41q-5 12 -7 210l-3 167l-8 11q-17 23 -17 60q0 33 14 48q20 22 61 22q5 0 17 -2q28 -7 44 -25q13 -13 141 -200l42 -60v18z" />
    <glyph glyph-name="O" unicode="O" horiz-adv-x="533" 
d="M294 368q-12 3 -20 3q-9 0 -21 -3q-31 -9 -53 -34.5t-31 -60.5q-3 -12 -3 -40q0 -27 3 -42q15 -65 77 -68h8q73 0 102 69q13 32 13 67q0 34 -13 59q-18 38 -62 50zM211 522q19 6 46 6q44 0 86 -14q159 -53 167 -225v-20q0 -48 -14 -101q-35 -125 -121 -173
q-45 -25 -93 -28q-2 0 -8 -0.5t-9 -0.5q-57 0 -85 10q-5 2 -13 4q-5 2 -6 2q-5 -3 -41 22q-74 51 -94 140q-4 19 -4 76q0 79 12 117q48 149 177 185z" />
    <glyph glyph-name="P" unicode="P" horiz-adv-x="477" 
d="M263 398q-18 5 -43 5q-8 0 -8 -1q-1 -1 -1 -12q0 -21 2 -38q2 -28 3.5 -32t7.5 -4h3q10 0 25 5.5t21 10.5q13 13 13 30q0 26 -23 36zM134 534h11t24.5 0.5t27.5 0.5q52 -1 80 -7q77 -16 120 -51q29 -24 40.5 -42t16.5 -54q1 -5 1 -15q0 -52 -25 -89q-16 -25 -46 -49
q-42 -34 -138 -60l-12 -4v-11q0 -9 2 -33q5 -62 5 -79q0 -15 -1 -19q-5 -26 -19 -38t-45 -16q-6 -1 -18 -1q-39 0 -60 24q-8 9 -13 35.5t-14 111.5q-20 192 -20 263q0 8 -9 14q-18 13 -19 38v7q0 38 29.5 54t81.5 20z" />
    <glyph glyph-name="Q" unicode="Q" horiz-adv-x="545" 
d="M300 362q-13 5 -23 5q-21 0 -45 -13q-24 -14 -38 -35q-28 -41 -28 -98q0 -15 3 -27q15 -65 93 -75q3 0 6 -1l5 1l-1 1l-1 1q-45 53 -45 77q0 8 3 15q4 14 21 28t35 19q11 3 18 3q16 0 43 -23q20 -17 21 -14q4 8 4 26q0 8 -2 22q-9 67 -69 88zM259 523q1 0 5 0.5t6 0.5
q53 0 92 -15q34 -13 66.5 -40.5t52.5 -59.5q20 -33 27 -60t7 -72q0 -39 -5 -64q-10 -51 -30 -93l-10 -22l23 -33q21 -29 27 -41q3 -7 3 -19t-3 -21q-7 -20 -27.5 -34t-41.5 -14q-14 0 -21 5q-15 8 -42 42l-7 9l-18 -8q-41 -19 -94 -19q-58 0 -95 13.5t-77 47.5
q-50 44 -68 117q-6 23 -6 66q0 40 5 66q45 220 231 248z" />
    <glyph glyph-name="R" unicode="R" horiz-adv-x="519" 
d="M239 390q-15 6 -25 6q-6 0 -8 -2q-3 -3 -3 -15q0 -13 1 -25l3 -37h2q14 0 33 8q23 11 23 33q0 23 -26 32zM115 523q2 0 5 1l4 1h4q65 0 110 -6q89 -10 137 -46q50 -38 50 -95q0 -52 -42 -99q-17 -20 -17 -24q0 -5 14 -28q15 -25 51 -78q59 -88 64 -107q2 -8 2 -13
q0 -33 -34 -51q-15 -8 -39 -8t-35 5q-22 10 -52 48q-25 32 -83 118l-26 39l-8 -2l-10 -2q1 -23 2 -52q1 -19 1 -50q0 -54 -8 -71q-19 -42 -72 -42q-39 0 -56 17q-8 8 -11.5 18.5t-7.5 46.5q-8 62 -8 272v82l-8 9q-19 24 -19 49q0 5 2 15q4 19 29.5 33.5t60.5 19.5z" />
    <glyph glyph-name="S" unicode="S" horiz-adv-x="416" 
d="M154 543h8h39q46 -1 62 -6q45 -13 69 -37q15 -15 19 -27q5 -13 5 -25q0 -24 -14 -43t-37 -25q-3 -1 -10 -1q-14 0 -42 12q-25 11 -49 11q-19 0 -30 -8q-6 -5 -10.5 -13t-3.5 -13q3 -11 19 -19t59 -21q66 -19 92 -38q33 -26 51 -70q12 -33 12 -68q0 -83 -55 -136
q-49 -47 -133 -47q-77 0 -130 42q-40 33 -45 76v6q0 17 10 33t26 23q12 6 33 6q18 0 27 -3.5t27 -16.5q29 -21 50 -21q10 0 16 2q25 7 30 27q1 3 1 9q0 39 -93 67q-53 16 -74.5 28.5t-37.5 38.5q-21 33 -22 78v10q0 43 16 75q19 40 44.5 61t70.5 33z" />
    <glyph glyph-name="T" unicode="T" horiz-adv-x="549" 
d="M397 543q59 7 72 7q29 0 42 -21q16 -25 16 -68v-8q-1 -21 -4.5 -28.5t-15.5 -12.5q-8 -3 -67 -18.5t-81 -19.5q-13 -3 -13 -6v-1q0 -1 0.5 -3t0.5 -4t0.5 -5t0.5 -5q6 -50 16 -218q3 -58 3 -90t-3 -38q-6 -16 -26 -28q-20 -13 -43 -13q-29 0 -47 18q-15 15 -20 47.5
t-15 173.5q-10 139 -12 142q-2 2 -7 2q-7 0 -44.5 -5.5t-57.5 -5.5q-17 0 -29 5q-40 20 -40 92q0 29 6 39q9 14 27.5 19.5t101.5 18.5q120 19 239 34z" />
    <glyph glyph-name="U" unicode="U" horiz-adv-x="484" 
d="M70 551q14 4 29 4q27 0 44 -7q16 -7 22.5 -22t8.5 -47q1 -9 3 -130t4 -132q3 -27 19.5 -46t42.5 -19h7q18 1 27.5 12t14.5 36q6 25 14 130q13 169 28 186q15 19 53 19q13 0 20 -1q26 -3 38 -12t16 -28q3 -15 3 -132t-3 -168q-7 -134 -16 -175.5t-32 -47.5q-4 -1 -19 -1
q-33 0 -45 4q-23 8 -33 37q-5 -3 -11 -8q-19 -17 -38.5 -23t-57.5 -6q-34 0 -52 6q-43 14 -75.5 50.5t-44.5 82.5q-15 60 -15 179q0 72 6 154q5 62 11.5 80t30.5 25z" />
    <glyph glyph-name="V" unicode="V" horiz-adv-x="589" 
d="M98 540q12 3 26 0q15 -3 27.5 -18.5t29.5 -51.5q1 -2 35 -76t48 -104q20 -45 22 -47l1 -1q1 0 51 87q62 110 83 142.5t32 39.5t26 7q24 0 47.5 -15.5t34.5 -36.5q6 -14 6 -34q0 -16 -3 -34q-5 -16 -188 -334q-42 -74 -52 -84t-20 -15t-29 -4q-44 3 -73 34q-15 15 -15 42
v8l1 16l-31 67q-75 162 -122 271l-12 29v22q0 34 15 53q7 10 26 21.5t34 15.5z" />
    <glyph glyph-name="W" unicode="W" horiz-adv-x="700" 
d="M574 543q9 3 20 3q40 0 65 -28q19 -23 19 -57q0 -14 -1 -21q-7 -64 -40.5 -210.5t-53.5 -199.5q-15 -42 -32 -53q-16 -11 -37 -11q-32 0 -49 20q-18 23 -53 110q-15 38 -27.5 66.5t-19.5 44t-7 14.5l-2 -9q-2 -8 -5.5 -24.5t-6.5 -31.5q-26 -127 -38 -154q-5 -12 -14 -21
q-21 -23 -52 -23q-34 0 -54 27q-36 49 -112 256q-51 136 -51 185v9q2 35 19.5 57.5t48.5 22.5q21 0 42 -18q16 -15 89 -190l15 -35l7 31q32 149 55 180q19 27 57 27q23 0 36 -13q14 -14 60 -124q36 -83 38 -83q1 0 16 77q25 129 37 151q11 17 31 25z" />
    <glyph glyph-name="X" unicode="X" horiz-adv-x="522" 
d="M102 -30q-25 0 -49.5 24t-24.5 55q0 18 7 32q16 33 131 183l7 9l-21 22q-115 122 -127 162q-2 5 -2 17t6 26q21 43 71 43q17 0 27 -5q27 -12 94 -102q24 -32 26 -32q1 0 17 33q39 80 57 98q13 13 38 13q30 0 53 -15q33 -21 33 -54q0 -10 -5 -27q-20 -54 -77 -150l-6 -11
l51 -68q58 -78 75 -105t17 -43v-7q-3 -32 -28 -55.5t-56 -23.5q-24 0 -44 20t-73 98l-26 37l-3 -4q-4 -3 -8.5 -9.5t-10.5 -14.5q-54 -79 -88.5 -112.5t-60.5 -33.5z" />
    <glyph glyph-name="Y" unicode="Y" horiz-adv-x="471" 
d="M44 525q27 23 54 23q17 0 29 -9q13 -9 118 -179l4 -6l12 25q36 74 47 109q7 27 22 35q16 9 41 9q24 0 45 -8.5t28 -22.5q5 -10 5 -28q0 -21 -6 -38q-13 -38 -96 -173l-25 -40l-1 -18q-2 -21 -4 -67q-6 -125 -17 -142q-18 -26 -65 -26t-69 25q-9 9 -11 17q-1 4 -1 70
q0 81 1 115l2 44l-49 80q-75 123 -80 135q-5 11 -5 25q0 29 21 45z" />
    <glyph glyph-name="Z" unicode="Z" horiz-adv-x="466" 
d="M269 546q30 2 81 2q50 0 65 -5q29 -10 29 -57q0 -45 -34 -66q-8 -4 -18.5 -19.5t-58.5 -94.5q-89 -146 -91 -149l-25 -41l11 -1q5 -1 84.5 -2.5t84.5 -2.5q19 -2 32 -22t13 -44q0 -5 -2 -17q-8 -35 -43 -44q-56 -13 -240 -13q-67 0 -82 2t-29 15q-22 19 -23 55v9
q0 22 20 53q35 54 169 251l26 39l-82 1q-71 1 -82.5 2.5t-21.5 14.5q-15 18 -15 44q0 16 6 32q9 30 29 38q16 7 197 20z" />
    <glyph glyph-name="bracketleft" unicode="[" horiz-adv-x="290" 
d="M66 600q12 2 27 2q60 0 101 -11q21 -5 28.5 -10t14.5 -16q8 -13 8 -30q0 -55 -69 -62l-23 -2q1 -26 3 -102.5t4.5 -141.5t4.5 -98l1 -30l25 -1q74 -2 74 -63q0 -25 -10.5 -36t-37.5 -18q-37 -11 -91 -11q-43 0 -59 8q-14 7 -20 24t-9 56q-9 130 -14 377v56q0 61 9 78
q12 25 33 31z" />
    <glyph glyph-name="backslash" unicode="\" horiz-adv-x="394" 
d="M25 500q5 54 63 54q12 0 22 -7q21 -14 49 -61q10 -17 70.5 -141.5t94.5 -196.5q45 -94 46 -119v-7q0 -27 -31 -42q-24 -11 -37 -11q-28 0 -55 45q-15 25 -87.5 172.5t-100.5 209.5q-34 74 -34 97v7z" />
    <glyph glyph-name="bracketright" unicode="]" horiz-adv-x="288" 
d="M151 600q9 1 31 1q40 0 47 -3q17 -6 30 -33l7 -13v-109q0 -98 -9 -305q-4 -86 -6.5 -107.5t-10.5 -36.5q-14 -25 -68 -25h-16q-71 3 -106 20q-25 12 -25 45q0 61 77 64l24 1l1 64q10 265 10 294v14l-22 2q-47 4 -63 32q-7 10 -7 32q0 7 2 17q7 22 29 30q31 12 75 16z" />
    <glyph glyph-name="asciicircum" unicode="^" horiz-adv-x="400" 
d="M188 593q12 2 18 2q37 0 57 -18q14 -13 41.5 -66t46.5 -104q25 -67 25 -94q0 -60 -56 -63h-5q-25 0 -38 17q-20 29 -65 149l-4 11l-19 -30q-6 -9 -18.5 -29.5t-16.5 -26.5q-37 -62 -62 -74q-13 -7 -29 1q-38 19 -38 59q0 7 1 11q4 23 94 179q28 47 38.5 59.5t29.5 16.5z
" />
    <glyph glyph-name="underscore" unicode="_" horiz-adv-x="397" 
d="M147 76q42 2 61 2q89 0 139 -14q30 -9 30 -48t-43 -52q-11 -4 -43 -4h-47q-122 0 -172.5 12.5t-50.5 43.5q0 22 17 37q13 12 32 16t77 7z" />
    <glyph glyph-name="grave" unicode="`" horiz-adv-x="192" 
d="M50 603q10 7 18 7q6 0 14 -4q21 -10 47 -51q35 -54 39 -78q3 -15 -1 -23q-10 -18 -40 -18q-4 0 -14 2q-12 2 -29 18q-34 32 -48 57q-13 20 -13 41q0 31 27 49z" />
    <glyph glyph-name="a" unicode="a" horiz-adv-x="438" 
d="M227 104q-6 5 -27 5h-7q-29 0 -29 -9q0 -1 4 -7q8 -9 37 -9q28 0 28 9q0 7 -6 11zM249 208q-7 39 -47 39q-9 0 -21 -3q-19 -4 -37 -4q-38 0 -47 31q-3 11 -3 17q0 9 4 17q10 25 72 41q21 6 53 6q94 0 127 -47q27 -38 32 -112q1 -22 6 -24q28 -13 28 -44q0 -30 -33 -45
q-5 -2 -7 -8q0 -6 -7 -42t-9 -40q-9 -21 -53 -21h-9q-34 1 -50 17q-6 6 -13 4q-28 -11 -59 -11q-49 0 -91.5 23t-55.5 57q-6 15 -6 44q0 10 2 24q5 30 27.5 52t56.5 31q24 7 65 7q38 0 63 -6z" />
    <glyph glyph-name="b" unicode="b" horiz-adv-x="410" 
d="M242 186q-2 25 -27 25q-3 0 -15 -2l-10 -2v-57h16q25 0 32 16q5 10 4 20zM98 553q3 0 7.5 0.5t5.5 0.5q25 -3 35 -12q15 -14 20.5 -41.5t9.5 -117.5q0 -10 0.5 -15.5t1 -8.5t1.5 -3.5t2 -0.5q26 7 61 7q20 0 38 -4q69 -19 96 -101q12 -36 12 -93q0 -22 -3 -39
q-14 -82 -60 -118q-37 -28 -88 -28q-26 0 -50 7l-18 4l-9 -6q-16 -11 -41 -11q-30 0 -45 16q-12 14 -16 33q-2 9 -8 13q-19 12 -25 28q-2 6 -2 21q0 37 28 59l-1 53q-5 196 -17 266q-4 32 -4 37q0 23 17 36q22 16 52 18z" />
    <glyph glyph-name="c" unicode="c" horiz-adv-x="410" 
d="M216 349h12q32 0 48 -3q4 -1 30 -11q18 -8 26 -20q15 -19 15 -41q0 -42 -42 -56q-11 -4 -22 -4t-54 3q-3 0 -7.5 0.5t-5.5 0.5q-6 0 -18 -5q-22 -10 -31 -28q-5 -10 -5 -23q0 -16 6 -27q13 -22 41 -22q9 0 18 3q12 3 49 22q36 17 46 17q14 0 31 -12.5t27 -29.5
q8 -14 8 -30q0 -29 -18 -51q-21 -27 -64.5 -45.5t-92.5 -18.5q-19 0 -39 3q-56 10 -93.5 43t-52.5 83q-6 22 -6 54q0 48 19 86q20 41 71.5 74t103.5 38z" />
    <glyph glyph-name="d" unicode="d" horiz-adv-x="402" 
d="M217 213q-14 2 -18 2q-18 0 -24.5 -10t-6.5 -32q0 -19 8.5 -26t33.5 -9l20 -2v73q0 2 -13 4zM243 510q4 33 19.5 43t53.5 10q27 0 36 -5q20 -11 25 -36q3 -14 3 -62q0 -54 -3 -160q-2 -60 -6 -182q-3 -98 -11 -116t-19 -23.5t-38 -5.5q-37 0 -54 10q-7 4 -20 0
q-24 -8 -57 -8q-18 0 -31 3q-84 22 -112 135q-6 23 -6 66q0 17 2 35q16 112 109 139q12 2 33 2q31 0 50 -3q8 -2 13.5 -2.5t5.5 0.5v10q1 9 1.5 27.5t0.5 35.5q2 63 5 87z" />
    <glyph glyph-name="e" unicode="e" horiz-adv-x="444" 
d="M242 256q-4 2 -12 2q-13 0 -22 -10q-4 -4 -6.5 -11.5t-0.5 -9.5h2q8 0 31.5 7t23.5 9t-5.5 6.5t-10.5 6.5zM206 344q22 2 30 2q110 0 140 -104q7 -22 7 -48q0 -13 -2 -16q-6 -12 -25 -22q-33 -16 -99 -32q-40 -11 -40 -12q0 -2 9 -7q8 -5 26 -6h7q24 0 54 18q37 22 51 22
q4 0 16 -4q7 -3 19 -16t17 -22q5 -13 5 -23q0 -23 -19 -43q-45 -48 -129 -56q-8 -1 -25 -1q-63 0 -114.5 27.5t-67.5 73.5q-5 12 -11 13q-13 3 -22.5 22.5t-9.5 41.5q0 41 34 51q6 1 7.5 2t2 2t1 6t1.5 10q10 48 48.5 81t88.5 40z" />
    <glyph glyph-name="f" unicode="f" horiz-adv-x="381" 
d="M110 464q13 29 46.5 49t76.5 20h4q87 0 117 -63q6 -12 5 -28q-1 -23 -16 -36t-40 -15h-8q-9 0 -30 9q-20 10 -24 7q-10 -6 -10 -32v-10h27q42 0 53 -8q13 -9 17 -34q0 -1 0.5 -4t0.5 -4q0 -23 -12 -42q-13 -20 -54 -30q-27 -7 -29 -9q-4 -4 -5 -77q-5 -160 -10 -172
q-10 -21 -53 -23h-6q-53 0 -62 22q-6 15 -6 43q0 5 2 67q3 63 3 101v25h-14q-35 0 -51 27q-9 15 -9 38q0 15 5 27q4 10 21 20t34 13q10 2 11 3v6q1 5 2 15t1 20q3 53 13 75z" />
    <glyph glyph-name="g" unicode="g" horiz-adv-x="387" 
d="M226 174l1 26h-14q-37 0 -48 -23q-4 -10 -4 -29q0 -16 3 -22q6 -15 25 -15q13 0 23 5l11 5l1 13q2 14 2 40zM253 344q28 10 55 10q12 0 23 -3q14 -4 22 -22q4 -8 5 -119q1 -63 4 -131t3 -137v-89l-8 -18q-37 -79 -150 -85h-17q-70 0 -113 39q-22 20 -38 51.5t-16 58.5
q0 41 48 49q4 1 10 1q26 0 49 -30q21 -28 28 -33.5t24 -7.5h7q29 0 40 21q3 5 4 43q0 6 0.5 14t0.5 10q0 9 -2 9h-2q-26 -8 -68 -8q-21 0 -29 2q-9 1 -28 11q-37 18 -58.5 64t-21.5 106q0 101 50 151q41 41 105 41q8 0 26 -2q20 -2 22 -2q7 0 25 6z" />
    <glyph glyph-name="h" unicode="h" horiz-adv-x="437" 
d="M103 546q6 2 30 2q25 -1 37 -7q15 -7 18 -25.5t5 -98.5q2 -85 3 -85q1 -1 24 4q29 7 71 7q22 0 29 -2q32 -8 55 -33t29 -59q11 -57 11 -170q0 -25 -2 -55q-3 -38 -12.5 -48t-41.5 -10q-56 0 -69 43q-7 26 -8 87q-1 52 -6 68q-5 14 -10.5 18.5t-18.5 5.5h-3q-37 0 -45 -8
q-2 -2 -4 -67q-4 -86 -6.5 -105.5t-12.5 -29.5q-14 -14 -35 -14q-6 0 -26 4q-29 7 -38 22q-7 11 -11 77q0 9 -1 21.5t-2 27t-1 19.5l-2 32l-11 11q-26 27 -26 70q0 42 34 59l8 5l1 15q2 21 4 64q5 101 13 125q9 25 20 30z" />
    <glyph glyph-name="i" unicode="i" horiz-adv-x="188" 
d="M27 267q0 80 63 80q10 0 16 -1q23 -4 32 -17q10 -14 15 -57q13 -94 13 -214q0 -52 -4 -64q-9 -32 -66 -32q-39 0 -51 12q-9 9 -11 22.5t-2 73.5q0 69 -2 121q0 9 -1 26.5t-1.5 30t-0.5 19.5zM62 509q12 4 26 4q31 0 52 -21t21 -53q0 -18 -5 -27q-12 -20 -33 -30
q-11 -5 -34 -5q-22 0 -34 6q-18 9 -26 28q-7 15 -7 32q0 22 11.5 41t28.5 25z" />
    <glyph glyph-name="j" unicode="j" horiz-adv-x="338" 
d="M223 343q8 2 14 2q16 0 34 -4.5t23 -10.5q15 -16 15 -63v-16q-2 -29 -4 -195q-1 -140 -3 -167.5t-12 -51.5q-8 -20 -28.5 -40.5t-43.5 -30.5q-8 -4 -9 -5q-6 -8 -50 -8q-21 0 -37 3q-44 9 -71.5 29.5t-27.5 44.5q0 21 13 36q15 17 38 17q14 0 38 -8q21 -8 28 -4
q14 6 21 23q12 30 12 225q0 160 14 196q9 20 36 28zM232 508q4 1 24 1q33 -1 47 -22q12 -18 12 -43q0 -45 -29 -62q-9 -5 -27 -5q-30 0 -48 15q-23 19 -23 58q0 6 2 14q4 16 15.5 28t26.5 16z" />
    <glyph glyph-name="k" unicode="k" horiz-adv-x="415" 
d="M95 550q10 5 17 5q2 0 6.5 -0.5t8.5 -0.5q25 -1 34 -6q16 -9 21.5 -25t8.5 -46q10 -160 14 -164h1q2 0 16.5 11.5t36 26t38.5 19.5q10 2 15 2q39 0 59 -42q8 -15 8 -30q0 -8 -1 -11q-8 -24 -50 -72l-23 -25l5 -9q19 -38 52 -80q21 -26 26 -36.5t5 -27.5q0 -34 -16 -54.5
t-45 -20.5q-11 0 -23 3q-21 5 -33 17t-44 58l-24 35q1 -10 1 -22v-7q0 -59 -25 -72q-16 -9 -46 -9q-17 0 -25 2q-31 6 -43 34q-4 11 -9 85l-2 25l-7 6q-29 20 -29 53q0 14 4.5 22t18.5 22l15 14l3 96q4 139 9 176.5t22 47.5z" />
    <glyph glyph-name="l" unicode="l" horiz-adv-x="196" 
d="M57 501q8 26 20 37.5t37 11.5h6q32 -1 44 -18q10 -14 10 -90q0 -22 -0.5 -56.5t-1.5 -96.5t-2 -113q-2 -151 -10 -178q-6 -25 -28 -33q-5 -2 -13 -2q-11 0 -20 1q-56 6 -70 34q-5 11 -6 37q0 25 2 47q3 25 14 210.5t18 208.5z" />
    <glyph glyph-name="m" unicode="m" horiz-adv-x="560" 
d="M82 362q35 -1 49 -21l21 8q26 9 38 10q14 2 20 2q61 0 85 -42l4 -7q7 5 16 13q20 19 41 25.5t59 6.5q48 0 73 -15q34 -21 47 -68q4 -13 5 -72v-26q0 -122 -6 -160q-5 -24 -14 -33q-12 -10 -51 -10q-16 0 -28 3q-17 4 -29 23q-9 15 -9 40q0 14 1 22q2 16 2 71q0 51 -2 59
q-1 9 -6 15.5t-12 3.5q-16 -7 -23 -97q-7 -84 -10 -96q-5 -27 -20 -34t-39 -7q-44 0 -63 18q-11 11 -13.5 23t-2.5 66q0 81 -10 105q-8 20 -24 20q-6 0 -8 -2q-9 -6 -11 -19t-4 -83q-3 -88 -8 -98q-4 -10 -14 -16q-15 -8 -45 -8q-45 0 -58 15q-3 3 -7 16q-6 20 -6 201
q0 106 5 119q8 17 19.5 23t37.5 6z" />
    <glyph glyph-name="n" unicode="n" horiz-adv-x="396" 
d="M136 336q27 15 77 15q68 -1 109 -42q40 -39 46 -110q7 -91 7 -179q0 -4 -0.5 -7.5t-0.5 -6.5v-2q-5 -16 -26 -25.5t-47 -9.5q-6 0 -20 2q-21 3 -31 30t-13 90q-3 53 -9 74.5t-21 28.5q-6 3 -11 3q-18 0 -36 -20l-1 -88q-1 -69 -3 -82.5t-11 -22.5q-15 -14 -45 -14
q-22 0 -33 5q-14 7 -20 19t-10 42q-6 38 -13 165q0 8 -1 20t-1.5 20.5t-0.5 12.5v11q0 46 8 62q12 18 43 18q22 0 41 -10l11 -6z" />
    <glyph glyph-name="o" unicode="o" horiz-adv-x="407" 
d="M220 211q-9 6 -25 6q-15 0 -24 -6q-14 -10 -19 -25q-3 -9 -3 -20q0 -43 31 -59q7 -4 17 -4q20 0 35.5 18t15.5 41q0 11 -2 16q-6 20 -26 33zM175 352q18 2 26 2q47 0 97 -25q12 -6 28 -6q32 0 49 -33q11 -22 11 -42q0 -10 -1 -16q-1 -8 -1 -20t1 -18q3 -18 3 -35
q0 -50 -20 -92.5t-56 -66.5q-48 -32 -112 -32q-16 0 -33 3q-50 9 -87 46t-48 87q-9 39 -9 73q0 21 5 43q13 50 54.5 87t92.5 45z" />
    <glyph glyph-name="p" unicode="p" horiz-adv-x="436" 
d="M248 217q-8 3 -24 3q-10 0 -13 -1t-3 -13q0 -6 1 -20.5t1 -19.5v-27h7q21 0 36 10q16 10 16 33q0 27 -21 35zM100 368q12 3 23 3q22 0 50 -16q9 -5 26 -2q35 7 57 7q79 0 121 -55q16 -20 25 -46q12 -36 12 -80q0 -77 -31 -129q-18 -31 -54 -55q-17 -11 -48.5 -19.5
t-56.5 -8.5q-9 0 -15 -3q-3 -2 -7 -44q-8 -99 -12.5 -122t-17.5 -33q-14 -11 -39 -11q-19 0 -46 8q-28 8 -37 35q-3 12 -3 33q0 27 5.5 88t6.5 72q5 60 5 172q0 35 -1 38q-2 9 -12 11q-24 6 -27 34q-1 6 -1 16q0 27 10 47.5t27 27.5q9 4 11 10q6 17 29 22z" />
    <glyph glyph-name="q" unicode="q" horiz-adv-x="464" 
d="M221 200q-16 9 -33 9q-5 0 -8 -1q-16 -3 -18 -41v-10q0 -14 4.5 -19t18.5 -11q18 -6 32 -6q5 0 6 1q5 3 8 54l1 18zM291 370q14 2 20 2q51 0 65 -32q3 -6 3 -21q0 -25 -4 -106q-9 -216 -9 -270v-38l20 -1q31 -1 42 -19q14 -22 14 -49q0 -15 -5 -24q-22 -43 -103 -59
q-17 -4 -36 -4q-42 0 -54 24q-7 14 -8.5 29.5t-2.5 86.5q-1 89 -5 89q-10 0 -28 -4t-27 -4q-44 0 -69 19q-37 28 -57 66q-24 45 -24 109q0 61 23 109q19 39 38 52q9 7 9 8q0 2 19 10.5t30 10.5q7 2 34 2q38 0 62 -4q12 -2 19 3q21 12 34 15z" />
    <glyph glyph-name="r" unicode="r" horiz-adv-x="402" 
d="M252 369q53 0 90.5 -32t37.5 -77v-5q-3 -44 -41 -47h-4q-17 0 -62 19q-24 11 -40 11q-32 0 -52 -16q-5 -4 -5 -18q0 -19 4 -74q4 -68 4 -84q0 -34 -5 -46q-7 -17 -19.5 -22.5t-43.5 -5.5q-30 0 -39 5q-17 8 -23 28.5t-11 84.5q-4 70 -15 159q-6 42 -6 57q0 17 10 27
q15 16 40 22q20 5 31 5q17 0 39 -11l13 -6l33 11q47 15 64 15z" />
    <glyph glyph-name="s" unicode="s" horiz-adv-x="385" 
d="M58 324q46 46 125 46q14 0 52 -4q48 -7 74.5 -26t26.5 -46q0 -28 -26 -46q-9 -6 -18 -6q-11 0 -41 8q-39 11 -55 11q-2 0 -4.5 -0.5t-3.5 -0.5q-5 -1 -12.5 -6.5t-7.5 -8.5q0 -4 45 -14q63 -13 92.5 -29t46.5 -46q12 -21 12 -47q0 -48 -35 -86q-31 -33 -84 -46
q-32 -6 -71 -6q-33 0 -48 4q-51 11 -79 39q-24 24 -24 47q0 12 5 21q18 35 72 35h26l23 -13q24 -13 36 -13q25 0 25 13q0 5 -7.5 9.5t-21 9t-24.5 7.5t-25.5 6t-16.5 4q-44 12 -64 31q-28 28 -28 67q0 14 1 21q4 35 34 65z" />
    <glyph glyph-name="t" unicode="t" horiz-adv-x="335" 
d="M112 522q11 23 48 23q15 0 28 -4q22 -5 33 -24q10 -15 12 -89l2 -54h15h5q39 0 52 -28q6 -12 6 -36q0 -22 -7 -35q-14 -25 -55 -36l-15 -4l-2 -53q0 -10 -1 -30t-1.5 -35.5t-0.5 -24.5q-3 -52 -5.5 -74.5t-11 -37.5t-18.5 -17t-35 -3q-4 0 -11 -0.5t-10 -0.5q-10 0 -18 2
q-22 6 -28 27q-2 9 -4 82q-1 52 -4 115l-1 41h-9q-22 0 -37.5 20.5t-15.5 49.5q0 27 9.5 38t36.5 20l24 7l1 31q4 96 18 130z" />
    <glyph glyph-name="u" unicode="u" horiz-adv-x="391" 
d="M58 365q7 4 24 4h17q31 0 41 -7q15 -10 19 -27.5t4 -70.5v-28q0 -14 -0.5 -30.5t-0.5 -20.5q0 -25 4 -32q7 -14 27 -14t26 11.5t10 61.5q7 92 14 115q8 29 51 29h11q44 -3 57 -27q10 -20 10 -122v-58q-1 -114 -3 -132.5t-14 -29.5q-8 -8 -22 -9q-2 0 -6 -0.5t-6 -0.5
q-43 0 -76 19l-10 7l-10 -6q-22 -13 -63 -13q-16 0 -30 3q-63 17 -92 76q-18 39 -18 87q0 33 6 87q2 14 8 76q1 25 6 35.5t16 16.5z" />
    <glyph glyph-name="v" unicode="v" horiz-adv-x="418" 
d="M213 201q3 0 18.5 36.5t16.5 43.5q0 4 11 28q17 40 26.5 53.5t20.5 15.5q3 1 10 1q24 0 47 -16.5t30 -38.5q3 -11 3 -20q0 -22 -27 -88q-20 -51 -20 -53q0 -5 -32 -81q-25 -62 -33 -76t-22 -21t-34 -7q-38 0 -58 21q-7 7 -14 25t-47 85q-58 99 -72 125t-14 42q0 2 0.5 5
t0.5 4q2 17 14 34.5t26 24.5q8 4 21 4t21 -5q25 -19 80 -103q26 -39 27 -39z" />
    <glyph glyph-name="w" unicode="w" horiz-adv-x="590" 
d="M307 359q26 0 47.5 -18.5t21.5 -46.5q0 -3 -0.5 -7.5t-0.5 -6.5q0 -10 20 -56l3 -7l10 21q2 5 6 15.5t10 25.5t9 23q21 54 39 79l19 -1q33 -2 54.5 -22t21.5 -47q0 -8 -1 -12q-7 -32 -32.5 -107.5t-45.5 -122.5q-29 -68 -52 -75q-6 -2 -31 -2q-26 0 -31 2q-13 4 -24 25.5
t-29 76.5q-1 2 -2 5l-7 19q-1 0 -2 -4q-25 -82 -36 -107q-11 -29 -55 -29h-6q-25 1 -43 13.5t-23 29.5q-6 25 -28 67q-3 6 -30 59t-38 69q-28 39 -28 64q0 22 18 48q25 36 62 36q17 0 29 -8q17 -11 51 -70q26 -46 30 -51l7 -9l13 38q21 61 32 75q14 18 42 18z" />
    <glyph glyph-name="x" unicode="x" horiz-adv-x="404" 
d="M84 377q14 5 28 4q42 -3 92 -61l22 -26l6 9q3 4 27 28q32 32 58 33h6q24 0 40.5 -15.5t16.5 -42.5q0 -14 -7 -28q-14 -27 -57 -79l-11 -13l9 -12q36 -49 59 -90q9 -18 9 -32q0 -30 -25.5 -50.5t-57.5 -20.5q-31 0 -50 19q-16 16 -42 60q-3 7 -6 7q-2 0 -20 -16
q-44 -40 -78 -51q-11 -4 -23 -4q-33 0 -48 21q-10 15 -10 36q0 20 9 35q11 19 72 72q24 20 24 22q0 1 -20 23q-42 48 -56.5 71.5t-14.5 43.5v6q3 35 48 51z" />
    <glyph glyph-name="y" unicode="y" horiz-adv-x="415" 
d="M30 327q9 16 27.5 30.5t37.5 14.5q15 0 29 -12q7 -7 45 -78q35 -65 43 -81l6 -10l14 43q5 14 11.5 35.5t7.5 24.5q2 5 4 15t3 13q11 43 60 43q12 0 26 -3q48 -13 48 -70q0 -14 -1 -22q-4 -32 -48 -144q-9 -23 -23 -60t-16 -41q-49 -124 -91 -218q-25 -51 -63 -51
q-13 0 -29 8q-40 22 -40 69q0 19 6 37.5t39 101.5l24 61l-31 55q-64 112 -78.5 139.5t-16.5 44.5q-1 7 -1 19q0 22 7 36z" />
    <glyph glyph-name="z" unicode="z" horiz-adv-x="421" 
d="M89 367q5 1 38 1q149 0 205 -7q67 -8 67 -68q0 -44 -55 -53q-9 -1 -23 -20q-10 -14 -53 -67l-38 -47l10 -2q5 -1 48 -3q39 -2 48 -7q32 -17 32 -55q0 -34 -24 -49l-12 -8l-59 1q-168 0 -208 14q-18 6 -28 18l-3 5l-5 10q-6 12 -6 29q0 13 5 25q6 12 43 53t69.5 76.5
t30.5 37.5q-2 0 -82 10q-46 7 -46 50q0 50 46 56z" />
    <glyph glyph-name="braceleft" unicode="{" horiz-adv-x="411" 
d="M310 593q2 0 5 0.5t5 0.5q27 0 46 -17t21 -42v-9q0 -45 -54 -58q-30 -7 -42 -26q-9 -14 -16 -78q-4 -38 -24 -69q-10 -15 -7 -21q11 -19 21 -65q6 -29 6 -70v-44q14 -5 30 -7q38 -6 55 -37q5 -9 5 -28q0 -42 -34 -57q-12 -5 -28 -5q-20 0 -44 6q-82 20 -109 73
q-8 16 -10 30.5t-2 59.5q0 62 -9 86q-2 7 -48 17q-21 5 -36.5 23.5t-15.5 42.5q0 14 8 30t21 22t38 7q38 2 45 7q3 3 3 13t7 45.5t12 52.5q13 42 58 76.5t93 40.5z" />
    <glyph glyph-name="bar" unicode="|" horiz-adv-x="178" 
d="M75 598h9q8 1 14 1q18 0 28 -7q18 -11 25 -47q5 -21 5 -170q0 -314 -10 -356q-9 -39 -30 -48q-7 -3 -23 -3q-19 0 -35 4q-19 6 -29 34q-5 15 -6 122v44q0 304 10 370q3 19 15 35t27 21z" />
    <glyph glyph-name="braceright" unicode="}" horiz-adv-x="406" 
d="M66 597q13 5 26 5q26 0 64 -18q33 -15 54 -36q33 -33 43 -68q4 -15 10.5 -51.5t6.5 -47.5v-11l10 -4q9 -3 37 -5q36 -2 50 -18q15 -16 15 -42q0 -21 -6 -31q-17 -28 -55 -36q-6 -1 -16 -3.5t-12 -2.5q-7 -2 -8.5 -4.5t-5.5 -13.5q-9 -26 -9 -89q0 -50 -11 -74
q-14 -31 -56 -53t-87 -25h-9q-39 0 -56 29q-7 14 -7 34q0 12 3 21q12 35 75 46l12 2l-2 23v13q0 79 30 139l5 11l-11 17q-19 32 -23 83q-3 46 -14 63.5t-41 25.5q-41 10 -50 40q-3 9 -3 18q0 20 11.5 37.5t29.5 25.5z" />
    <glyph glyph-name="asciitilde" unicode="~" horiz-adv-x="468" 
d="M116 336q14 2 30 2q43 0 61 -6q46 -14 79 -49q20 -20 35 -20t36 18q19 17 39 17q21 0 36 -18t15 -40q0 -13 -6 -25q-10 -21 -39 -38t-59 -19h-8q-42 0 -93 35q-53 36 -80 36q-18 0 -37 -17q-17 -15 -37 -15q-12 0 -26 6q-39 17 -39 54q0 11 4 19q8 19 34 36t55 24z" />
    <glyph glyph-name="nbsp" unicode="&#xa0;" horiz-adv-x="250" 
 />
    <glyph glyph-name="exclamdown" unicode="&#xa1;" horiz-adv-x="179" 
d="M30 331q6 30 21.5 39t50.5 9q25 -3 34 -11q12 -11 14 -31t2 -137q0 -122 -3 -158q-7 -54 -32 -68q-6 -4 -34 -4q-26 0 -36 6q-10 7 -17 17l-6 10l-1 98v41q0 150 7 189zM156 489q0 -68 -58 -68h-5q-45 3 -62 35q-5 8 -5 29q0 22 5 32q12 30 47 36q12 2 16 2q40 0 56 -31
q6 -12 6 -35z" />
    <glyph glyph-name="cent" unicode="&#xa2;" horiz-adv-x="411" 
d="M228 516q6 2 18 2q35 0 43 -30q4 -15 6.5 -17.5t16.5 -5.5q47 -10 65 -36q10 -13 10 -39q0 -22 -7 -33q-14 -24 -49 -24q-20 0 -44 4q-23 4 -36 4q-10 0 -22 -3q-34 -9 -55 -38t-21 -64q0 -39 28 -67q19 -19 45 -19q14 0 39 3q7 1 20 1q64 0 64 -66v-5q-2 -34 -18.5 -47
t-53.5 -19l-16 -3l-5 -15q-7 -27 -26 -33q-6 -2 -13 -2q-27 0 -45 13q-9 6 -14 38q-1 8 -14 14q-119 57 -119 188q0 89 41.5 152t113.5 88l13 4l3 13q8 30 32 42z" />
    <glyph glyph-name="sterling" unicode="&#xa3;" horiz-adv-x="524" 
d="M232 162q0 -36 -10 -65l28 2q30 2 100 2q74 0 99 -3.5t37 -16.5q14 -14 14 -39q0 -40 -50 -54q-10 -3 -60 -5q-15 -1 -64 -3t-68 -3q-42 -2 -101 -2q-61 0 -71 5q-23 12 -28 33q-2 8 -2 22q0 26 23 53q20 23 25 83l2 16h-30l-30 -1q-21 23 -21 46q0 26 16 37t50 15l17 2
v29q0 53 8 85.5t30 56.5q33 34 94 48q16 4 39 4q54 0 105 -24q18 -8 25 -18q11 -15 11 -37q0 -20 -11 -35t-28 -15h-6q-22 2 -72 14q-19 4 -26 4t-11 -1q-24 -5 -35 -26q-5 -9 -6 -44l-1 -34l27 2h16q33 0 48 -1q31 -1 41 -4t18 -13q7 -8 6 -24q-2 -34 -19 -43
q-19 -9 -72 -13q-53 -5 -57 -6v-29z" />
    <glyph glyph-name="currency" unicode="&#xa4;" horiz-adv-x="365" 
d="M197 291q-11 14 -30 14q-32 0 -32 -41q0 -18 9 -30t23 -12q13 0 26 12t13 30q0 15 -9 27zM32 386q0 17 5 23.5t18 10.5q9 3 20 3q32 0 49 -17q6 -6 18 -3q13 3 29 3q32 0 55 -10q6 -3 19 6q22 16 51 16q13 0 22 -4q7 -3 14.5 -11t9.5 -14q1 -2 1 -7q0 -21 -29 -61
l-12 -17l-1 -43q0 -41 -4 -53l-4 -11l11 -20q12 -22 12 -35q0 -15 -14 -30q-15 -16 -35 -16q-23 0 -47 19q-10 8 -20 6q-4 -1 -18 -1q-34 0 -51 5l-12 4l-12 -6q-17 -9 -33 -9q-28 0 -43 26q-7 11 -7 23q0 15 12 32l10 14l-2 13q-3 14 -3 42q0 34 4 46q4 16 4 18t-8 22
q-9 21 -9 36z" />
    <glyph glyph-name="yen" unicode="&#xa5;" horiz-adv-x="475" 
d="M80 539q10 3 24 2q24 -1 43 -29q24 -32 92 -140q13 -20 14 -20q2 0 27.5 58.5t30.5 76.5q6 19 12 26t22 12q12 4 30 4q26 0 48 -10t26 -27q2 -8 2 -17q0 -24 -6 -44q-13 -37 -90 -168q-17 -29 -17 -32q0 -4 22 -7q46 -7 54 -27q3 -6 3 -13q0 -16 -19.5 -26t-52.5 -10h-19
v-36l11 -2q54 -7 66 -19q8 -9 8 -22q0 -12 -8 -20q-17 -17 -58 -18l-25 -1l-2 -12q-6 -45 -58 -52q-6 -1 -17 -1q-27 0 -49.5 11.5t-27.5 30.5q-2 8 -2 19v12l-18 2q-71 6 -71 37q0 17 13 27q16 14 50 15l23 1v36h-7q-26 0 -50 10t-24 28q0 8 4 15q1 2 11 12q18 13 44 14
l24 1l-60 93q-57 88 -68 110q-10 20 -10 37q0 18 11 32q17 23 44 31z" />
    <glyph glyph-name="brokenbar" unicode="&#xa6;" horiz-adv-x="180" 
d="M64 225q6 3 18 3q13 0 22 -3q20 -7 32 -30q4 -8 5 -64v-21q0 -122 -14 -170q-3 -11 -11.5 -20t-17.5 -11q-10 -3 -19 -3q-45 0 -53 66q-1 7 -1 30q0 55 8 154q5 56 31 69zM61 572q11 21 40 21q37 0 51 -37q4 -9 4 -47q0 -40 -5 -90q-5 -35 -7 -64q-6 -67 -35 -80
q-7 -4 -18 -4q-35 0 -52 33q-5 10 -5 46t2 62q9 127 25 160z" />
    <glyph glyph-name="section" unicode="&#xa7;" horiz-adv-x="338" 
d="M169 264q-9 3 -18 3q-29 0 -32 -23q-1 -8 5 -14q11 -11 47 -17l27 -5q7 10 7 17q0 6 -4 14q-9 16 -32 25zM148 501q20 2 32 2q42 0 71 -14.5t29 -43.5q0 -11 -2 -17q-2 -8 -12 -18.5t-19 -12.5q-6 -2 -9 -2q-4 0 -34 8q-18 5 -30 5q-30 0 -37 -21q-5 -11 2 -18
q12 -12 53 -19q6 -1 21 -4t19 -4q36 -11 59 -43t23 -71q0 -32 -15 -61l-8 -15l8 -10q14 -17 14 -48q-1 -43 -25.5 -72.5t-65.5 -41.5q-20 -6 -53 -6t-48 4q-23 6 -42 19.5t-26 27.5q-6 12 -6 21q0 19 17.5 31t37.5 12q7 0 10 -1q9 -2 28 -11q18 -9 31 -9q6 0 18 4
q17 6 17 23q0 6 -3 11q-13 17 -85 30q-47 8 -68 30q-25 27 -25 72q0 12 3 24q5 19 20 35l7 8q-20 33 -23 51q-3 15 -3 27q0 25 15 55q28 53 104 63z" />
    <glyph glyph-name="copyright" unicode="&#xa9;" horiz-adv-x="560" 
d="M261 378q8 2 31 2q30 0 41 -4q29 -9 29 -42q0 -18 -15 -28q-7 -5 -38 -6q-28 -1 -42 -6t-25 -17q-16 -17 -16 -41q0 -38 32 -56q8 -4 12 -4q3 0 33 7q22 5 31 5q20 0 32 -19q4 -7 4 -28l-1 -18l-8 -7q-17 -15 -53 -23q-12 -2 -36 -2q-25 0 -44 7q-87 32 -87 133
q0 58 37 99q33 37 83 48zM424 383q-64 59 -144 59q-48 0 -93 -23q-86 -42 -111 -137q-6 -22 -6 -55q0 -19 3 -33q13 -64 53 -107.5t101 -59.5q20 -5 54 -5t53 5q56 15 97 57.5t55 100.5q4 16 4 48q0 31 -4 47q-17 61 -62 103zM182 467q45 18 101 18t98 -19q53 -23 92 -68
t54 -100q9 -34 9 -65q0 -25 -6 -53q-14 -70 -63 -123t-117 -72q-24 -7 -58 -8h-10q-110 0 -183 73q-41 41 -60 97q-14 44 -14 85q0 55 22 105q41 91 135 130z" />
    <glyph glyph-name="registered" unicode="&#xae;" horiz-adv-x="559" 
d="M268 311l-10 2q-5 0 -5 -7t1 -13l2 -20l8 2q18 5 18 20q0 12 -14 16zM196 374q6 2 34 2q43 0 69 -4q22 -4 39.5 -17t22.5 -27q4 -11 4 -23t-13 -31t-13 -27t40 -62q21 -27 25.5 -35.5t4.5 -17.5q0 -14 -10 -22.5t-26 -8.5q-7 0 -11 1q-12 2 -27 18q-15 15 -40 49
q-25 33 -30 33q-4 0 -3 -12q3 -28 3 -51q0 -15 -2 -23q-8 -26 -40 -26h-6q-19 1 -25 15q-11 25 -17 173q-1 30 -5 34q-11 13 -11 30q0 8 3 13q8 12 34 19zM338 433q-22 7 -51 7h-17q-18 0 -33 -3q-61 -14 -111 -65q-41 -43 -53 -108q-3 -16 -3 -35q0 -83 55 -141
q64 -68 158 -68q99 0 158 74q50 62 50 138q0 29 -6 49q-32 115 -147 152zM233 482q17 3 43 3q44 0 69 -7q57 -15 104 -56.5t69 -96.5q17 -44 17 -96q0 -51 -17 -94q-31 -74 -94 -117t-139 -43q-3 0 -9.5 0.5t-9.5 0.5q-39 3 -71 14q-68 24 -112 76.5t-55 124.5q-3 18 -3 37
q0 105 68 178q54 58 140 76z" />
    <glyph glyph-name="macron" unicode="&#xaf;" 
d="M88 610q7 1 56 1q102 0 138 -3q92 -7 112 -21q14 -10 16 -34v-7q0 -35 -37 -49q-15 -5 -90 -5q-56 0 -113 3q-79 6 -113 19t-34 37q0 7 3 16q12 37 62 43z" />
    <glyph glyph-name="degree" unicode="&#xb0;" horiz-adv-x="308" 
d="M166 506q-10 4 -17 4q-17 0 -24 -12q-8 -11 -8 -27q0 -31 22 -42q8 -3 13 -3q8 0 17 6q20 14 20 38q0 25 -23 36zM145 610q2 0 6.5 0.5t6.5 0.5q71 0 108 -62q17 -29 19 -71q1 -8 1 -23q0 -45 -22 -79q-34 -51 -108 -51q-51 0 -84 29q-45 38 -49 110v12q0 35 11 57
q33 71 111 77z" />
    <glyph glyph-name="acute" unicode="&#xb4;" horiz-adv-x="190" 
d="M109 607q9 3 16 3q9 0 19 -8q23 -17 24 -43v-5q0 -17 -6.5 -29.5t-26.5 -37.5q-33 -39 -48 -46q-7 -4 -23 -4q-14 0 -22 4q-20 9 -20 27q0 7 1 11q5 21 29 61q36 58 57 67z" />
    <glyph glyph-name="paragraph" unicode="&#xb6;" horiz-adv-x="444" 
d="M227 606q6 6 23 6q18 0 26 -5q11 -6 39 -7h16q14 0 19 4q8 8 22 8q26 0 36 -18q8 -13 13 -78q1 -10 1 -91q0 -371 -5 -401q-5 -29 -19 -35q-10 -4 -17 -4q-11 0 -21 5q-13 6 -21 31q-4 16 -4 222q0 231 1 256l1 45h-45l2 -54q2 -88 2 -252q0 -180 -2 -204q-5 -50 -28 -57
q-10 -2 -15 -2q-32 0 -38 28q-10 46 -11 156l-1 95h-36q-40 0 -59 6.5t-38 26.5q-30 32 -40 93q-3 18 -3 48q0 29 3 44q21 117 163 126q29 2 36 8z" />
    <glyph glyph-name="Agrave" unicode="&#xc0;" horiz-adv-x="510" 
d="M271 240q0 5 -11 33t-17 28q-1 0 -7 -10q-4 -8 -10.5 -30.5t-6.5 -25.5h1q6 0 28.5 2t22.5 3zM229 547q16 3 32 3q37 0 50 -12q9 -7 16 -24.5t54 -154.5q49 -141 71 -205l35 -103q2 -10 2 -15q0 -24 -16.5 -37.5t-43.5 -14.5h-8q-26 0 -41 12q-9 7 -15.5 16.5t-25.5 44.5
l-17 31l-16 -1q-22 -2 -58 -4l-43 -3l-10 -23q-22 -52 -43 -73q-18 -19 -54 -19q-43 0 -59 35q-3 8 -3 21q0 17 6 45l6 24l-5 6q-20 22 -20 58q0 7 1 11q8 38 40 45q10 2 14 6q2 2 17 47q73 221 86 250q13 28 48 34zM172 740q14 9 28 4q24 -9 70 -87q19 -32 19 -51
q0 -20 -16 -29q-10 -5 -28 -5q-7 0 -15 2q-17 6 -47 41q-39 45 -39 75q0 31 28 50z" />
    <glyph glyph-name="Aacute" unicode="&#xc1;" horiz-adv-x="498" 
d="M264 283q-7 20 -13 12q-8 -10 -20 -42l-7 -20h26q27 0 27 2q0 9 -13 48zM241 540q7 3 23 3h19q45 -1 61 -17q7 -6 10.5 -18t22.5 -87q9 -34 14 -55q22 -88 57 -223q28 -108 28 -126q0 -8 -1 -11q-4 -21 -21 -31q-19 -11 -41 -11q-31 0 -50 19q-11 10 -30 53l-18 43h-45
q-44 0 -58 2l-13 1l-13 -24q-25 -45 -46 -66q-17 -17 -43 -17h-11q-44 3 -58 34q-5 12 -5 21q0 16 13 54l6 19q-18 28 -18 57v5q3 50 41 56q15 2 20 8.5t21 45.5q95 233 115 254q6 6 20 11zM337 746q8 2 12 2q16 -4 30 -24q8 -14 8 -32q0 -15 -5 -25q-8 -17 -38 -46.5
t-47 -36.5q-7 -4 -19 -4q-17 0 -31.5 8.5t-14.5 23.5q0 21 26 57q50 68 79 77z" />
    <glyph glyph-name="Acircumflex" unicode="&#xc2;" horiz-adv-x="506" 
d="M252 292l-5 7q-4 0 -11 -14q-2 -6 -9 -27.5t-7 -24.5q0 -2 4 -2q3 0 36 3l13 1l-8 25q-7 21 -13 32zM45 91q-22 31 -22 61q0 27 9 39.5t31 18.5q14 4 17 7q3 4 33 92q40 121 75 199q11 28 46 35q7 2 29 2q30 0 41 -4q9 -3 18 -12q8 -7 15 -27t40 -124q24 -77 66 -208
q41 -124 41 -143v-5q-3 -26 -26 -38q-18 -9 -39 -9q-27 0 -46 13q-7 5 -20 29t-23.5 45t-13.5 21l-8 -1q-9 -1 -23.5 -2t-27.5 -1q-55 -1 -56 -4q-1 -5 -15.5 -33t-19.5 -36q-21 -33 -40 -38q-10 -3 -29 -3q-22 0 -30 4q-34 14 -36 50q0 16 7 42zM167 576q-14 0 -28 9
t-14 23q0 11 7 23t34 48q26 36 36 45t26 12q12 2 18 2q30 0 47 -12q17 -11 47.5 -46.5t37.5 -52.5q3 -7 3 -15q0 -13 -11 -22.5t-30 -10.5q-2 0 -4 -0.5t-4 -0.5q-15 0 -28.5 10.5t-34.5 38.5l-17 21l-21 -25q-19 -24 -27 -30q-19 -17 -37 -17z" />
    <glyph glyph-name="Atilde" unicode="&#xc3;" horiz-adv-x="510" 
d="M271 240q0 5 -11 33t-17 28q-1 0 -7 -10q-4 -8 -10.5 -30.5t-6.5 -25.5h1q6 0 28.5 2t22.5 3zM194 533q24 17 67 17q33 0 48 -12q10 -8 19.5 -30.5t52.5 -148.5q49 -141 71 -205l35 -103q2 -10 2 -15q0 -24 -16.5 -37.5t-43.5 -14.5h-8q-27 0 -42 12q-12 9 -40 61l-17 31
l-16 -1q-21 -2 -59 -4l-42 -3l-10 -23q-35 -80 -67 -89q-14 -3 -27 -3q-47 0 -61 32q-5 12 -5 23q0 17 10 56l3 14l-5 6q-20 22 -20 58q0 7 1 11q6 37 40 45q10 2 14 6t18 48q51 159 69.5 210.5t28.5 58.5zM189 729q13 3 18 3q4 0 16 -3q21 -4 50 -31q20 -18 28 -21
q10 -3 12.5 -2t3.5 9q1 21 15 30q11 8 27 8q14 0 23 -5q23 -12 23 -42q0 -12 -2 -18q-7 -31 -33.5 -50.5t-60.5 -19.5q-28 0 -51 12q-14 7 -41 30q-11 9 -13 9t-11 -18q-13 -25 -36 -28q-2 0 -4 -0.5t-3 -0.5q-19 0 -31 12.5t-12 32.5q0 30 35 65q23 23 47 28z" />
    <glyph glyph-name="Adieresis" unicode="&#xc4;" horiz-adv-x="500" 
d="M255 298q-3 5 -5 5q-6 0 -22 -43q-8 -22 -5 -22h2q3 1 28 1h22l-4 15q-10 35 -16 44zM42 105q-19 29 -19 59q0 24 5 33q10 20 36 26q15 4 17 6q4 4 38 92q37 101 77 184q13 26 17.5 30.5t25.5 11.5q15 4 34 4q63 0 71 -36q1 -3 5 -12q5 -9 36 -126q10 -39 33 -122
t28 -100q32 -112 32 -131q0 -7 -1 -10q-4 -18 -18 -27q-20 -14 -46 -14q-25 0 -44 14q-11 8 -29 46q-19 40 -24 53h-118l-12 -23q-22 -43 -42 -65q-13 -14 -21 -17t-31 -3q-25 0 -37 6q-22 12 -28 31q-3 9 -3 17q0 12 12 54zM387 657q0 -53 -44 -53h-4q-34 3 -39 43v7
q0 36 26 45q9 3 17 3q18 0 31 -12.5t13 -32.5zM216 700q4 1 12 1q18 0 26 -7q15 -12 15 -35q0 -22 -15 -40q-9 -11 -33 -11q-16 0 -24 6q-16 12 -16 33q0 18 10 33.5t25 19.5z" />
    <glyph glyph-name="Aring" unicode="&#xc5;" horiz-adv-x="509" 
d="M270 242q-18 61 -28 61q-7 0 -15.5 -30t-8.5 -35h2q46 0 50 4zM274 587q0 10 -8 19.5t-18 9.5q-6 0 -11 -4q-12 -9 -12 -25q0 -18 16 -26q6 -2 9 -2q9 0 16.5 8.5t7.5 19.5zM96 -33q-29 0 -45.5 15.5t-16.5 40.5v6q0 5 7 38l6 25l-7 8q-16 18 -17 51v5q0 46 40 56
q10 2 14 6q5 5 41 121q22 71 50 148l7 18l-8 12q-17 27 -17 71q0 35 6 46q23 48 80 60q1 0 3.5 0.5t4.5 0.5q21 0 39 -6q55 -19 65 -80q3 -18 3 -32q0 -29 -13 -54l-8 -17l14 -43q43 -125 106 -304q36 -103 36 -105q2 -12 2 -16q0 -24 -17.5 -38t-48.5 -14h-5q-27 2 -40 13
t-35 52l-21 39l-16 -1q-21 -2 -59 -4l-42 -2l-10 -24q-21 -51 -43 -73q-18 -19 -55 -19z" />
    <glyph glyph-name="AE" unicode="&#xc6;" horiz-adv-x="788" 
d="M346 238q2 24 2 36q0 40 -15 40q-10 0 -38 -42t-28 -51q0 -3 39 -3l38 -1zM390 548q44 2 77 2q78 0 158 -5t101 -12q23 -8 23 -49q0 -28 -13 -47q-10 -14 -49 -25q-20 -5 -87 -5l-70 1v-74l59 -2q63 -2 80.5 -5.5t24.5 -17.5q9 -17 9 -38q0 -38 -23 -50q-27 -14 -129 -19
l-31 -2l-1 -21q-1 -6 -2 -23t-1 -23l-1 -24l16 1q50 5 160 5h15q27 -1 36.5 -5.5t17.5 -18.5q6 -12 6 -37q0 -37 -12.5 -53.5t-44.5 -21.5q-29 -4 -105 -7h-21q-47 0 -109.5 4t-76.5 8q-39 12 -48 49q-3 18 -3 41l-2 29h-124l-19 -27q-36 -53 -66 -73q-23 -15 -39 -15
q-13 0 -30 7q-44 16 -44 53q0 16 9 32q3 6 10 17t7 12l7 12l-4 11q-6 16 -6 32q0 30 17 49q12 13 37 13q16 0 21 5q19 21 70 107q27 46 67 105q53 78 68 90t65 15z" />
    <glyph glyph-name="Ccedilla" unicode="&#xc7;" horiz-adv-x="493" 
d="M272 523q20 2 34 2q79 0 123 -23q25 -14 37 -35q5 -10 5 -24v-17q0 -30 -6 -41q-17 -33 -63 -33q-15 0 -47 5q-21 4 -47 4q-34 0 -63.5 -17.5t-44.5 -46.5q-16 -29 -16 -70q0 -34 12 -55q14 -24 33 -38q20 -14 48 -14q15 0 36 3q42 5 48 5q10 0 19 -3q37 -12 50 -51
q4 -11 4 -27q0 -48 -22 -68q-12 -12 -52 -22t-67 -10q-8 0 -10 -6t-1.5 -7t10.5 -5q23 -8 38 -28.5t15 -45.5q0 -14 -4 -26q-14 -42 -67 -54q-13 -3 -32 -3q-43 0 -65 11q-20 9 -20 32q0 15 11 24q10 9 22 9q8 0 20 -3q13 -4 29 -4q14 0 26 5t12 10q0 2 -1 3q-7 9 -42 13
q-39 6 -39 33q0 13 9 31l8 19q-72 23 -119 70q-70 70 -70 183q0 48 13 96q33 131 144 186q52 26 92 33z" />
    <glyph glyph-name="Egrave" unicode="&#xc8;" horiz-adv-x="463" 
d="M187 98q149 16 187 16q41 0 47 -4q20 -15 20 -58q0 -50 -30 -62q-22 -9 -117.5 -19t-158.5 -10q-29 0 -40 3q-34 9 -48 34q-7 15 -8.5 199t-6.5 197q-9 23 -9 35q0 20 21 51q17 25 35 37l13 8l20 -1q27 -1 47 -14q10 -6 25 -4q21 3 118 3q45 0 53 -1q20 -2 28 -10
q13 -14 13 -44q0 -31 -16 -47q-11 -10 -34.5 -14t-94.5 -7q-59 -2 -62 -3q-4 -1 -4 -17q0 -22 1 -31l1 -17l69 2h33q36 0 44 -2q17 -5 26 -29q4 -11 4 -28q0 -19 -6 -30q-7 -13 -36 -22q-21 -6 -65 -13.5t-61 -7.5h-8v-90zM148 728q10 6 14 6q32 -1 83 -90q20 -36 20 -53
q0 -32 -43 -32h-4q-16 1 -28 11q-27 19 -55 60q-17 24 -17 48q0 30 30 50z" />
    <glyph glyph-name="Eacute" unicode="&#xc9;" horiz-adv-x="453" 
d="M89 531q7 4 18 4q23 0 54 -18q4 -3 100 -4q87 0 105 -3q30 -6 30 -51q0 -15 -5 -32q-7 -23 -28 -29q-22 -6 -95 -6q-54 0 -65 -1l-21 -2v-15q0 -23 1 -33l1 -18l53 2h26q60 0 74 -7q22 -11 22 -50t-22 -49q-24 -13 -129 -23l-28 -3l-1 -42q-1 -16 -1 -39v-5h3q24 0 124 8
q30 2 60 2q33 0 42 -5q14 -7 18.5 -18t5.5 -35v-12q0 -14 -4 -25t-13 -21t-19 -12q-29 -8 -106 -13.5t-142 -5.5q-54 0 -71 5q-27 10 -38 29q-10 15 -10 105q0 39 2.5 124t2.5 116q0 54 -5 64q-5 9 -5 24q0 14 8 30q11 21 27 39t31 25zM249 717q3 3 13.5 8.5t14.5 5.5l2 -1
h3l3 -1q9 0 26 -22q10 -13 10 -33q0 -16 -7 -29q-15 -30 -64 -70q-18 -14 -38 -14q-17 0 -30.5 8t-13.5 23q0 10 4 22q5 15 34.5 54.5t42.5 48.5z" />
    <glyph glyph-name="Ecircumflex" unicode="&#xca;" horiz-adv-x="444" 
d="M89 532q13 7 24 7q4 0 18 -2q25 -6 37 -18q5 -4 59 -5q141 -2 159 -14q13 -10 15 -38v-6q0 -55 -42 -63q-12 -2 -92 -2h-82l-1 -32v-33h30q86 0 112 -6q31 -8 31 -57q0 -34 -21 -45q-28 -15 -136 -21l-24 -2l-2 -23q0 -6 -0.5 -22t-1.5 -22l-2 -19h10q24 0 90 3
q66 2 77 2q36 0 49.5 -5t20.5 -18q5 -10 5 -38t-5 -40q-7 -17 -20.5 -23.5t-46.5 -9.5q-64 -7 -179 -7q-75 0 -92 4q-35 7 -50 33q-6 10 -7 54v23q0 64 8 195q5 93 5 112q0 22 -3 28q-5 9 -5 22q0 11 2 16q6 19 24.5 40.5t35.5 31.5zM206 738q12 2 19 2q35 0 55 -18
q17 -14 42 -44t33 -47q5 -9 5 -19q0 -29 -42 -32q-15 -2 -24 2q-15 4 -45 45q-16 21 -18 21t-20 -22q-23 -28 -36 -37t-30 -9q-21 0 -35 16q-7 9 -7 15q0 14 36 61q32 42 42.5 52.5t24.5 13.5z" />
    <glyph glyph-name="Edieresis" unicode="&#xcb;" horiz-adv-x="453" 
d="M85 518q12 6 26 6q26 0 51 -17q5 -4 106 -4q100 0 107 -4q22 -11 22 -49q0 -19 -8 -37q-11 -21 -32 -25q-20 -4 -136 -7l-38 -1v-31q0 -31 2 -33q1 -2 72 -2q12 0 28 0.5t20 0.5q23 0 30 -4q24 -12 24 -52q0 -39 -25 -49q-35 -15 -132 -24l-23 -3v-29q0 -27 -2 -43
l-1 -15h15q15 0 15 2t68 6.5t96 4.5h5q31 -1 41 -10t14 -38q1 -6 1 -17q0 -47 -31 -61q-30 -12 -167 -19q-38 -1 -66 -4q-2 0 -8.5 -0.5t-10.5 -0.5q-50 0 -72 6q-27 8 -42 35q-6 12 -6 99q0 47 5 227l1 64l-6 13q-5 13 -5 24q0 23 22 54q17 24 40 37zM201 614
q0 -22 -14.5 -35.5t-37.5 -13.5q-22 0 -32 18q-5 12 -5 23q0 22 12 35q14 17 38 17q17 0 26 -9q13 -13 13 -35zM232 617q0 44 43 44q20 0 32 -11t12 -32q0 -37 -19 -47q-11 -7 -22 -7q-7 0 -11 1q-35 8 -35 52z" />
    <glyph glyph-name="Igrave" unicode="&#xcc;" horiz-adv-x="228" 
d="M98 528q10 3 24 3q33 0 53 -13q22 -13 30 -39q2 -8 2 -65q0 -84 -3 -223q-4 -177 -8 -186q-6 -19 -31 -30t-55 -11q-23 0 -35 7t-21 25q-4 7 -4 112q0 72 3 211t5 156q4 43 40 53zM53 741q10 6 22 3q22 -6 57 -61q27 -42 31 -51t6 -26q1 -14 -4 -19q-12 -15 -37 -15
q-21 0 -38 14q-25 21 -51 57q-16 22 -16 45q0 32 30 53z" />
    <glyph glyph-name="Iacute" unicode="&#xcd;" horiz-adv-x="203" 
d="M27 499q14 32 63 32q14 0 29 -3q18 -4 32 -19t18 -32q7 -36 12 -360q0 -19 0.5 -42t0.5 -28q0 -31 -3 -40q-7 -20 -30.5 -31.5t-56.5 -11.5q-36 0 -52 27q-5 8 -7 37q-5 64 -9 286q-2 126 -2 130q0 45 5 55zM128 729q10 4 21 -1q13 -7 23 -24q6 -10 6 -28q0 -19 -7 -31
t-33 -38t-40 -35t-29 -9q-19 0 -32 9t-13 25q0 11 4 20q4 10 24.5 37.5t37.5 45.5q23 24 38 29z" />
    <glyph glyph-name="Icircumflex" unicode="&#xce;" horiz-adv-x="303" 
d="M81 506q6 15 24 24.5t41 9.5q16 0 28 -4q43 -13 51 -59q9 -59 22 -424q0 -4 0.5 -10.5t0.5 -8.5q0 -12 -3 -18q-7 -19 -31.5 -31t-57.5 -13q-19 0 -26 4q-17 9 -26 26t-24 366q-3 81 -3 104q0 26 4 34zM129 727q6 1 18 1q30 0 49 -14q20 -17 47.5 -49t33.5 -47
q3 -8 3 -15q0 -18 -19 -27q-9 -5 -29 -5q-13 0 -18 2q-16 6 -49 49q-12 16 -15 16q-1 0 -21 -25q-22 -27 -34.5 -36t-28.5 -9t-29.5 8t-13.5 23q0 8 4 15q4 8 30 45t37 49q15 17 35 19z" />
    <glyph glyph-name="Idieresis" unicode="&#xcf;" horiz-adv-x="255" 
d="M45 507q14 33 59 33q13 0 28 -3q35 -9 50 -40q5 -11 5 -63q0 -39 -3.5 -116t-3.5 -89q0 -6 0.5 -9t0.5 -7q0 -22 -4.5 -101t-6.5 -90q-8 -49 -89 -49q-39 0 -54 31q-5 13 -5 39q0 92 12 301q3 48 3 86q0 55 8 77zM188 577q-43 0 -43 48q0 38 28 47q5 2 14 2q34 0 44 -31
q2 -10 2 -14q0 -30 -20 -45q-8 -7 -25 -7zM57 682q8 2 15 2q19 0 26 -5q17 -12 17 -36q0 -8 -1 -12q-10 -38 -50 -38t-40 40q0 16 9.5 30t23.5 19z" />
    <glyph glyph-name="Eth" unicode="&#xd0;" horiz-adv-x="534" 
d="M276 388q-20 6 -28 6q-4 0 -5 -1q-1 -2 -3.5 -51.5t-2.5 -62.5q0 -5 18 -8q15 -3 21 -8t10 -17q3 -9 3 -22q0 -18 -4 -26q-12 -26 -44 -29q-11 -1 -12 -7q-1 -4 -1 -17v-4q0 -5 1 -5q0 -1 2 0h2q10 2 38 13t35 16q60 41 60 107q0 20 -6 42q-17 55 -84 74zM157 552
q12 3 37 3q44 0 69 -6q98 -20 157 -62q50 -35 71 -87.5t21 -138.5q0 -61 -13 -102q-25 -87 -101 -142q-52 -38 -171 -44q-14 -1 -37 -1q-64 0 -90 14q-34 19 -34 57q0 25 14 47q15 26 18 65l1 13l-16 3q-46 6 -57 26q-4 8 -3 25q3 46 52 52q14 2 29 4v29q0 25 2 67l2 39
l-12 11q-25 22 -25 51q0 25 20 44q26 24 66 33z" />
    <glyph glyph-name="Ntilde" unicode="&#xd1;" horiz-adv-x="507" 
d="M343 265q0 19 -3 96t-3 97q0 41 4 49q10 19 34 28q13 5 35 5q30 0 43 -8q12 -7 16 -18t8 -45q8 -77 9 -276l1 -170l-6 -12q-9 -19 -43 -24q-6 -1 -16 -1q-38 0 -71 37q-32 37 -127 174l-25 34q-2 0 -2 -12q0 -14 3 -53q3 -32 5 -96l1 -54l-7 -10q-14 -19 -30 -28
q-12 -6 -34 -6q-26 0 -45 8q-29 13 -34 49q-2 15 -4 187l-3 174q-23 30 -25 55q-1 6 -1 17q0 24 7 36q20 31 60 33h7q43 0 79 -47q12 -16 129 -185l38 -55v21zM392 654q0 -40 -27.5 -62.5t-67.5 -22.5q-48 0 -96 45q-8 8 -10 6q-4 -4 -10 -17q-13 -28 -38 -29h-4
q-20 0 -32.5 12.5t-12.5 30.5q0 25 26.5 56.5t52.5 36.5q8 2 21 2q12 0 20 -2q18 -5 46 -30q23 -22 36 -22h2q5 1 5.5 2t1.5 9q3 35 42 35h3q42 -4 42 -50z" />
    <glyph glyph-name="Ograve" unicode="&#xd2;" horiz-adv-x="536" 
d="M300 379q-10 3 -24 3t-23 -3q-29 -9 -52 -35.5t-31 -59.5q-3 -12 -3 -39q0 -62 27 -89q23 -23 59 -23q27 0 53 13.5t40 36.5q24 39 24 89q0 32 -12 56q-19 39 -58 51zM234 539q1 0 4.5 0.5t6.5 0.5q33 0 66 -5q72 -14 122.5 -57.5t68.5 -108.5q11 -42 11 -90v-9
q-16 -161 -94 -234q-45 -44 -108 -56q-22 -4 -44 -4q-58 0 -86 10q-50 17 -92 55q-42 39 -61 110q-5 21 -5 75q0 60 4.5 90t20.5 66q54 126 167 152q18 4 19 5zM191 741q8 5 16 5t15 -4q23 -12 62 -76q23 -38 25 -59q1 -14 -6 -21q-12 -14 -36 -14q-12 0 -26 7
q-15 8 -40 36.5t-32 45.5t-7 29q0 32 29 51z" />
    <glyph glyph-name="Oacute" unicode="&#xd3;" horiz-adv-x="531" 
d="M300 378q-17 5 -29 5q-58 0 -90 -66q-14 -31 -14 -59q0 -12 1 -18q7 -78 50 -99q15 -8 38 -8q51 0 81 33q32 35 32 96q0 43 -17 71q-20 34 -52 45zM152 512q31 17 50 21t63 4q37 -1 59 -7q133 -33 171 -155q13 -41 14 -95v-13q0 -125 -57 -201.5t-157 -87.5
q-28 -3 -48 -3q-35 0 -70 13q-55 21 -94 67.5t-50 102.5q-10 62 -10 114q0 34 4 50q29 137 125 190zM298 739q13 3 15 2q13 -2 27 -26q6 -11 6 -27q0 -30 -24 -54q-39 -39 -65 -52q-9 -5 -24 -5q-16 0 -26 7q-19 11 -19 26q0 20 32 60q51 62 78 69z" />
    <glyph glyph-name="Ocircumflex" unicode="&#xd4;" horiz-adv-x="535" 
d="M297 380q-18 4 -28 3q-27 -3 -51 -21.5t-37 -46.5q-13 -27 -13 -69q0 -63 28 -91q22 -22 59 -22q46 0 77 31q37 38 37 103q0 37 -13 63q-19 40 -59 50zM233 538q1 0 5 0.5t7 0.5q27 0 65 -5q58 -10 104 -42q82 -59 96 -176q3 -21 3 -31t-3 -37q-20 -199 -157 -255
q-26 -11 -40 -13t-56 -2q-44 0 -57 2.5t-40 14.5q-101 46 -129 152q-6 26 -7 46q-1 10 -1 37q0 66 5 91q19 88 71.5 146t133.5 71zM166 720q15 20 57 20q14 0 21 -2q24 -6 74 -56q39 -39 39 -54v-6q-2 -19 -27 -28q-9 -3 -22 -3q-16 0 -23 4q-4 2 -34 30l-28 26l-16 -25
q-17 -27 -23 -34q-17 -20 -41 -20q-10 0 -23 5q-18 8 -18 22q0 11 9 29q38 73 55 92z" />
    <glyph glyph-name="Otilde" unicode="&#xd5;" horiz-adv-x="533" 
d="M349 334q-31 46 -77 46q-20 0 -36 -8q-29 -13 -48 -46t-19 -74q0 -22 6 -46q14 -54 48 -71q13 -7 38 -7q9 0 21 2q31 8 50 25q39 34 39 100q0 47 -22 79zM214 531q14 2 51 2q153 -4 213 -121q33 -64 33 -157q0 -66 -17 -117q-36 -110 -136 -150q-41 -17 -113 -17
q-15 0 -21 1q-107 21 -158 109q-25 42 -35 106q-8 59 -8 85q0 11 2 31q13 100 68 160q22 25 57 44t64 24zM358 715q4 1 10 1q22 0 35 -16q10 -10 10 -33v-9q-1 -31 -21.5 -52t-55.5 -29q-14 -2 -20 -2q-41 0 -89 36q-10 7 -13 3q-2 -4 -6 -16q-5 -16 -17.5 -25.5t-27.5 -9.5
t-28 11q-14 13 -14 32t13 45q18 35 49 50q13 6 35 6q20 0 29.5 -4t30.5 -20q24 -19 38 -19h8l1 13q5 34 33 38z" />
    <glyph glyph-name="Odieresis" unicode="&#xd6;" horiz-adv-x="537" 
d="M295 377q-12 3 -16 3q-5 0 -18 -3q-26 -6 -49 -27t-35 -51q-9 -23 -9 -60q0 -103 79 -108h9q75 0 102 70q13 33 13 66q0 41 -20.5 71t-55.5 39zM216 530q22 5 47 5q21 0 40 -3q86 -12 145 -70q58 -56 65 -160q2 -28 2 -31q0 -13 -4 -36q-15 -108 -66.5 -174.5
t-133.5 -83.5q-22 -4 -47 -4q-43 0 -73 7q-44 11 -83 43.5t-61 75.5q-24 47 -24 116v22q3 73 17 116q49 144 176 177zM309 680q4 2 22 2q18 -1 24 -6q18 -12 18 -38q0 -16 -7 -29q-12 -23 -35 -23q-10 0 -15 2q-31 8 -31 45q0 7 1 11q3 27 23 36zM192 677q11 6 24 6
q17 0 27.5 -13t10.5 -31q0 -37 -33 -47q-11 -3 -18 -3q-17 0 -27.5 11t-10.5 29q0 35 27 48z" />
    <glyph glyph-name="multiply" unicode="&#xd7;" horiz-adv-x="402" 
d="M83 373q13 5 21 5q20 0 42 -13q20 -12 61 -60q12 -16 15 -16q2 0 9 9q11 14 29.5 30.5t28.5 21.5q14 7 30 7q24 0 41 -15.5t17 -41.5q0 -15 -7 -29q-16 -31 -53 -74l-14 -18q0 -2 18 -27q49 -67 57 -88q2 -6 2 -20q0 -17 -11.5 -34t-28.5 -26q-18 -10 -44 -10h-6
q-21 3 -38.5 19.5t-41.5 56.5q-7 12 -11 12t-16 -12q-45 -42 -80 -54q-16 -4 -26 -4q-27 0 -40 13q-14 13 -14 45v22l10 16q11 16 75 73l18 17l-27 31q-35 41 -47 58.5t-16 35.5q-4 13 -1 23q9 33 48 47z" />
    <glyph glyph-name="Oslash" unicode="&#xd8;" horiz-adv-x="538" 
d="M371 254q2 22 1 30l-2 12l-53 -80l-26 -39t-21 -31l-7 -11q0 -2 10 0q41 7 67 38.5t31 80.5zM217 305l49 76h-1q-4 0 -17.5 -6t-19.5 -10q-24 -17 -40.5 -44t-17.5 -53q0 -4 -0.5 -13.5t-1.5 -12.5l-1 -12zM409 555q13 6 24 6q17 0 34 -15q17 -17 17 -38q0 -18 -12 -44
l-7 -16l11 -15q22 -33 31 -74q9 -38 9 -82q0 -3 -0.5 -7t-0.5 -5q-23 -207 -153 -268q-16 -8 -34 -13q-18 -6 -64 -6q-60 0 -89 10l-11 4l-12 -11q-2 -2 -7 -6.5t-8 -6.5l-7.5 -5t-9 -4t-10.5 -1h-4q-15 1 -32 10.5t-25 20.5q-5 8 -5 20q0 21 13 47l8 16l-8 12
q-34 52 -34 134q0 21 1 33q5 90 34 149q59 116 174 137q15 3 33 3q41 0 85 -15q20 -6 22 -3q6 12 21 24q2 1 16 9z" />
    <glyph glyph-name="Ugrave" unicode="&#xd9;" horiz-adv-x="487" 
d="M75 558q13 3 27 3q46 0 60 -22q8 -12 10.5 -36t3.5 -113q2 -108 4 -147q2 -34 8 -46q17 -39 58 -39q12 0 22 7q16 11 22.5 36.5t13.5 105.5q14 189 26 211q8 15 24 21q10 3 38 3q24 0 35 -3t20.5 -12t11.5 -18q6 -22 6 -102v-53q-3 -248 -20 -325q-8 -34 -18 -43.5
t-39 -9.5q-54 0 -67 32l-5 12l-10 -10q-27 -27 -86 -30h-18q-43 0 -76 20q-53 33 -77 85q-27 58 -27 211q0 81 7 165q4 59 12 74q10 19 34 23zM190 754q8 5 15 5q32 0 86 -94q13 -23 16 -47q1 -12 -7 -20q-10 -10 -17 -11q-10 -2 -17 -2q-11 0 -23 4q-10 4 -33 28t-35 43
q-14 23 -14 44q0 32 29 50z" />
    <glyph glyph-name="Uacute" unicode="&#xda;" horiz-adv-x="485" 
d="M83 555q5 1 15 1q36 0 53 -15q11 -9 16 -33q3 -13 9 -158q6 -111 10 -135q4 -20 18 -37t32 -20q5 -1 13 -1q29 0 40 23q12 24 18 156q6 125 13 160q3 19 8 27t17 14t45 6q32 0 42 -6q17 -8 21.5 -21.5t7.5 -54.5q4 -56 4 -187q0 -68 -2 -126q-5 -121 -18 -149
q-6 -12 -15 -16q-13 -6 -33 -6q-25 0 -47 10q-11 6 -18 19l-6 14l-10 -10q-16 -17 -51 -27q-20 -5 -53 -5q-30 0 -43 4q-34 9 -66 38t-48 64q-32 69 -32 257q0 46 1 70q3 92 10 113q9 25 49 31zM308 738q2 1 6 1q16 0 30 -16t14 -36q0 -16 -6 -29q-7 -16 -37 -43t-50 -37
q-8 -4 -20 -4q-17 0 -31 9t-14 24q0 23 29 59q53 66 79 72z" />
    <glyph glyph-name="Ucircumflex" unicode="&#xdb;" horiz-adv-x="489" 
d="M26 512q11 38 65 38h10q26 -1 38.5 -8.5t19.5 -26.5q5 -15 16 -151q11 -133 15 -150q4 -19 18.5 -36t32.5 -20q4 -1 12 -1q20 0 34 14q11 12 13.5 33.5t5.5 124.5q4 150 10 180q9 40 73 40q31 0 47 -12q12 -10 17 -39t11 -129q5 -88 5 -248q0 -52 -1 -61q-4 -35 -9.5 -50
t-17.5 -21q-9 -5 -38 -5q-27 0 -41 7q-14 8 -19 19l-6 12l-9 -9q-35 -36 -109 -36q-40 0 -71 16q-73 39 -96 115q-16 51 -26 169q-3 54 -3 127q0 97 3 108zM232 743q9 3 28 3q25 0 37 -5q16 -7 50 -43.5t44 -58.5q6 -12 5 -22q-2 -7 -9.5 -15t-16.5 -11q-12 -2 -21 -2
q-15 0 -23 3q-6 2 -20.5 18t-27 31t-14.5 15l-2 -3q-3 -3 -8 -9t-9 -11q-24 -30 -35.5 -38t-28.5 -8q-24 0 -36 14q-7 7 -7 15q0 17 48 81q20 26 28 34.5t18 11.5z" />
    <glyph glyph-name="Udieresis" unicode="&#xdc;" horiz-adv-x="484" 
d="M80 544q14 2 20 2q45 0 60 -22q9 -12 11 -36t4 -136q3 -148 13 -168q18 -39 57 -39q16 0 29 11q13 12 18 39t12 117q10 129 18 168q6 31 27 41q9 5 37 5q43 0 59 -15q12 -10 14 -27.5t3 -106.5v-51q0 -249 -19 -322q-7 -26 -17 -33.5t-39 -7.5q-55 0 -66 31l-5 10
q-42 -29 -58 -33q-13 -4 -49 -4q-32 0 -47 3.5t-36 16.5q-67 40 -88 118q-10 40 -15 101q-1 13 -1 65q0 118 4 162q6 71 10 82q9 23 44 29zM299 661q11 6 22 6q29 0 41 -27q2 -4 2 -18q0 -21 -5 -30q-12 -24 -37 -24q-16 0 -30 11q-15 12 -15 37q0 34 22 45zM172 658
q14 14 36 14q39 0 39 -41v-7q-3 -30 -31 -41q-4 -2 -19 -2q-21 0 -26 5q-15 10 -15 33t16 39z" />
    <glyph glyph-name="Yacute" unicode="&#xdd;" horiz-adv-x="471" 
d="M77 532q5 2 18 2q18 0 27 -5q13 -8 94 -122l40 -56q48 119 52 140q5 20 13.5 28.5t29.5 12.5q11 3 23 3q33 0 55 -14q20 -12 20 -45q0 -14 -5 -36q-11 -35 -80 -166l-27 -51l1 -79q0 -74 -2 -108q-2 -31 -8.5 -42.5t-25.5 -20.5q-9 -5 -39 -6h-10q-39 0 -57 18
q-12 12 -13 19q-7 22 -11 174l-1 54l-68 97q-72 105 -74 110q-6 12 -6 29q0 14 5 24q15 27 49 40zM280 719q7 2 13 0q7 -2 17.5 -10t14.5 -15q5 -9 5 -26q0 -16 -7 -29q-8 -16 -34 -42t-44 -36q-11 -6 -25 -6q-29 0 -42 19q-4 8 -4 12q0 6 7 25q4 8 19 30t21 28q3 2 16 17
q24 28 43 33z" />
    <glyph glyph-name="Thorn" unicode="&#xde;" horiz-adv-x="395" 
d="M214 321q-6 3 -14 3q-9 0 -25 -4v-57h16q25 0 32 15q4 8 4 18q0 18 -13 25zM25 511q-2 22 -2 31q0 37 17.5 54.5t60.5 17.5q29 -1 41 -17q17 -24 21 -102l1 -27l14 3q20 4 46 4q27 0 43 -4q81 -25 100 -126q6 -28 6 -72q0 -14 -1 -19q-15 -128 -103 -155q-21 -6 -47 -6
q-21 0 -30 2l-17 3l1 -17v-11q0 -81 -40 -98q-13 -5 -34 -5q-16 0 -24 4q-26 11 -38 47q-3 10 -3 68v58q0 260 -12 367z" />
    <glyph glyph-name="germandbls" unicode="&#xdf;" horiz-adv-x="507" 
d="M107 545q17 3 29 3q18 0 29 -9q6 -5 21 -2q24 4 56 4q33 0 59 -4q61 -11 95 -45q35 -35 35 -81v-7q-2 -23 -15 -43t-50 -52q-27 -24 -27 -31q0 -2 2 -6q4 -6 28 -13q51 -16 79 -44q18 -16 25 -31q12 -25 12 -59q0 -74 -42 -116q-43 -43 -120 -43q-49 0 -99 23
q-42 19 -42 60q0 11 5 26q19 55 65 55q14 0 25 -5q29 -13 52 -13q8 0 8 3q0 7 -53 33q-46 23 -67 44.5t-21 62.5v10q1 44 41 85q24 24 24 40q0 14 -21 14q-10 0 -15 -2q-11 -3 -26 -18q-16 -16 -20 -29.5t-7 -60.5q-10 -163 -15 -221q-3 -36 -7 -51t-14 -26q-19 -21 -47 -21
q-13 0 -22 4q-17 6 -30.5 22t-13.5 32q0 18 3 48q8 91 15 237q8 178 12 190q12 30 54 37z" />
    <glyph glyph-name="agrave" unicode="&#xe0;" 
d="M231 93q-5 5 -22 5q-31 0 -40 -9q-3 -3 -1.5 -7.5t7.5 -6.5q3 -1 13 -1q25 0 38 4q16 4 5 15zM180 341q21 4 47 4q44 0 70 -13q25 -13 44.5 -49t27.5 -80q2 -13 3.5 -15t7.5 -5q31 -13 31 -44q0 -24 -21 -39l-10 -8l-2 -43q-1 -41 -7 -52q-14 -24 -63 -24q-27 0 -44 11
l-6 4l-18 -8q-36 -16 -76 -16q-39 0 -76 17q-28 14 -41.5 29.5t-19.5 41.5q-4 16 -4 32q0 26 13 51q36 67 162 69q34 0 34 4q0 2 -5 10q-10 15 -30 18h-3q-9 0 -33 -8q-29 -10 -45 -10q-9 0 -21 5q-27 13 -27 42q0 10 4 18q7 17 39.5 34t68.5 24zM139 538q7 6 19 5
q28 -3 72 -69q30 -44 31 -65q1 -15 -3 -20q-12 -17 -42 -17q-7 0 -10 1q-18 4 -45 33q-45 45 -49 76q0 2 -0.5 4.5t-0.5 3.5q0 28 28 48z" />
    <glyph glyph-name="aacute" unicode="&#xe1;" horiz-adv-x="438" 
d="M227 97q-8 4 -31 4q-31 0 -31 -9q0 -4 6 -9t16 -5h17q26 0 29 3t1 8.5t-7 7.5zM305 -35h-11t-8.5 0.5l-7 1t-6 1t-5 2t-4 2t-4 2.5t-4 3t-4.5 4t-5 4l-18 -5q-30 -8 -59 -8q-55 0 -95.5 25.5t-48.5 72.5q-2 18 -2 25q0 88 104 109q24 4 56 4q27 0 43 -3q17 -3 19 -1
t-2 9.5t-9 12.5q-13 13 -32 13q-13 0 -26 -4q-20 -5 -39 -5q-12 0 -17 2q-32 10 -32 45q0 18 13 30q12 11 40.5 22.5t51.5 14.5q7 1 44 1q61 -3 88 -23q45 -36 55 -132q2 -20 4 -21q28 -17 31 -38q0 -1 0.5 -3t0.5 -4q0 -18 -8 -28q-4 -5 -27 -20q-4 -3 -8 -35
q-6 -52 -13 -61q-12 -15 -55 -15zM284 525q12 6 23 6q10 0 20 -10q19 -20 19 -42q0 -15 -9 -32q-8 -13 -33 -34.5t-47 -34.5q-14 -8 -28 -8q-21 0 -36 15q-10 9 -9 21q3 29 63 89q23 23 37 30z" />
    <glyph glyph-name="acircumflex" unicode="&#xe2;" 
d="M231 95q-5 5 -21 5q-31 0 -41 -8t5 -15q4 -3 14 -3q13 0 30 4.5t18 7.5q0 4 -5 9zM186 345q18 3 38 3q48 0 71 -13q52 -29 72 -127l4 -18l10 -4q30 -13 30 -43q0 -26 -22 -41l-9 -6l-2 -44q-1 -42 -7 -53q-14 -24 -65 -24q-28 0 -42 10l-6 5l-16 -7q-38 -16 -78 -16
q-18 0 -38 3q-23 4 -47 16.5t-35 26.5q-22 29 -22 74q0 11 4 27q28 92 176 92q30 0 30 2q0 9 -12 19q-13 11 -26 11q-12 0 -38 -9q-27 -9 -44 -9q-27 0 -40 26q-4 8 -4 21q0 11 3 18q6 17 49 38q29 15 66 22zM179 533q4 1 19 1q30 0 36 -3q16 -8 49.5 -39.5t46.5 -50.5
q8 -13 8 -22q0 -31 -46 -34h-6q-14 0 -23.5 6.5t-31.5 28.5l-26 26l-18 -26q-27 -39 -40 -46q-11 -6 -24 -6q-23 0 -36 15q-5 5 -5 13q0 11 8 27q24 46 54 89q13 16 35 21z" />
    <glyph glyph-name="atilde" unicode="&#xe3;" 
d="M226 100q-4 2 -17 2q-16 0 -30 -4t-14 -10q0 -4 7 -9q4 -3 18 -3q34 0 43 7q4 2 1.5 8.5t-8.5 8.5zM193 346q12 2 35 2q25 0 37 -2q76 -12 102 -136l5 -21q34 -15 38 -37q1 -4 1 -11q0 -25 -23 -41l-9 -6l-2 -43q-1 -41 -7 -52q-8 -14 -35 -21q-13 -3 -28 -3
q-30 0 -44 11q-6 4 -12 2q-47 -19 -91 -19q-18 0 -37 3q-36 7 -63 29q-36 29 -36 84v12q2 24 9 37q36 72 164 72q35 0 35 3q0 12 -12 20t-26 10h-5q-11 0 -27 -7q-28 -10 -49 -10q-7 0 -15 2q-12 4 -20.5 17t-8.5 27q0 27 33 47q36 22 91 31zM253 486q1 18 13 28t29 10
q34 0 44 -28q3 -8 3 -20q0 -21 -8 -39q-11 -23 -36 -37.5t-54 -14.5q-9 0 -14 1q-35 5 -71 33q-15 11 -17 10q-3 -3 -8 -17q-13 -32 -44 -32q-19 0 -31 11.5t-12 30.5q0 24 20.5 54t44.5 40q15 6 31 6q33 0 62 -26q25 -22 38 -22h2q8 1 8 12z" />
    <glyph glyph-name="adieresis" unicode="&#xe4;" 
d="M230 96q-5 4 -22 4q-43 0 -43 -13q0 -2 6 -8q5 -4 26 -3q39 2 39 12q0 4 -6 8zM304 -27q-25 0 -47 16l-19 -7q-39 -15 -77 -15q-65 0 -105 36q-32 27 -32 81q0 48 29 76q48 46 147 46h33l-2 6q-3 10 -14.5 18t-24.5 8q-10 0 -34 -8q-30 -10 -44 -10q-15 0 -28 10
q-16 13 -16 38q0 12 4 20q8 16 40 32.5t68 23.5q20 4 45 4q44 0 66 -11q27 -12 49 -52q17 -32 25 -72q1 -3 1.5 -7t0.5 -6t0.5 -4t1.5 -3t1.5 -2.5t2.5 -2.5l4 -2t5 -3q27 -14 27 -42q0 -24 -23 -41l-9 -7v-23q0 -21 -2 -45q-1 -20 -8 -30q-17 -22 -65 -22zM152 483
q8 2 12 2q17 0 27.5 -12.5t10.5 -32.5q0 -42 -44 -50h-6q-30 0 -37 25q-2 10 -2 16q0 18 10.5 33t28.5 19zM263 489q8 2 13 2q18 0 28 -9q16 -12 16 -40q0 -26 -14 -39q-11 -11 -27 -11q-17 0 -30 11q-15 12 -15 41q0 36 29 45z" />
    <glyph glyph-name="aring" unicode="&#xe5;" horiz-adv-x="438" 
d="M234 87q0 16 -37 16q-10 0 -22 -2q-3 0 -8 -5q-3 -4 3 -10q9 -9 32 -9q2 0 6 0.5t7 0.5q18 5 19 9zM166 336l26 8l41 -1q49 -1 80 -14q32 -12 52 -64q16 -40 16 -70q0 -26 9 -31q26 -15 26 -43q0 -32 -33 -46q-6 -2 -7 -13q-7 -65 -15 -78q-11 -21 -55 -21q-27 0 -39 6
q-12 5 -19 12q-6 5 -16 2q-30 -9 -60 -9q-48 0 -87.5 20.5t-54.5 54.5q-6 15 -6 42q0 16 1 23q5 32 27 55t57 32q25 7 67 7q37 0 57 -5q12 -2 13 -1q2 2 -0.5 9.5t-7.5 12.5q-13 14 -32 14q-11 0 -26 -3q-26 -5 -36 -5q-8 0 -13 1q-23 4 -33 24q-6 11 -6 23q0 21 15 33
q20 14 59 25zM265 479q-6 2 -10 2q-11 0 -20.5 -6t-9.5 -15q0 -6 6 -14q12 -13 27 -9q19 6 19 24q0 13 -12 18zM180 513q28 30 77 30q17 0 30 -5q24 -9 39.5 -29.5t15.5 -49.5v-7q-5 -78 -100 -78q-46 0 -68 32q-15 22 -15 51q0 33 21 56z" />
    <glyph glyph-name="ae" unicode="&#xe6;" horiz-adv-x="622" 
d="M229 103q-7 3 -21 3q-42 0 -42 -13q0 -5 7.5 -9t16.5 -4q8 0 25.5 3t18.5 4t-1 7.5t-4 8.5zM418 263q-9 9 -19 9q-16 0 -25 -15q-5 -10 -5 -14q-1 -3 0 -4.5t2 -1.5t5 -1h2q12 0 29.5 6t17.5 10t-7 11zM23 93q0 59 48.5 89t122.5 30h17h14q10 0 10 3q0 2 -3 8
q-5 11 -24 18q-9 3 -16 3q-8 0 -29 -7q-27 -9 -44 -9q-30 0 -42 26q-5 12 -5 22q0 8 4 18q8 15 45 36q53 30 104 30q42 0 67 -14l14 -8l10 7q40 26 91 26q27 0 54 -9q91 -29 103 -131q1 -6 1 -18q0 -31 -17 -42q-30 -20 -118 -36q-37 -7 -37 -12q0 -4 7 -9.5t15 -7.5
q14 -3 28 -3q42 0 78 16q28 12 32 12q10 0 27 -14q20 -16 20 -45q0 -49 -75 -74q-38 -13 -97 -13q-41 0 -58.5 3t-41.5 13l-13 6l-14 -8q-43 -22 -117 -25h-12q-149 0 -149 119z" />
    <glyph glyph-name="ccedilla" unicode="&#xe7;" horiz-adv-x="399" 
d="M89 301q69 51 153 51q54 0 94 -26q34 -22 34 -58q0 -26 -15 -42q-18 -20 -47 -20q-17 0 -46 8q-29 9 -42 9q-9 0 -19 -5q-34 -18 -34 -52q0 -29 25 -40q10 -5 25 -5q21 0 61 13q28 9 39 9q6 0 16 -4q13 -7 26.5 -25t16.5 -34q0 -1 0.5 -3.5t0.5 -4.5q0 -22 -8 -36
q-12 -25 -52 -44.5t-81 -19.5q-9 0 -13 -6q-2 -4 -1.5 -5.5t7.5 -5.5q20 -11 29.5 -24.5t9.5 -37.5q0 -29 -20 -49q-27 -27 -86 -27q-28 0 -37 5q-16 10 -16 26q0 17 16 25q8 3 30 2q2 0 6 -0.5t6 -0.5q28 0 39 11q5 5 5 9q0 9 -26 17q-36 10 -36 30q0 9 8 25l7 14l-19 7
q-29 11 -58.5 34.5t-41.5 45.5q-22 41 -22 88q0 44 18 83.5t48 62.5z" />
    <glyph glyph-name="egrave" unicode="&#xe8;" horiz-adv-x="449" 
d="M263 260q-8 8 -22 8q-3 0 -9 -2t-13 -11t-5 -11q1 -1 7 -1q36 0 45 9q3 3 -3 8zM196 355q10 2 45 2q48 0 81 -16q63 -31 73 -115q2 -16 2 -22q0 -36 -28 -47q-23 -11 -60.5 -18.5t-62 -11.5t-24.5 -7q0 -2 11 -8q11 -5 33 -6l22 -1l23 12q39 20 59 20q18 0 35 -17
q22 -22 22 -46q0 -22 -17 -42.5t-43 -33.5q-13 -7 -39 -15q-17 -4 -68 -4t-75 7q-66 19 -97 58q-7 10 -17 28t-10 22q0 2 -13 15q-26 26 -26 59q0 10 3 22q10 27 39 37q8 2 10 13q9 43 43.5 75t78.5 40zM159 557q10 6 14 6q29 0 77 -73q23 -34 28 -50q5 -21 -1 -30
q-10 -18 -41 -18q-12 0 -19 4q-13 6 -36 28t-36 41q-15 21 -15 43q0 31 29 49z" />
    <glyph glyph-name="eacute" unicode="&#xe9;" horiz-adv-x="437" 
d="M266 255q-14 7 -27 3q-5 -2 -11.5 -10t-4.5 -10q1 -1 15 -1q33 0 36 3q2 2 -0.5 7t-7.5 8zM208 350q10 2 19 2q5 0 29 -2q41 -4 60 -13q57 -26 75 -81q7 -21 7 -59q0 -21 -3 -35q-4 -15 -18 -23q-25 -13 -125 -20q-9 0 -18 -1t-14 -2h-5q-1 -1 5 -5.5t14 -8.5
q14 -6 26 -7q12 -2 14 -2q9 0 43 13q26 9 41 9q17 0 24 -5q14 -10 23.5 -28t9.5 -35v-6q-3 -22 -27 -41t-61 -29q-17 -4 -56 -4q-88 0 -147 39q-51 34 -67 87q-7 22 -14 29q-20 24 -20 56q0 23 12 38q12 17 35 22q8 1 12 13q14 39 47.5 65.5t78.5 33.5zM287 554q12 3 13 3
q14 0 32 -24q8 -11 8 -29t-7 -31q-6 -12 -30 -37t-41 -36q-15 -10 -30 -10q-21 0 -34 8.5t-13 22.5q0 24 27 59q48 64 75 74z" />
    <glyph glyph-name="ecircumflex" unicode="&#xea;" horiz-adv-x="441" 
d="M261 255q-6 3 -13 3q-17 0 -26 -14q-3 -7 -0.5 -8.5t17.5 -0.5q10 1 22 1q6 0 8.5 3.5t0.5 8t-9 7.5zM206 349q1 0 4.5 0.5t6.5 0.5q36 0 72 -6q47 -10 78 -49t31 -93q0 -14 -1 -22q-4 -29 -22 -37q-18 -10 -57.5 -16t-70 -9.5t-30.5 -5.5q0 -4 22 -13q8 -3 27 -5h11
q11 0 30 9q37 17 58 17h4q17 -2 34 -22.5t17 -43.5q0 -13 -7 -26q-20 -36 -73 -53q-29 -10 -69 -10q-78 0 -136 32q-35 20 -54 47q-19 25 -25 52q-2 5 -12 16.5t-12 16.5q-9 17 -9 44q0 8 2 18q4 13 16 24t26 14q6 1 11 15q20 54 65 80q30 19 63 25zM215 539q9 3 25 3
q28 0 40 -6q17 -7 52.5 -47.5t43.5 -60.5q3 -7 3 -13q0 -15 -21 -26q-10 -5 -30 -5q-9 0 -17 2q-13 4 -45 44q-17 22 -19 22t-18 -21q-24 -30 -37 -39.5t-30 -9.5q-23 0 -35 14q-7 7 -7 15q0 17 48 81q31 42 47 47z" />
    <glyph glyph-name="edieresis" unicode="&#xeb;" horiz-adv-x="440" 
d="M266 260q-7 5 -22 5q-5 0 -11 -2q-4 -1 -8.5 -8.5t-4.5 -10.5q0 -2 8 -2q6 0 15.5 1t16.5 2l8 1q12 4 -2 14zM204 356q2 1 15 1q50 0 74 -6q75 -19 97 -90q8 -29 8 -55q0 -35 -12 -50q-15 -18 -134 -30q-8 -1 -16.5 -2t-13.5 -2l-5 -1q-1 -1 2.5 -4t9.5 -6t11 -5
q10 -3 30 -3t46 11q29 13 46 13q19 0 37 -19q19 -20 19 -46q0 -28 -24 -49q-42 -39 -120 -39h-15q-96 4 -157 55q-36 31 -46 75q-3 9 -10 16q-23 26 -23 63q0 22 11.5 34.5t35.5 22.5q5 1 9 13q27 77 125 103zM285 476q6 3 20 3q11 0 19 -2q26 -10 26 -43q0 -11 -4 -22
q-11 -30 -40 -30q-6 0 -9 1q-35 7 -35 48q0 33 23 45zM155 470q15 15 37 15q12 0 22 -6q17 -9 17 -38q0 -7 -1 -11q-10 -38 -50 -38h-3q-17 0 -26.5 12t-9.5 29q0 23 14 37z" />
    <glyph glyph-name="igrave" unicode="&#xec;" horiz-adv-x="241" 
d="M125 362q10 2 17 2q29 0 42 -11q15 -12 22 -72q13 -102 13 -222q0 -26 -1 -32q-4 -31 -17 -40t-52 -9q-29 0 -39.5 4t-18.5 16l-6 10l-1 116q-2 110 -4 135q-2 16 -2 25q0 67 47 78zM50 559q9 6 17 6q15 0 38 -23q39 -42 60 -83q10 -16 10 -34q0 -7 -3 -12
q-10 -19 -42 -19q-14 0 -25 6q-16 10 -40.5 35.5t-32.5 41.5q-9 17 -9 33q0 30 27 49z" />
    <glyph glyph-name="iacute" unicode="&#xed;" horiz-adv-x="234" 
d="M76 347q7 3 22 3q25 0 37 -6q14 -7 19.5 -19.5t7.5 -44.5q2 -36 2 -84q0 -120 -6 -171q-3 -35 -14 -47q-14 -14 -49 -14q-53 0 -66 22q-6 10 -6 27q0 18 6 93q1 9 4 94.5t6 98.5q9 37 37 48zM160 552q8 3 14 3q15 0 33 -28q5 -8 5 -26q0 -15 -8 -30q-13 -22 -50.5 -50
t-54.5 -28q-14 0 -28 7t-19 17q-2 6 -2 10q0 21 31 56q52 59 79 69z" />
    <glyph glyph-name="icircumflex" unicode="&#xee;" horiz-adv-x="302" 
d="M81 271q0 64 47 77q3 1 14 1q25 0 33 -4q15 -6 22 -22t12 -58q13 -104 13 -222v-18q-2 -35 -14 -47t-48 -13h-13q-34 0 -44 10q-10 9 -12 25t-3 93q-2 85 -4 123q-3 48 -3 55zM122 540q4 1 18 1q30 0 39 -3q20 -7 63 -58q38 -45 38 -64q0 -14 -12.5 -23t-34.5 -9
q-18 0 -29 8t-37 40q-4 6 -8.5 10.5l-7 7t-3.5 1.5q-3 -3 -20 -25q-30 -37 -49 -43q-8 -2 -12 -2q-17 0 -30.5 9.5t-13.5 23.5q0 12 35 61q31 42 40.5 51.5t23.5 13.5z" />
    <glyph glyph-name="idieresis" unicode="&#xef;" horiz-adv-x="253" 
d="M96 344q10 4 23 4q23 0 37 -7q13 -7 18.5 -18t8.5 -38q2 -14 2 -97q0 -90 -2 -118q-4 -86 -25 -99q-12 -8 -43 -8q-41 0 -57 12q-3 2 -10 14q-3 8 -3 21q0 14 6 95q3 41 5 113q2 66 3 73q6 40 37 53zM166 476q8 4 20 4q20 0 33 -11q13 -12 13 -33q0 -17 -9 -32.5
t-23 -19.5q-10 -2 -15 -2q-19 0 -30 13.5t-11 35.5q0 33 22 45zM23 440q2 48 52 48q18 0 28.5 -11t10.5 -28q0 -9 -3 -19q-9 -33 -49 -33h-3q-36 2 -36 37v6z" />
    <glyph glyph-name="eth" unicode="&#xf0;" horiz-adv-x="414" 
d="M246 178q-16 31 -49 31q-12 0 -24 -6q-22 -13 -22 -38q0 -1 0.5 -4t0.5 -5q4 -25 20.5 -42.5t35.5 -17.5q7 0 13 3q7 3 16 13.5t11 18.5q3 9 3 22q0 15 -5 25zM102 506q3 4 13 9.5t16 5.5q11 0 39 -13t48 -27l13 -10l38 21q39 21 51 22h4q15 0 24 -9.5t9 -22.5
q0 -8 -5 -18q-5 -9 -37 -26l-33 -18l13 -17q77 -108 93 -197q4 -20 4 -60q0 -35 -4 -50q-11 -41 -39 -72.5t-69 -47.5q-28 -12 -68 -12q-50 0 -88 18q-72 34 -96 116q-5 18 -5 55q0 50 14 85q8 20 26 42.5t36 35.5q44 32 103 32q14 0 30 -2l16 -2l1 1q1 1 -12 18.5t-18 22.5
l-32 -18q-32 -17 -42 -17q-34 0 -34 33q0 22 26 36q21 11 21 14q0 1 -14 9q-18 9 -22 9t-11.5 7.5t-10.5 14.5q-3 6 -3 15q0 10 5 17z" />
    <glyph glyph-name="ntilde" unicode="&#xf1;" horiz-adv-x="399" 
d="M181 346l10 1q10 1 17 1h4q64 0 107.5 -38.5t49.5 -97.5q8 -64 8 -172q0 -39 -2 -42q-6 -14 -26 -23t-44 -9q-7 0 -19 2q-15 2 -21 10q-20 21 -25 103q-4 63 -14 88q-11 23 -33 23q-11 0 -20 -8q-10 -7 -12 -16t-2 -46v-39q0 -83 -3 -90q-10 -28 -55 -28q-31 0 -46 15
q-13 14 -20 89q-13 129 -13 199q0 39 5 49q13 24 45 24q17 0 39 -10l13 -6l11 6q18 11 46 15zM126 526q14 3 24 3q26 0 59 -30q28 -25 39 -26q5 -1 6 1t1 10q0 17 11 27t30 10q20 0 33.5 -13.5t13.5 -33.5q0 -22 -12 -44q-24 -44 -83 -44q-49 0 -92 42q-9 8 -10 8.5t-5 -1.5
q-5 -5 -7 -12q-8 -24 -30 -31q-6 -2 -16 -2q-18 0 -29.5 12.5t-11.5 31.5q0 10 5 22q10 27 30.5 46t43.5 24z" />
    <glyph glyph-name="ograve" unicode="&#xf2;" horiz-adv-x="409" 
d="M243 183q-19 31 -45 31q-5 0 -15 -2q-32 -8 -32 -48q0 -45 31 -60q12 -5 19 -5q25 0 40 29q7 12 7 29t-5 26zM287 331q13 -5 21 -5h10q14 1 25 -4q22 -13 32 -39q5 -14 5 -43q0 -22 3 -41.5t4 -38.5v-15q0 -40 -11 -67q-30 -81 -117 -107q-18 -6 -55 -6q-47 0 -79 16
q-22 11 -43.5 32.5t-32.5 44.5q-26 54 -26 123q0 11 2 25q13 61 63.5 102t115.5 41q44 0 83 -18zM121 509q4 12 15.5 24.5t24.5 12.5h3q28 -3 79 -74q28 -40 29 -60q1 -12 -8 -21q-14 -14 -37 -14q-10 0 -22 5q-16 8 -44 36t-36 45q-6 11 -6 30q0 8 2 16z" />
    <glyph glyph-name="oacute" unicode="&#xf3;" horiz-adv-x="426" 
d="M215 212q-9 4 -20 4q-32 0 -43 -41q-3 -11 -3 -20q0 -30 22 -46q10 -7 21 -7q21 0 39 20.5t18 38.5q0 16 -10 31t-24 20zM178 349l5 1h8q38 0 63 -5q40 -10 80 -46q17 -15 28 -16q19 -2 30.5 -20.5t11.5 -44.5q0 -23 -8 -40q-7 -17 -10 -36q-17 -119 -113 -163
q-33 -15 -69 -15q-43 0 -83.5 19.5t-64.5 52.5q-30 43 -33 95v17q0 83 41 134.5t114 66.5zM276 535q7 3 13 3q9 0 18 -9q21 -18 21 -45q0 -16 -7 -29q-13 -22 -49 -50q-38 -29 -57 -29q-31 0 -45 21q-4 5 -4 13q0 18 32 56q51 58 78 69z" />
    <glyph glyph-name="ocircumflex" unicode="&#xf4;" horiz-adv-x="410" 
d="M216 203q-7 4 -19 4q-22 0 -34 -12q-13 -13 -13 -37q0 -42 27 -58q8 -5 17 -7h4q11 0 24 9.5t20 22.5q6 12 6 29q0 14 -4 21q-9 17 -28 28zM27 208q14 56 62.5 96t112.5 40q42 0 82 -18q15 -7 25 -7h8h7q30 0 49 -39q7 -15 7 -44t4 -49q3 -19 3 -40q0 -98 -63 -148
q-52 -41 -121 -41q-35 0 -66 12q-59 23 -89 83q-25 52 -25 117q0 23 4 38zM112 500q17 25 60 25l2 -1q2 0 5.5 -0.5t6.5 -0.5q22 -4 60 -37q41 -36 55 -59q5 -9 5 -18q0 -15 -16 -24.5t-34 -9.5q-15 0 -26 6.5t-33 29.5l-24 24l-16 -25q-22 -34 -34.5 -45t-30.5 -11
t-29.5 8.5t-11.5 22.5q0 6 5 18q6 13 27.5 50.5t28.5 46.5z" />
    <glyph glyph-name="otilde" unicode="&#xf5;" horiz-adv-x="413" 
d="M193 95q23 0 38.5 19.5t15.5 41.5q0 11 -9.5 26.5t-19.5 20.5q-8 4 -23 4q-17 0 -25 -5q-22 -13 -22 -48q0 -23 12 -41t33 -18zM167 341q7 2 37 2t38 -2q28 -7 62 -27q19 -11 30 -11q24 0 40 -22.5t16 -51.5q0 -7 -2 -19q-4 -20 -4 -52q-1 -60 -18 -96q-37 -78 -119 -99
q-18 -5 -47 -5q-28 0 -45 5q-48 14 -82 49q-50 53 -50 143v13q1 35 7 53q16 46 52 77.5t85 42.5zM122 493q27 24 57 24q15 0 28 -4q12 -4 42 -32q22 -22 37 -22q5 0 6 11q2 16 14.5 25.5t28.5 9.5q19 0 32 -13q14 -14 14 -34q0 -10 -3 -22q-8 -29 -33.5 -47t-61.5 -18
q-45 0 -88 40q-16 13 -18 13q-3 0 -9 -14q-13 -30 -43 -30q-34 0 -43 31q-1 3 -1 9q0 35 41 73z" />
    <glyph glyph-name="odieresis" unicode="&#xf6;" horiz-adv-x="416" 
d="M243 135q3 9 3 18q0 22 -16 39.5t-36 17.5q-16 0 -29 -13q-16 -16 -16 -43q0 -35 23 -52q10 -7 21 -7q15 0 29 11t21 29zM168 342q5 1 41 1q29 0 47 -6q31 -10 57 -28q15 -11 30 -12q24 -1 37 -22t13 -50q0 -13 -3 -27q-5 -22 -5 -39q0 -85 -47.5 -141t-127.5 -60h-11
q-58 0 -104.5 33.5t-63.5 88.5q-8 27 -8 72q0 38 6 62q12 46 51 82t88 46zM247 449q9 22 37 22q29 0 40 -23q6 -12 5 -25q-5 -49 -44 -49q-6 0 -10 1q-9 2 -18.5 9.5t-12.5 16.5q-2 5 -2 19q0 20 5 29zM121 426q0 24 14 38.5t38 14.5q17 0 28 -11.5t11 -28.5q0 -4 -2 -14
q-11 -38 -48 -38h-5q-36 3 -36 39z" />
    <glyph glyph-name="divide" unicode="&#xf7;" horiz-adv-x="422" 
d="M142 115q11 36 56 36q35 0 54 -24q15 -20 15 -46t-14 -40q-15 -15 -41 -15h-5q-46 3 -62 42q-5 12 -5 30q0 9 2 17zM88 295q12 1 98 1q104 -1 154 -12q30 -6 39 -11t15 -18q6 -12 6 -25q0 -19 -14 -33q-21 -21 -86 -21q-26 0 -42 1q-107 6 -151 14q-76 12 -83 42
q0 1 -0.5 3.5t-0.5 3.5q0 22 16 36q18 16 49 19zM152 357q-3 11 -3 20q0 26 18.5 44t45.5 18q17 0 37 -9q33 -16 33 -53q0 -28 -19 -44q-15 -14 -49 -14q-53 0 -63 38z" />
    <glyph glyph-name="oslash" unicode="&#xf8;" horiz-adv-x="460" 
d="M311 150l1 6q-1 0 -31 -28t-39 -37l-10 -10l11 2q23 3 42.5 22.5t25.5 44.5zM205 225q18 17 18 19q0 1 -1 1q-2 0 -8 -3q-18 -7 -35 -23t-17 -33q3 0 43 39zM379 365q1 0 3 0.5t3 0.5q16 0 32.5 -14.5t19.5 -30.5q1 -4 1 -11q0 -24 -20 -47q-10 -12 -10 -14t4 -14
q8 -23 8 -56q0 -75 -36 -128q-9 -13 -27 -30.5t-29 -24.5q-37 -23 -90 -23q-48 0 -87 19l-11 5l-12 -10q-26 -21 -46 -21q-12 0 -25 8q-24 17 -32 38q-2 8 -2 11q0 23 29 54l13 13l-3 14q-5 22 -5 47q0 56 17 99q11 29 38.5 55.5t59.5 38.5t63 12h13q31 -1 62 -13l17 -6
l11 7q26 17 41 21z" />
    <glyph glyph-name="ugrave" unicode="&#xf9;" horiz-adv-x="402" 
d="M263 343q7 2 25 2q24 0 37 -6q15 -7 22.5 -22.5t11.5 -48.5q21 -183 21 -251q0 -39 -32 -46q-12 -3 -28 -3q-38 0 -61 12l-12 6q-2 0 -10 -6q-28 -20 -75 -20q-14 0 -25 3q-76 17 -104 94q-12 31 -12 89v59q1 103 5 112q11 22 56 24q3 0 7 0.5t6 0.5q20 0 35 -14
q19 -18 24 -113q2 -52 6.5 -71.5t14.5 -23.5q3 -1 11 -1q18 0 25 4q8 5 9.5 17t1.5 66q0 99 10 118q8 14 31 19zM138 535q10 7 16 7q28 0 70 -66q32 -51 32 -76q0 -18 -18 -26q-12 -5 -22 -5q-11 0 -20 3q-19 5 -58 54q-29 35 -29 62t29 47z" />
    <glyph glyph-name="uacute" unicode="&#xfa;" horiz-adv-x="394" 
d="M61 347q6 3 36 3q24 0 33.5 -2.5t17.5 -11.5q16 -17 16 -98v-28q0 -11 -0.5 -26t-0.5 -19q0 -22 5 -32q6 -13 25 -13h6q18 1 25 16q2 3 7 63q5 72 9 95t13 32q13 13 44 13q48 0 63 -23q9 -14 10.5 -36t2.5 -140v-91q0 -49 -2 -59.5t-12 -19.5q-11 -10 -37 -10
q-42 0 -72 17l-12 6q-2 0 -12 -5q-30 -14 -61 -14t-59 14q-72 38 -82 133q-1 6 -1 20q0 31 7 94q1 8 3.5 33.5t3.5 33.5q2 27 4 34q5 14 20 21zM250 540q8 2 10 2q11 0 23 -13q17 -18 18 -38v-9q0 -10 -6 -22q-5 -12 -31 -38q-48 -48 -72 -48q-8 0 -19 3q-27 8 -27 28
q0 27 44 82q37 46 60 53z" />
    <glyph glyph-name="ucircumflex" unicode="&#xfb;" horiz-adv-x="393" 
d="M68 360q4 1 33 1q28 -1 38 -7q8 -4 15 -13q7 -11 8.5 -28.5t1.5 -81.5q0 -80 4 -88t8 -10q8 -4 19 -4q7 0 13 2q11 4 14.5 16.5t8.5 63.5q6 69 10.5 92.5t13.5 32.5q11 13 41 13q6 0 20 -2q34 -4 46 -23q8 -13 9.5 -37t1.5 -142v-143l-5 -11q-7 -13 -14.5 -17t-27.5 -5
h-8q-43 0 -70 17q-13 8 -22 2q-26 -14 -66 -14q-19 0 -34 5q-75 25 -97 107q-6 23 -6 55q0 40 7 96q2 16 8 76q3 40 30 47zM130 385q-13 0 -27 10t-14 23q0 11 6 21t35 49q37 51 53 55q6 2 29 2t29 -2q27 -8 74 -67q32 -41 32 -58q0 -5 -4 -13q-9 -16 -44 -16q-21 0 -30 6
q-8 6 -30 34q-22 27 -23 27t-22 -25q-15 -19 -28 -32q-18 -14 -36 -14z" />
    <glyph glyph-name="udieresis" unicode="&#xfc;" horiz-adv-x="393" 
d="M68 362q4 1 35 1q39 -1 52 -19q12 -16 12 -69q0 -12 -2 -70q-1 -16 -1 -34q0 -16 4 -25q7 -16 28 -16q14 0 19 4q8 7 11.5 26t11.5 99q5 45 8 58t13 20q11 10 39 10q14 0 27 -3q39 -8 46 -45q2 -7 2 -102q0 -180 -4 -198q-9 -33 -50 -33q-17 0 -33 4q-30 7 -52 23l-12 -6
q-26 -12 -56 -12q-39 0 -70 18q-72 43 -72 147v11q1 26 15 145q4 38 5 41q2 8 9.5 15.5t14.5 9.5zM270 415q-45 0 -45 52q0 34 26 44q5 2 16 2q27 0 40 -20q5 -9 5 -26q0 -24 -11.5 -38t-30.5 -14zM113 495q12 20 44 20q37 -2 37 -42q0 -37 -35 -48q-5 -2 -15 -2
q-28 0 -36 24q-2 8 -2 15q0 22 7 33z" />
    <glyph glyph-name="yacute" unicode="&#xfd;" horiz-adv-x="415" 
d="M71 341q11 5 27 4q19 -1 27 -9q10 -12 63 -123q23 -50 27 -50t36 100q12 39 19 47q5 7 17 14q11 6 32 6q51 0 68 -35q6 -11 6 -36q0 -19 -4 -39q-9 -38 -53 -133q-125 -279 -135 -299q-17 -35 -39 -50q-14 -9 -29 -9q-32 0 -51 22t-19 53q0 15 4 27q12 36 58 139l16 35
l-37 71q-21 39 -57 111q-21 42 -23 58q-1 5 -1 15q0 26 9 44q5 8 17 20t22 17zM300 520q2 1 6 2l3 1q8 2 25 -15q16 -17 16 -40q0 -30 -26 -56q-41 -43 -62 -53q-12 -5 -22 -5q-16 0 -29 8q-17 11 -17 28q0 18 24 50q52 70 82 80z" />
    <glyph glyph-name="thorn" unicode="&#xfe;" horiz-adv-x="401" 
d="M229 252q3 9 3 16q0 13 -8.5 21t-22.5 8q-7 0 -11 -1l-10 -3v-57h16q26 0 33 16zM29 613q24 30 71 30q10 0 21 -3q23 -5 34 -34q7 -20 11 -104q0 -14 1 -28t1 -22l1 -8q1 -2 9 -1q25 5 51 5q31 0 49 -6q37 -12 62 -46t33 -82q5 -23 5 -71v-5q0 -1 -0.5 -4.5t-1.5 -8.5
t-1 -9q-7 -47 -28.5 -82.5t-52.5 -51.5q-28 -14 -63 -14q-26 0 -40 2l-12 2l1 -31q2 -34 2 -63q0 -31 -6 -43q-20 -38 -69 -38h-3q-40 1 -54 40q-7 20 -8.5 47t-1.5 157q0 312 -13 407q-4 36 -4 41q0 17 6 24z" />
    <glyph glyph-name="ydieresis" unicode="&#xff;" horiz-adv-x="413" 
d="M29 302q9 16 27.5 30.5t38.5 14.5q22 0 33 -11q5 -5 44 -92l38 -86q8 15 25 58.5t20 55.5q9 34 35 48q10 5 29 5q47 0 66 -34q6 -11 6 -38q0 -31 -8.5 -54.5t-49.5 -109.5q-36 -72 -39 -81q-6 -15 -60 -122t-62 -120q-23 -37 -56 -37q-4 0 -14 2q-50 15 -55 66v9
q0 23 52 132l33 68l-35 71q-65 135 -70 151q-4 11 -4 26v13q1 25 6 35zM232 418q-2 10 -2 16q0 21 11 35.5t31 14.5q4 0 14 -2q32 -6 32 -46q0 -23 -12 -37.5t-31 -14.5q-4 0 -12 2q-26 7 -31 32zM139 483q6 3 22 3q14 0 23 -5q17 -11 17 -36q0 -20 -14 -36q-14 -15 -37 -15
q-25 0 -35 17q-6 11 -6 22q0 15 8.5 29.5t21.5 20.5z" />
    <glyph glyph-name="dotlessi" unicode="&#x131;" horiz-adv-x="192" 
d="M74 356q1 0 4.5 0.5t5.5 0.5q19 0 35 -6q16 -8 23 -32q10 -35 19 -121t9 -147q0 -43 -5 -55q-10 -23 -62 -25h-11q-34 0 -46 16q-9 12 -12 112q-2 82 -11 157q-1 8 -1 23q0 71 52 77z" />
    <glyph glyph-name="Lslash" unicode="&#x141;" horiz-adv-x="538" 
d="M137 533q13 5 29 5q43 0 62 -37q12 -27 19 -121q1 -23 5 -23q5 0 14 4q31 11 49 11q15 0 23 -8q16 -18 16 -41q0 -10 -2 -15q-13 -38 -72 -77q-20 -13 -20 -18q0 -3 2 -27t4 -46l1 -23h1q3 0 28 1.5t58 2.5t55 1t29 -1q41 -5 58.5 -18t19.5 -42v-10q0 -33 -21 -49.5
t-69 -21.5q-88 -10 -222 -10q-25 0 -30 1q-35 4 -45 22q-21 37 -21 126v29h-16q-30 0 -49.5 12.5t-19.5 31.5q0 11 21.5 33.5t47.5 38.5l12 7l-1 66q-2 88 -2 105q0 56 4 64q11 20 32 27z" />
    <glyph glyph-name="lslash" unicode="&#x142;" horiz-adv-x="352" 
d="M115 486q8 30 17 37t41 7q33 -1 49 -16q12 -11 16 -31.5t5 -86.5l1 -70l16 10q17 12 30 12q10 0 21 -8q19 -16 19 -37q0 -17 -12 -27q-5 -5 -42 -29l-37 -24l-1 -35q-6 -163 -11 -181q-6 -20 -17 -27t-38 -8h-10q-46 0 -61 28q-6 11 -6 63q0 53 -1 53l-12 -8
q-13 -9 -27 -9q-8 0 -16 5q-16 13 -16 36q0 21 15 36q21 21 55 43q5 3 7 50q7 184 15 217z" />
    <glyph glyph-name="OE" unicode="&#x152;" horiz-adv-x="762" 
d="M334 391q-5 3 -22 3q-49 -1 -89 -44t-40 -99q0 -30 13 -57q16 -33 48 -49q11 -6 32 -6q18 0 38 4l20 4v244zM261 533q16 2 17 2h3q36 0 48 -7q3 -2 14 -2q21 0 41 2q64 4 135 4q93 0 136 -8q21 -5 28 -12q13 -14 13 -42q0 -50 -34 -60q-31 -8 -104 -9q-10 0 -24 -0.5
t-23.5 -1t-13.5 -0.5l-15 -1l1 -25q1 -12 2.5 -24.5t1.5 -15.5h64q57 0 73 -2t24 -11q15 -16 15 -50q0 -20 -7 -30q-11 -18 -71 -28q-73 -10 -98 -10q-3 0 -3 -44v-44h5q8 0 71 7q65 7 106 7q7 0 15.5 0.5t10.5 0.5q13 0 23 -5q20 -10 24 -44q1 -6 1 -16q0 -49 -31 -61
q-29 -12 -167 -23q-60 -4 -103 -4q-42 0 -50 3q-3 1 -8 1q-7 0 -26 -5q-25 -7 -62 -8h-18q-63 0 -120 31q-53 30 -79 65q-53 70 -53 167q0 11 2 33q9 81 43.5 145t85.5 94q41 23 107 31z" />
    <glyph glyph-name="oe" unicode="&#x153;" horiz-adv-x="666" 
d="M219 241q-9 3 -18 3q-26 0 -42.5 -22t-16.5 -52q0 -62 54 -62q28 0 46.5 21.5t18.5 50.5q0 18 -8 33q-11 21 -34 28zM497 260q-8 5 -16 5q-15 0 -27 -14q-8 -10 -8 -11q0 -2 21 -2q35 0 38 3q2 2 -1 9t-7 10zM446 120q14 -18 53 -18q24 0 45 9q27 10 41 10q32 0 52 -38
q6 -13 6 -28q0 -13 -5 -25q-18 -34 -70 -51q-28 -9 -65 -9q-87 0 -144 38q-17 12 -19 12l-16 -8q-48 -29 -115 -29q-30 0 -47 4t-46 19q-26 13 -44 31q-48 51 -48 125q0 41 14 82q36 108 142 122q9 1 26 1q57 0 100 -28q31 -23 34 -32q2 -7 12 3q35 39 83 51q7 2 27 2
q29 0 49 -5q53 -12 83.5 -51.5t32.5 -100.5v-12q0 -26 -8 -38.5t-29 -17.5q-30 -8 -90 -13q-25 -2 -42 -4z" />
    <glyph glyph-name="Scaron" unicode="&#x160;" horiz-adv-x="421" 
d="M166 551h11q37 0 59 -3q61 -7 96 -42q23 -23 23 -54q0 -21 -12 -39q-18 -27 -49 -27q-15 0 -26 5q-38 15 -53 15h-10q-29 -1 -39 -17q-8 -13 -3 -23q8 -15 73 -32q50 -14 72 -23.5t39 -25.5q38 -35 49 -101q3 -19 3 -29q0 -9 -1 -16q-8 -77 -57 -121t-132 -44
q-38 0 -59 6q-49 13 -82 45.5t-33 68.5q0 9 1 13q4 23 24 37t45 14q29 0 51 -18q17 -14 38 -21q10 -2 14 -2q18 0 32 12t14 28q0 7 -3 15q-10 27 -75 46q-57 17 -75 24t-32 19q-26 23 -38 58q-8 24 -8 61q0 32 6 52q7 25 26 52t39 41q28 18 56 23q2 0 6 1t6.5 1.5t3.5 0.5z
M92 737q10 5 23 5l16 -2q17 -6 61 -59l8 -9l14 18q32 43 46 49q6 3 22 3q10 0 22 -2q26 -8 26 -30q0 -2 -2 -10q-5 -14 -27.5 -43.5t-43.5 -49.5q-17 -15 -28.5 -19.5t-35.5 -4.5q-26 0 -37.5 8.5t-44.5 53.5q-39 53 -39 64q0 17 20 28z" />
    <glyph glyph-name="scaron" unicode="&#x161;" horiz-adv-x="390" 
d="M142 369q10 2 47 2q52 0 69 -4q56 -13 73 -44q5 -9 5 -20q0 -16 -10.5 -31.5t-21.5 -21.5q-6 -3 -13 -3t-42 8q-32 8 -44 8h-7q-18 -1 -24 -7t-3 -10q4 -4 14 -6q36 -6 45 -8q54 -10 81 -25.5t43 -43.5q14 -25 14 -51q0 -21 -7 -39q-35 -99 -176 -99q-58 0 -91 14
q-66 28 -66 75q0 21 16 36q19 18 61 18h28l21 -11q19 -10 29 -12q17 -2 28 7q4 4 4 7q0 12 -76 29q-33 7 -51 13q-65 22 -65 94q0 12 1 18q4 34 34 64q32 33 84 43zM261 557q12 4 21 4q10 0 22 -4q20 -9 20 -27q0 -15 -29 -55q-39 -54 -51.5 -64t-42.5 -10q-25 0 -36 5
q-16 8 -50 44.5t-44 58.5q-6 12 -5 21q2 8 9.5 15.5t16.5 10.5q6 2 23 2q16 0 20 -2q14 -5 43 -42q16 -21 19 -21t20 21q31 37 44 43z" />
    <glyph glyph-name="Ydieresis" unicode="&#x178;" horiz-adv-x="472" 
d="M81 554q4 2 17 2t18 -2q13 -4 31 -30.5t80 -133.5l19 -32l13 24q36 68 50 108q8 22 17.5 30t30.5 11q4 1 13 1q19 0 39.5 -7t28.5 -15q12 -12 12 -37q0 -18 -8 -42q-11 -31 -104 -174q-23 -36 -24 -45q0 -3 -0.5 -9.5t-1.5 -17t-1 -17.5q-9 -114 -14 -139
q-5 -32 -20 -43.5t-48 -11.5h-9q-35 1 -52 12q-23 13 -26 37v11q0 124 8 201v6q0 6 -11 26q-2 3 -22 38.5t-35 60.5q-54 94 -57 105q-2 7 -2 19q0 24 17.5 40.5t40.5 23.5zM300 681q9 3 18 3q16 0 28 -9q14 -11 14 -37q0 -18 -8.5 -33t-22.5 -18q-4 -1 -11 -1
q-20 0 -32.5 13t-12.5 35q0 10 3 21q6 20 24 26zM162 604q-11 12 -11 30q0 21 15 37.5t36 16.5q10 0 18 -4q23 -9 23 -41q0 -18 -11 -32q-15 -18 -41 -18q-19 0 -29 11z" />
    <glyph glyph-name="Zcaron" unicode="&#x17d;" horiz-adv-x="465" 
d="M287 554q10 1 43 1q64 0 75 -3q27 -8 30 -49v-10q0 -45 -34 -65q-7 -4 -85 -138q-16 -28 -39 -66.5t-35 -59t-15 -25.5l-11 -20l94 -1q96 -2 98 -3q27 -18 33 -49q1 -5 1 -16q0 -35 -20 -53l-9 -8l-39 -4q-152 -14 -253 -14h-15q-33 1 -45 7q-32 17 -37 58q-1 5 -1 14
q0 20 12 41q37 65 197 308l-83 -2l-82 -1l-8 5q-31 20 -31 57q0 17 8 39q9 26 32 32q24 7 219 25zM294 737q12 5 20 5t17 -3q25 -7 25 -29q0 -5 -1 -8q-3 -11 -33.5 -58.5t-39.5 -55.5q-14 -11 -49 -11q-20 0 -27.5 2.5t-23.5 13.5q-17 12 -45 43t-35 44q-3 8 -3 14
q0 24 33 32q10 3 19 3q11 0 21 -5q4 -2 33 -31l27 -28l18 25q29 40 44 47z" />
    <glyph glyph-name="zcaron" unicode="&#x17e;" horiz-adv-x="418" 
d="M79 348q10 2 97 2q78 0 122 -2q40 -2 55 -6.5t27 -18.5q17 -20 17 -44q0 -27 -19 -40q-20 -13 -37 -13q-5 0 -26 -27q-10 -12 -47 -60t-37 -50q0 -1 22 -1.5t48.5 -3t34.5 -5.5q33 -15 33 -55q0 -43 -36 -55q-9 -3 -57 -3q-80 0 -171 7q-43 4 -59 17q-23 18 -23 52
q0 15 5 25q6 14 68 82q75 83 73 85q-13 2 -27 3q-58 5 -71 10q-21 7 -27 23q-3 8 -3 23q0 20 4 27q11 22 34 28zM91 520q0 13 14.5 23t32.5 10q8 0 17 -3q17 -5 48 -46q16 -22 18 -22l3 4q3 3 8.5 9.5t10.5 11.5q38 44 62 44q11 0 21 -6q23 -11 23 -28q0 -8 -4 -15
t-29 -40.5t-38 -47.5q-19 -22 -47 -22h-7q-16 0 -31 3q-27 9 -75 73q-27 36 -27 52z" />
    <glyph glyph-name="circumflex" unicode="&#x2c6;" horiz-adv-x="304" 
d="M126 534q3 1 13 1q23 0 40 -5q13 -4 38 -28.5t48 -56.5q17 -23 17 -37q0 -11 -13 -21t-37 -10h-6q-15 2 -25.5 10.5t-30.5 34.5q-15 20 -18 23h-1q-2 0 -14.5 -17.5t-32.5 -35.5t-38 -18q-9 0 -22 6t-17 13q-3 6 -3 13q0 9 5 19q18 33 62 86q16 19 35 23z" />
    <glyph glyph-name="caron" unicode="&#x2c7;" horiz-adv-x="304" 
d="M222 534q8 3 15 3q8 0 19 -4q25 -9 25 -28q0 -7 -7 -21q-14 -24 -61 -83q-19 -23 -46 -25h-9q-28 0 -45 11q-15 10 -44.5 43.5t-39.5 52.5q-6 11 -6 20q0 15 14.5 23.5t33.5 8.5t30 -8t36 -41l16 -21l21 26q29 36 48 43z" />
    <glyph glyph-name="quoteleft" unicode="&#x2018;" horiz-adv-x="195" 
d="M118 531q12 7 18 7q14 0 25 -17t11 -35q0 -7 -1 -10q-5 -17 -23 -48.5t-31 -43.5q-19 -19 -44 -19q-21 0 -39 15q-10 9 -10 22q0 24 32 66q42 54 62 63z" />
    <glyph glyph-name="quoteright" unicode="&#x2019;" horiz-adv-x="202" 
d="M130 536q6 2 9 2q10 0 25 -16q16 -17 16 -40q0 -29 -35 -64t-55 -45q-7 -4 -18 -4q-31 0 -44 20q-4 6 -3 18q3 22 32 60q47 61 73 69z" />
    <glyph glyph-name="quotesinglbase" unicode="&#x201a;" horiz-adv-x="195" 
d="M115 35q7 3 15 3q18 0 33 -21q11 -16 11 -32q0 -24 -21 -51q-10 -13 -33 -35t-31 -26q-10 -5 -21 -5q-24 0 -39 15q-7 8 -6 21q1 22 36 71q34 49 56 60z" />
    <glyph glyph-name="quotedblleft" unicode="&#x201c;" horiz-adv-x="351" 
d="M107 526q12 5 23 5q18 0 31 -9t13 -24q0 -26 -49 -92q-27 -36 -46 -44q-6 -2 -9 -2q-11 0 -22 8q-25 19 -25 46q0 22 18 48q11 15 33.5 37.5t32.5 26.5zM261 535q12 5 23 5q26 0 38 -14q7 -8 6 -22q-1 -23 -35 -71q-33 -48 -57 -60q-8 -3 -15 -3q-18 0 -33 21
q-11 16 -11 33q0 24 21 51q9 12 32 34t31 26z" />
    <glyph glyph-name="quotedblright" unicode="&#x201d;" horiz-adv-x="356" 
d="M274 528q12 6 19 6q8 0 19 -9q22 -22 22 -45q0 -29 -31 -61q-36 -38 -58 -49q-10 -4 -20 -4q-24 0 -36 12t-9 28q4 20 30 55q41 56 64 67zM98 512q22 22 39 22q9 0 19 -8q23 -20 23 -45q0 -15 -7 -30q-8 -17 -28 -37q-34 -34 -54 -44q-7 -4 -19 -4q-28 0 -42 17
q-5 5 -5 16q0 21 21 50q32 44 53 63z" />
    <glyph glyph-name="quotedblbase" unicode="&#x201e;" horiz-adv-x="350" 
d="M116 35q8 4 16 4q9 0 17 -7q25 -19 25 -47q0 -14 -8 -32q-8 -17 -35 -45t-43 -36q-8 -4 -20 -4q-17 0 -31 8.5t-14 21.5q0 27 48 93q24 35 45 44zM276 46q6 2 9 2q19 0 34 -23q11 -16 11 -32q0 -28 -30 -61q-30 -34 -52 -48q-10 -7 -26 -7q-20 0 -35 13q-8 7 -8 20
q0 20 20 51q48 75 77 85z" />
    <glyph glyph-name="guilsinglleft" unicode="&#x2039;" horiz-adv-x="345" 
d="M246 388q9 3 18 3q23 0 41 -20q16 -20 16 -37q0 -30 -77 -74q-4 -2 -14 -8t-19 -11t-15 -9l-26 -16l34 -18q65 -36 90 -54q14 -10 18.5 -18t4.5 -24v-7q-3 -55 -51 -55h-2q-20 0 -66 22q-57 27 -107 63q-34 24 -44.5 33.5t-15.5 21.5q-7 15 -7 39q0 34 10.5 48.5
t52.5 37.5q140 76 159 83z" />
    <glyph glyph-name="guilsinglright" unicode="&#x203a;" horiz-adv-x="347" 
d="M44 376q17 17 36 17q11 0 20 -4q20 -7 155 -80q47 -26 57 -39q12 -16 12 -47q0 -36 -16 -54q-17 -21 -88 -66q-83 -51 -127 -61q-5 -1 -13 -1q-22 0 -35.5 14.5t-14.5 40.5v7q0 22 11 33q26 26 120 73l16 8q-5 3 -91 55q-61 35 -61 65q0 6 6.5 19t12.5 20z" />
    <glyph glyph-name="fraction" unicode="&#x2044;" horiz-adv-x="393" 
d="M289 549q5 4 18 4q16 0 29 -7q33 -16 33 -53q0 -19 -3 -28q-12 -41 -147 -312q-59 -118 -74 -144t-31 -36q-8 -5 -20 -5q-18 0 -38.5 10t-25.5 20q-5 8 -5 23q0 26 16 62q20 44 97 203q94 193 107 213q24 38 44 50z" />
    <glyph glyph-name="Euro" unicode="&#x20ac;" horiz-adv-x="547" 
d="M233 257q1 -2 2 -7t2 -8q71 6 98 7q7 0 16 0.5t12 0.5q14 0 20 -3q19 -9 19 -32q0 -12 -7 -20q-12 -13 -125 -33l-8 -2l3 -10q13 -32 62 -32q42 0 104 27q29 12 42 12q6 0 9 -1q11 -3 23 -21t16 -36q1 -4 1 -12q0 -30 -28 -57.5t-74 -42.5q-41 -14 -88 -14
q-52 0 -99.5 17t-76.5 44q-35 34 -59 93l-7 19l-13 2q-33 4 -36 27q0 2 -0.5 4.5t-0.5 3.5q0 22 32 29q6 1 6 13v12h-10q-30 0 -40 18q-3 6 -3 17q0 10 3 16q7 13 38 18q16 2 16 7q0 9 14 47q18 46 54.5 86t80.5 63q44 22 105 30q23 3 41 3q61 0 84 -30q16 -20 16 -56
q0 -29 -20 -40q-13 -6 -56 -6h-18q-54 0 -71 -7q-42 -14 -66 -44q-14 -20 -14 -28q0 -1 2 -1q3 0 43 4q58 8 95 8q13 0 19 -2q15 -7 17 -27v-5q0 -19 -24.5 -27.5t-107.5 -18.5z" />
    <glyph glyph-name="trademark" unicode="&#x2122;" horiz-adv-x="544" 
d="M513 303q-20 -20 -40 -20q-19 0 -31 16q-4 5 -5 44l-1 39l-13 -12q-12 -12 -20 -12q-17 0 -27 13l-7 9l-3 -34q-2 -30 -5 -39t-13 -14q-12 -4 -22 -4q-11 0 -21 4q-10 5 -13 15t-4 39v65v40q2 70 6 76q11 19 39 19q11 0 19 -4t36 -53l17 -29l17 24q22 33 34.5 43.5
t26.5 10.5q17 0 28 -10.5t11 -26.5q0 -7 -5 -19q-4 -7 -4 -42v-53v-85zM173 549q23 3 48 3h20l8 -8q12 -12 12 -35q0 -15 -6 -27q-4 -8 -13.5 -12.5t-17 -5.5t-24.5 -2l-18 -2v-7q0 -1 0.5 -9t1.5 -21.5t1 -25.5q1 -18 1 -46q0 -41 -7 -51q-10 -16 -37 -16q-9 0 -15 3
q-14 6 -19 24q-7 32 -7 115q0 22 -1 22q-1 1 -23 -1q-8 -1 -17 -1q-6 0 -14 4q-10 4 -16.5 18.5t-6.5 29.5q0 24 17 33q13 6 133 18z" />
  </font>
</defs>
</svg>
