<?xml version="1.0" standalone="no"?>
<!DOCTYPE svg PUBLIC "-//W3C//DTD SVG 1.1//EN" "http://www.w3.org/Graphics/SVG/1.1/DTD/svg11.dtd" >
<svg xmlns="http://www.w3.org/2000/svg" xmlns:xlink="http://www.w3.org/1999/xlink" version="1.1">
<metadata>
Created by FontForge 20201107 at Thu Oct 15 03:49:20 2020
 By Jimmy Wärting
</metadata>
<defs>
<font id="BubbleeKidsShadow-Regular" horiz-adv-x="250" >
  <font-face 
    font-family="Bubblee Kids Shadow"
    font-weight="400"
    font-stretch="normal"
    units-per-em="1000"
    panose-1="2 0 5 3 0 0 0 0 0 0"
    ascent="800"
    descent="-200"
    x-height="390"
    cap-height="565"
    bbox="4 -327 842 779"
    underline-thickness="50"
    underline-position="-150"
    unicode-range="U+000D-2122"
  />
<missing-glyph horiz-adv-x="364" 
d="M33 0v666h265v-666h-265zM66 33h199v600h-199v-600z" />
    <glyph glyph-name=".notdef" horiz-adv-x="364" 
d="M33 0v666h265v-666h-265zM66 33h199v600h-199v-600z" />
    <glyph glyph-name=".null" 
 />
    <glyph glyph-name=".null" 
 />
    <glyph glyph-name="nonmarkingreturn" horiz-adv-x="333" 
 />
    <glyph glyph-name="CR" unicode="&#xd;" 
 />
    <glyph glyph-name="space" unicode=" " 
 />
    <glyph glyph-name="exclam" unicode="!" horiz-adv-x="262" 
d="M57 39q0 -53 48 -53q37 0 52 28q5 10 5 27q0 13 -4 23q-11 18 -32 25q-12 4 -25 4q-44 0 -44 -54zM115 540q-9 4 -25 4q-24 0 -35 -14q-16 -20 -16 -76q0 -12 2 -62q7 -187 15 -209q7 -20 24 -23q1 0 4.5 -0.5t5.5 -0.5q27 0 41 8q16 8 18 54v8q0 151 -10 253
q-3 30 -7.5 41t-16.5 17zM112 116q-3 15 -3 17q0 4 -11 3q-1 0 -3.5 -0.5t-4.5 -0.5q-23 0 -36 10q-21 13 -26 48q-7 38 -12 221q-1 17 -1 43q0 66 22 92q17 20 54 20q19 0 37 -8q30 -14 34 -58l1 -16h8q20 0 33 -12.5t16 -32.5q4 -26 8.5 -115.5t4.5 -146.5q0 -72 -10 -86
q-9 -12 -33 -16q-8 -1 -9.5 -2.5t1.5 -8.5q2 -7 4 -20l1 -14q59 -7 59 -65q0 -61 -61 -67q-1 0 -5 -0.5t-5 -0.5q-50 0 -59 49q-1 8 -2.5 9.5t-7.5 1.5q-38 0 -55 21q-19 23 -19 57q0 27 12 48t33 27q12 3 22 3h13z" />
    <glyph glyph-name="quotedbl" unicode="&#x22;" horiz-adv-x="431" 
d="M310 538q-16 8 -30 8q-21 0 -36.5 -12.5t-15.5 -30.5v-5q2 -9 11 -23q10 -14 10 -24q0 -7 -3 -17q-3 -9 -3 -14q0 -11 10 -15q6 -3 12 -3q25 0 53 56q12 22 13 41v6q0 23 -21 33zM118 553q-13 5 -29 5q-7 0 -15 -2q-15 -5 -25 -17.5t-10 -25.5q0 -7 3 -13q3 -7 12 -17
q9 -11 9 -18q0 -5 -3 -13q-4 -10 -4 -18q0 -10 6 -15q7 -5 16 -5q8 0 14 3q20 11 44 60q11 22 11 36q0 27 -29 40zM64 579q11 4 24 4q43 0 69 -28q15 -16 15 -41v-14l12 -3q12 -3 15 -5q3 7 4 11q0 18 10.5 34.5t26.5 24.5q19 10 40 10q31 0 53.5 -20.5t22.5 -50.5
q0 -7 -1 -11l15 -4q46 -12 46 -53q0 -20 -12 -47q-19 -41 -35 -56q-13 -12 -33 -12q-21 0 -30 13q-5 8 -5 21t4 21q4 9 1 13q-2 5 -13 -1q-13 -7 -29 -7q-29 0 -39 18l-4 5l-10 -17q-24 -42 -39 -50q-13 -5 -24 -5q-21 0 -30 13q-4 7 -4 21q0 10 3 22q3 13 1 14.5t-13 -4.5
q-12 -6 -27 -6q-16 0 -26 6q-20 10 -20 35q0 12 2 19q3 16 -1 21q-19 23 -19 46q0 8 1 11q10 38 49 52z" />
    <glyph glyph-name="numbersign" unicode="#" horiz-adv-x="608" 
d="M245 288q4 4 11 2q5 0 25 -2q28 -1 28 -13q0 -22 -10 -32q-4 -4 -29 0q-21 3 -27.5 5.5t-6.5 9.5q0 19 9 30zM276 482q-13 17 -41 17q-9 0 -13 -2q-22 -8 -41 -66l-8 -26l-40 -1q-33 -1 -42 -3t-16 -12q-9 -11 -9 -27q0 -14 6 -23q13 -15 52 -25q21 -5 21 -15
q0 -3 -2 -13q-5 -19 -10 -21q-4 -1 -15 -1h-12q-24 0 -34 -3t-20 -14q-12 -13 -12 -30q0 -16 12.5 -24.5t46.5 -17.5q14 -3 14 -12q0 -5 -5 -22q-10 -35 -10 -43q0 -4 2 -10q10 -23 47 -23q22 0 31 13q8 9 21 53q3 10 4.5 13.5t4.5 6t9 2.5q8 0 26 -3q28 -5 31 -8q2 -2 2 -8
q0 -9 -4 -28q-5 -23 -5 -30t4 -17q11 -22 42 -22h3q37 1 50 73q2 13 5.5 16.5t16.5 3.5h14h14q40 0 51 24q5 12 5 21q0 21 -20 30q-3 2 -25 6.5t-25 7.5q-2 2 -2 10t4 24t6 17q1 1 25 3q39 2 55.5 11t16.5 28q0 30 -51 42q-12 3 -16.5 6t-4.5 9q0 4 5 21q9 26 9 42
q0 29 -32 39q-6 2 -16 2q-39 0 -58 -74q-3 -12 -8 -15q-4 -2 -7 -2q-11 0 -45 6q-12 3 -12 11q0 2 4 20q6 21 6 39q0 16 -5 24zM531 296q61 -17 61 -56q0 -47 -74 -51l-22 -1l-1 -15v-16l14 -4q40 -10 45 -32q1 -3 1 -11q0 -24 -6 -36q-8 -17 -20.5 -23t-45.5 -6h-31l-3 -16
q-8 -47 -28 -65q-15 -12 -37 -12q-15 0 -28 6q-28 12 -29 42l-1 13h-15q-16 0 -35 8q-2 1 -3.5 -0.5t-3.5 -7.5q-7 -20 -24 -28q-7 -3 -26 -3q-17 0 -27 3q-20 6 -28 15t-8 26v15h-14q-27 2 -46 13q-22 13 -22 41q0 12 5 34q5 20 5 24q0 2 -10 4q-28 8 -43.5 21t-15.5 40
q0 20 11.5 38t29.5 26q12 6 37 7l26 1l-15 4q-34 11 -48 25.5t-14 38.5v8q4 63 84 63h28l5 15q11 38 29 58q18 21 55 21q28 -1 46 -18t18 -44q0 -19 2 -19q8 0 20 -3l7 15q19 40 61 43h6q48 0 66 -34q4 -7 4 -27v-19l10 -1q27 -5 39 -18q10 -11 10 -30q0 -24 -1 -45v-27z
" />
    <glyph glyph-name="dollar" unicode="$" horiz-adv-x="505" 
d="M262 548q0 28 -30 28q-7 0 -27 -2q-12 -2 -17.5 -5.5t-6.5 -13.5q-1 -9 -5 -11.5t-19 -4.5q-22 -2 -46 -13.5t-38 -27.5q-33 -38 -33 -107q0 -79 55 -115q39 -27 114 -47q38 -10 52.5 -21.5t14.5 -30.5q0 -20 -9.5 -28t-33.5 -8q-39 0 -83 34q-22 17 -40 17h-10
q-41 -3 -53 -37q-2 -5 -2 -15q0 -30 27 -58q29 -30 91 -49q7 -3 8 -10q4 -22 13 -27.5t34 -7.5h7q23 0 29 18q4 11 8 14.5t15 4.5q121 13 127 156v16q0 16 -4 32q-13 47 -49.5 74.5t-114.5 49.5q-37 10 -51 18t-14 21q0 3 2 11q7 22 30 29q11 3 23 3q25 0 69 -18
q26 -11 48 -11q29 0 39 30q3 8 3 19q0 13 -5 23q-19 36 -87 53q-4 1 -10.5 2.5t-9 2t-6 2t-4.5 4t-1 6.5zM20 139q0 35 23.5 56.5t63.5 21.5h22l-6 9q-7 10 -17 15q-44 23 -64.5 52t-25.5 77q-1 7 -1 23q0 38 13 74t35 57q32 31 83 38q10 1 13 9q6 18 22.5 23t49.5 5
q27 -1 37.5 -7t14.5 -22q2 -9 3 -10l2 -1q3 -1 7 -2l8 -2q45 -11 73 -34t32 -51q1 -10 12 -15q28 -16 39 -34q11 -19 11 -39q0 -14 -6 -28q-16 -34 -50 -34q-20 0 -53 13l-21 8q2 -2 9 -6q48 -27 68 -74q5 -11 14 -17q11 -7 24.5 -23t18.5 -28q15 -31 15 -73q0 -61 -19 -100
q-14 -31 -44 -52.5t-67 -25.5q-18 -2 -19 -10q-6 -29 -47 -29q-11 0 -17 1q-21 3 -30.5 10.5t-14.5 25.5l-2 10l-22 7q-56 18 -82 54q-9 13 -19 17q-33 13 -59.5 45.5t-26.5 65.5z" />
    <glyph glyph-name="percent" unicode="%" horiz-adv-x="633" 
d="M441 106q0 1 4 7.5t7 12.5l4 6h-1q-5 0 -14 -26zM440 152q7 4 15 4q17 0 27 -15q4 -7 4 -26q0 -15 -3 -25t-12 -19.5t-16 -10.5h-6q-19 0 -27 15q-5 9 -5 25q0 38 23 52zM112 406q5 11 4 12l-4 -5q-3 -6 -4 -11t2 -1q0 2 2 5zM99 436q6 6 16 6q18 0 31 -19q6 -8 7 -28v-8
q0 -24 -12 -37q-9 -10 -19 -10q-8 0 -15 4q-23 12 -23 51q0 27 15 41zM540 21q4 8 3 9l-6 -8l-2 -2q-8 -12 -8 -14q0 -5 10 9zM484 222q-10 6 -29 6q-7 0 -10 -1q-48 -14 -67 -70q-5 -13 -6 -48v-10q0 -56 26 -86q20 -23 48 -23q24 0 46 17.5t32 47.5q9 27 9 58q0 37 -13 67
t-36 42zM198 284q3 1 9 9.5t3 11.5q-1 1 -1 -1q0 -1 -8 -13l-5 -8zM142 508q-11 6 -24 6q-32 0 -54 -28q-25 -31 -25 -79q0 -17 3 -35q8 -44 31 -70.5t52 -26.5q13 0 27 6q51 24 51 98q0 15 -3 32q-12 72 -58 97zM433 523q-8 4 -15 4t-17 -5q-18 -10 -52 -59
q-56 -85 -208 -359q-31 -56 -31 -78q0 -13 10 -23q17 -17 40 -17t39 20q22 28 142 236q113 196 120 225q2 10 2 13q0 29 -30 43zM403 550q10 2 11 2h1q15 0 33 -9q35 -18 38 -57q1 -12 1.5 -14.5t4.5 -2.5q12 0 33 -14q19 -13 20 -43q0 -3 0.5 -7t0.5 -5q0 -6 -5 -21
q-8 -22 -51 -99q-13 -23 -13 -28q0 -2 3 -2q13 0 39 -24q23 -21 31 -51q1 -7 10 -11q15 -9 21 -15q24 -22 32 -61q3 -15 3 -45q0 -29 -3 -45q-5 -27 -22.5 -51t-37.5 -34q-11 -5 -35 -5q-23 0 -34 5q-25 12 -39 39q-4 8 -5.5 10t-4 3.5t-7.5 2.5q-42 9 -67 57l-8 17l-24 -39
q-40 -68 -54.5 -84.5t-37.5 -17.5h-6q-26 0 -44 17t-18 32v9l-17 3q-27 4 -45.5 19t-20.5 36q0 1 -0.5 4t-0.5 5q0 31 50 119l29 52q-5 4 -10 6q-8 4 -20 17t-17 23q-5 9 -8 9q-15 0 -39 17q-25 17 -40 54.5t-15 83.5q0 77 49 114q22 17 53 17q19 0 35 -8q42 -21 60 -67
q4 -12 13 -17q10 -5 22.5 -19t17.5 -25q6 -14 8 -14t20 33q70 120 110 129z" />
    <glyph glyph-name="ampersand" unicode="&#x26;" horiz-adv-x="557" 
d="M196 123q-17 0 -31 12t-14 31q0 13 8 32.5t19 19.5q4 0 7 -3q4 -4 25.5 -28t23.5 -28q3 -6 3 -10q0 -12 -14 -19t-27 -7zM162 425q0 22 23 30q6 2 10 2q17 0 23 -18q1 -3 1 -10q0 -18 -15 -33q-12 -12 -16 -13h-2q-8 0 -16 13.5t-8 28.5zM235 542q-17 3 -33 3
q-44 0 -80.5 -21.5t-52.5 -58.5q-6 -15 -6 -45t4.5 -44.5t22.5 -41.5t18 -32q0 -6 -17 -26q-52 -62 -52 -119v-12q6 -90 79 -139q28 -19 67 -19q17 0 37 5q22 7 53 38q26 26 34 26q5 0 13 -9q28 -36 46 -46q8 -5 21 -5q19 0 36 11q31 22 31 47q0 30 -39 73q-16 17 -16 24
q0 6 16 22q26 26 26 48q0 20 -16.5 36t-34.5 16t-46 -26q-15 -14 -21 -14q-5 0 -22.5 15.5t-25.5 26.5q-5 6 -5 13t10 23q23 34 34 64q6 17 6 48q0 26 -4 39q-8 34 -29 55q-12 12 -15 12q-1 0 -15 6q-11 5 -24 7zM183 569q1 0 4 0.5t6 0.5q35 0 57 -6q64 -16 85 -73
q5 -13 12 -17q28 -13 43.5 -45.5t15.5 -76.5q0 -21 -5 -48q-1 -7 4 -7q17 0 39 -22q19 -21 22 -45l2 -13l11 -3q36 -11 47 -53q2 -10 2 -13q0 -22 -31 -56l-12 -13l12 -13q34 -37 42 -74q1 -3 1 -10q0 -30 -26 -50t-54 -20h-7q-22 2 -52 34l-23 24l-9 -8q-37 -39 -57 -48
q-24 -11 -60 -11q-16 0 -30 3q-37 9 -67 39q-20 20 -21 22q-7 7 -20 13q-18 9 -39 30q-60 60 -60 142v12q1 37 12.5 63.5t40.5 60.5l13 15l-10 16q-22 29 -29 56q-5 20 -5 46q0 25 4 38q10 40 44.5 69t78.5 37q4 0 8.5 1t7 2t3.5 1z" />
    <glyph glyph-name="quotesingle" unicode="'" horiz-adv-x="247" 
d="M113 559q-14 4 -24 4q-32 0 -46 -28q-4 -7 -4 -15q0 -14 16 -33q9 -12 9 -16t-3 -14q-3 -12 -3 -20t4 -12q5 -5 16 -5t19 5q8 3 28 37.5t22 53.5v5q0 28 -34 38zM61 583q7 3 21 3h12q26 -1 39 -7q38 -17 39 -60v-14l11 -2q49 -12 49 -55q0 -20 -23 -62
q-17 -29 -28.5 -39.5t-28.5 -10.5h-6q-30 3 -30 30q0 13 2 20q3 11 1.5 16.5t-9.5 0.5q-6 -4 -19 -6q-10 -2 -14 -2q-20 0 -31.5 11.5t-11.5 32.5q0 11 3 21q2 8 -5 17q-17 21 -17 44q0 43 46 62z" />
    <glyph glyph-name="parenleft" unicode="(" horiz-adv-x="350" 
d="M208 577q-10 3 -26 3q-20 0 -29 -4q-36 -12 -78 -114q-26 -61 -35 -130q-2 -11 -2 -37q0 -106 40 -191q28 -61 72 -83q14 -7 30 -7q32 0 51 28q5 8 5 26q0 9 -1 13q-4 17 -29 47q-38 45 -45 123q-1 9 -1 29q0 56 12 95q15 47 61 106q17 21 17 37q0 7 -3 16q-10 34 -39 43
zM98 562q31 44 80 44q21 0 42 -7q42 -15 52 -66q2 -12 7 -12q16 0 33 -19q20 -21 21 -49v-7q0 -22 -19 -46q-44 -56 -58 -102q-11 -36 -11 -88q0 -50 11 -86q10 -34 33 -59q14 -15 23 -32q9 -18 9 -35q0 -37 -32 -58q-19 -11 -38 -11q-36 0 -67 31q-18 16 -22 23
q-6 9 -18 13q-56 22 -92.5 110t-36.5 184q0 18 1 27q2 40 7 59q10 47 32 101.5t43 84.5z" />
    <glyph glyph-name="parenright" unicode=")" horiz-adv-x="344" 
d="M138 572q-9 5 -24 5q-20 0 -36.5 -10.5t-20.5 -27.5q-1 -4 -1 -13q0 -25 30 -77q29 -55 36 -81q9 -36 9 -74q0 -66 -24 -116q-13 -28 -42 -58q-25 -26 -25 -51q0 -34 31 -49q10 -5 24 -5q30 0 59.5 26.5t50.5 73.5q39 88 39 178v13q-4 64 -24 128.5t-49 106.5
q-17 23 -33 31zM107 603h4q15 0 30 -5q33 -11 62 -62q11 -17 17 -24q1 -1 7 -6t9 -8q22 -21 42 -63q50 -103 50 -215q0 -27 -3 -51q-15 -110 -61 -176q-25 -36 -58 -54q-19 -10 -38 -10q-25 0 -44 14t-24 35q-2 8 -5 10t-15 3q-28 5 -46.5 25.5t-18.5 49.5v7q3 33 40 74
q51 56 51 141q0 80 -43 154q-31 51 -31 84v7q5 55 59 66q3 1 9 2.5t7 1.5z" />
    <glyph glyph-name="asterisk" unicode="*" horiz-adv-x="421" 
d="M203 589q-12 4 -17 4q-7 0 -17 -4q-18 -10 -25 -56q-2 -16 -8 -20q-4 -2 -5 -2q-7 0 -29 14q-21 12 -29 12q-5 0 -11 -3q-20 -11 -20 -26q0 -17 30 -38q15 -12 15 -20q0 -9 -15 -15q-33 -17 -33 -40v-6q2 -13 15.5 -21.5t31.5 -8.5q14 0 23 4t16 4t9.5 -11.5t4 -26
t4.5 -19.5q5 -7 20 -7q1 0 5.5 0.5t6.5 0.5q25 3 37 13l8 7l1 23v14t1 8t3 5.5t6 1.5t21 -5q12 -5 28 -5q22 0 34 16q5 8 5 12q0 6 -21 27q-22 22 -22 27q0 4 5 7q31 22 37 34q4 7 0 16q-8 15 -26 15q-9 0 -32 -7q-16 -6 -24 -6t-9 22v8q-1 25 -5.5 35t-18.5 17zM177 617
q1 0 4 0.5t4 0.5q33 0 50 -21q14 -16 15 -44q2 -16 4 -16q19 7 35 7q28 0 41 -13q15 -13 15 -32q0 -20 -18 -38l-10 -10l12 4q21 7 34 7q32 0 41 -28q3 -10 -2 -21q-11 -22 -39 -38l20 -20q21 -21 21 -30q0 -6 -5 -16q-15 -29 -44 -29q-19 0 -47 9q-2 1 -2.5 -2t-0.5 -15
q0 -29 -14 -39t-49 -12q-4 0 -9 -0.5t-7 -0.5q-10 0 -15 4q-11 7 -14 34q-1 22 -5 22l-8 -2q-6 -3 -27 -3q-26 0 -42.5 12.5t-18.5 33.5l-1 12h-8q-33 0 -57 21q-16 16 -16 42q0 15 6 27q11 21 29 28q1 1 -1 4t-7 8q-25 27 -25 47q0 17 16 33q18 18 40 18q18 0 38 -12l10 -6
l4 17q6 28 18 41t35 16z" />
    <glyph glyph-name="plus" unicode="+" horiz-adv-x="455" 
d="M207 417q-8 7 -23 7q-8 0 -14 -3q-13 -8 -16 -19t-4 -48q-1 -42 -5 -46q-5 -5 -36 -10q-44 -7 -58 -22q-12 -13 -12 -28q0 -18 17 -26q11 -5 52 -5q44 0 46 -2q5 -4 10 -38q4 -34 10.5 -49t20.5 -22q11 -6 25 -6q8 0 13 3q17 11 17 65v16q0 6 -0.5 13.5t-0.5 9.5
q0 10 3 13q4 4 32 10q59 13 68 31q3 6 3 13q0 19 -20 31q-12 6 -48 7q-35 2 -40.5 6.5t-12.5 41.5q-7 41 -27 57zM145 433q18 16 40 16q14 0 25 -5q13 -5 26 -22t17 -32q5 -22 10 -22q8 0 22.5 -10t16.5 -18q1 -4 14 -5q62 -7 62 -57q0 -12 -2 -18q-2 -5 1 -6.5t17 -2.5
q15 -2 21 -5q25 -12 25 -41q0 -1 -0.5 -3.5t-0.5 -3.5q-6 -39 -84 -54l-22 -4v-37q0 -52 -11 -72q-9 -15 -32 -15q-49 0 -61 48l-3 11h-10q-23 0 -42 14.5t-24 33.5q-1 7 -3.5 8.5t-12.5 3.5q-38 7 -37 44l1 14h-14q-69 0 -69 53q0 8 1 13q7 45 65 59q43 8 44 12l1 6
q0 6 0.5 15.5t0.5 17.5q1 31 4.5 43t13.5 21z" />
    <glyph glyph-name="comma" unicode="," horiz-adv-x="245" 
d="M112 67q-10 3 -21 3q-22 0 -38 -12.5t-16 -29.5q0 -1 0.5 -3t0.5 -3q1 -9 18 -29q7 -7 7 -14q0 -5 -3 -16q-3 -12 -3 -18q0 -7 5 -12q6 -6 15 -6q16 0 29 15q6 7 19.5 32t16.5 34q4 14 4 20q0 28 -34 39zM72 95q3 1 10 1q6 0 22 -2q66 -11 66 -65v-16l11 -2
q51 -12 51 -52q0 -32 -38 -88q-17 -27 -45 -27t-32 17q-1 5 -1 18q0 15 2 20q2 8 -0.5 12.5t-9.5 -0.5q-14 -8 -30 -8q-28 0 -39 18q-5 10 -5 28q0 11 1 15l2 11l-8 12q-16 22 -16 39q0 4 2 14q12 45 57 55z" />
    <glyph glyph-name="hyphen" unicode="-" horiz-adv-x="444" 
d="M89 322q-20 0 -36.5 -11t-16.5 -27q0 -25 72 -36q75 -12 168 -12q29 0 35 2q35 8 35 39q0 9 -4 16q-9 20 -92 28q-24 3 -100 3q-45 0 -61 -2zM14 284q0 25 16.5 41t39.5 20q7 1 100 1q88 -1 119 -6q38 -7 53.5 -14.5t22.5 -22.5q5 -12 5 -31q0 -8 -1 -11q-1 -2 0.5 -3
t6 -2.5t12.5 -3.5q24 -7 32.5 -15t8.5 -32q0 -34 -36 -48q-14 -5 -60 -5q-78 0 -151 11q-46 7 -66.5 18t-20.5 31q0 3 2 13l-19 4q-41 9 -58 32q-6 7 -6 23z" />
    <glyph glyph-name="period" unicode="." horiz-adv-x="237" 
d="M116 103q-16 8 -27 8q-21 0 -36 -16.5t-15 -38.5q0 -24 15.5 -39t35.5 -15q19 0 33 13q17 14 17 41q0 33 -23 47zM14 70q5 29 24 47t48 18q6 0 20 -2q52 -12 57 -66l1 -14q26 -3 42.5 -19.5t16.5 -45.5v-6q-1 -30 -17 -46q-19 -19 -48 -19q-28 0 -45 19q-14 15 -17 35
q-1 6 -3 6h-2h-2q-20 0 -34 7q-17 7 -29.5 28t-12.5 45q0 9 1 13z" />
    <glyph glyph-name="slash" unicode="/" horiz-adv-x="457" 
d="M329 545q-9 5 -18 5t-16 -5q-21 -14 -48 -61.5t-96 -192.5q-75 -155 -94 -198.5t-19 -59.5t17 -28.5t37 -12.5t39.5 30.5t88.5 170.5q125 253 134 289q2 6 2 20q0 15 -4 23q-6 12 -23 20zM300 574q3 1 10 1q17 0 34 -9t25 -22q13 -20 13 -43q0 -5 1 -6.5t8 -2.5
q50 -8 50 -59q0 -22 -10 -46q-22 -56 -110 -235.5t-107 -208.5q-23 -35 -50 -35q-15 0 -39 11q-29 15 -29 41q0 5 -14 8q-44 8 -60 34q-6 10 -7 27v8q0 18 11.5 46.5t54.5 119.5q45 96 94.5 195t62.5 118q36 53 62 58z" />
    <glyph glyph-name="zero" unicode="0" horiz-adv-x="559" 
d="M325 229q2 6 2 26q0 38 -6 58l-5 15q-35 -7 -53 -28q-33 -38 -33 -90q0 -8 2 -24q3 -30 10 -31h4q17 0 35 9q31 16 44 65zM230 410q12 2 17 2q58 0 86 -61q19 -38 19 -88q0 -43 -13 -70q-29 -62 -90 -62q-17 0 -33 6q-45 18 -63 86q-6 23 -6 59q0 22 3 35q7 35 29.5 61.5
t50.5 31.5zM257 548q-20 2 -21 2q-71 -7 -118.5 -50t-66.5 -118q-10 -39 -10 -91q0 -77 19 -139q15 -48 44 -86t63 -55q36 -18 80 -18q23 0 49 6q163 46 163 260v16q-3 80 -28 140q-50 118 -174 133zM110 527q60 46 128 46q26 0 60 -8q75 -20 119 -75q5 -7 15.5 -23
t10.5 -18l16 -16q65 -64 82 -181q2 -22 2 -59q0 -51 -3 -72q-24 -153 -142 -197q-44 -16 -82 -16q-43 0 -81.5 19.5t-61.5 48.5q-8 10 -22 16q-57 30 -92 100.5t-43 161.5q-2 24 -2 37q0 77 26 139t70 97z" />
    <glyph glyph-name="one" unicode="1" horiz-adv-x="369" 
d="M237 545q-8 5 -35 5q-12 0 -17 -1q-31 -4 -71 -23t-59 -38q-15 -15 -15 -38q0 -29 27 -42q10 -5 20 -5q15 0 37 11q17 9 23 7q5 -2 7 -8v-6q0 -38 -7 -176q-6 -108 -6 -180v-13q3 -23 13 -33t31 -10h10q40 3 50 26q2 7 4 77q2 69 17 308q3 48 3 63q0 16 -1 21
q-6 42 -31 55zM275 543q16 -24 16 -45q0 -5 1 -6t6 -1q27 0 43 -32q12 -23 12 -55v-21q-2 -34 -10 -175t-10 -200q-2 -45 -4 -59q-4 -17 -23.5 -28.5t-45.5 -11.5q-10 0 -15 1q-23 4 -33 16q-12 18 -12 35v7l-17 1q-35 2 -53 24q-14 18 -14 64q0 4 0.5 17t0.5 21q1 28 6 136
q4 59 4 80q0 16 -7 20q-1 0 -2 1q-18 13 -20 36l-1 11l-14 1q-32 0 -52 22q-16 17 -16 48q0 19 8 37q8 16 40 39q70 50 141 50q49 0 71 -33z" />
    <glyph glyph-name="two" unicode="2" horiz-adv-x="514" 
d="M284 538q-14 2 -24 2q-37 0 -68 -11q-45 -15 -91 -50q-45 -34 -45 -60v-5q1 -23 21 -41q12 -12 23 -12q9 0 32 18q52 44 88 44q19 0 28 -15q4 -7 4 -20q0 -15 -4 -26q-11 -30 -94 -123q-90 -99 -105 -135q-10 -23 -10 -50q0 -2 0.5 -6.5t0.5 -6.5q1 -29 11 -34
q22 -12 184 -12q48 0 71 1q68 2 77 5q7 1 17 11q15 15 15 37q0 39 -32 54l-11 5l-88 1q-87 1 -91 6q-1 1 -1 6v1q0 4 34 37q115 110 140 193q10 30 10 63q0 49 -24 83t-68 40zM213 560q18 3 45 3q26 0 41 -3q61 -13 88 -74q7 -16 8 -16q2 0 15 -11q23 -17 37 -47.5t14 -61.5
q0 -60 -29 -118q-18 -35 -57 -81l-14 -17l12 -3q26 -5 44.5 -23.5t21.5 -45.5l1 -12l12 -3q27 -8 40 -33q6 -12 6 -35q0 -54 -37 -62q-20 -5 -114 -5h-62q-97 1 -131 4t-44 12q-12 10 -12 34q0 9 -2 10.5t-10 2.5q-4 1 -6 1q-39 4 -52 19t-13 55q0 49 27 93q20 31 82 101
q30 34 30 35q0 3 -7 6q-26 15 -32 43q-1 7 -14 8q-29 3 -49.5 27t-20.5 54q0 24 12 41q20 30 74 62.5t96 39.5z" />
    <glyph glyph-name="three" unicode="3" horiz-adv-x="497" 
d="M244 540q-21 6 -70 6q-27 0 -41 -3q-49 -11 -66 -33q-15 -18 -15 -38q0 -30 28 -44q9 -5 22 -5q16 0 50 12q31 11 44 11q22 0 36 -10q19 -13 19 -35q0 -18 -16 -31q-16 -12 -52 -19q-33 -7 -44.5 -13t-15.5 -19q-2 -10 -2 -16q0 -33 14 -49q9 -9 45 -15q25 -3 36 -7
q47 -16 47 -61q0 -14 -6 -26q-19 -37 -55 -37q-15 0 -30 6q-11 4 -41 24q-30 21 -48 21q-6 0 -9 -1q-30 -8 -35 -49v-6q0 -51 79 -89q46 -23 104 -23q35 0 62 8q114 33 114 158v12q-4 68 -35 99q-16 16 -25 21q-12 8 -12 14q0 5 11 21q25 34 25 76q0 57 -43 100
q-21 21 -75 40zM35 506q16 32 56 49t91 17q32 0 56 -5q94 -18 131 -92q9 -18 20 -26q53 -39 56 -112v-11q0 -45 -24 -78q-8 -12 -8 -14t8 -6q4 -2 23 -21q20 -22 28 -45t9 -68v-18q0 -42 -10 -66q-31 -73 -119 -97q-20 -5 -58 -5q-35 0 -52 4q-85 18 -125 68q-10 11 -19 16
q-21 10 -41 27t-29 32q-13 22 -13 49q0 43 26 63q20 16 44 16q16 0 28 -5t39 -23q34 -22 49 -22h5q14 1 31 24l-12 3q-22 5 -30.5 15.5t-12.5 31.5q-1 9 -7 9q-24 0 -46 11q-13 7 -22 28.5t-9 45.5q0 32 16 49l9 10q-11 16 -13 27q-2 9 -3 10.5t-5 0.5h-6q-20 0 -39 14
t-25 31q-5 13 -5 27q0 18 8 36z" />
    <glyph glyph-name="four" unicode="4" horiz-adv-x="533" 
d="M205 534q-11 3 -23 3q-17 0 -25 -4q-23 -10 -37 -41q-12 -24 -40.5 -105t-34.5 -107q-7 -28 -7 -46q0 -68 69 -68q49 0 116 14q32 6 34 6q4 0 8 -4q5 -5 5 -48q0 -85 6 -123q3 -16 13 -20t41 -4q29 0 34 3q10 6 11.5 20t1.5 87q0 87 2 91t20 9q17 5 24 11t9 18t2 22
q0 19 -4 35q-6 18 -28 23q-13 3 -17.5 6.5t-9.5 15.5q-6 14 -9.5 18t-14.5 6q-14 2 -20 2q-41 0 -49 -29q-2 -9 -7 -14q-9 -10 -60 -10q-27 0 -31 4t-4 8t18 58q34 102 34 129q0 8 -1 11q-6 17 -26 23zM164 561q5 1 15 1q41 0 63 -22q14 -14 14 -38v-7q-1 -11 -0.5 -13
t5.5 -2q21 0 37 -12q18 -14 18 -41q0 -31 -7 -47q-1 -2 6 -2l20 -1q27 0 38 -6q16 -8 24 -30q3 -9 11 -11q3 -1 4 -1q36 -9 43 -49q2 -14 6 -22q3 -8 15 -10q23 -5 32 -21t9 -52q0 -29 -7.5 -41t-29.5 -19l-17 -5l-1 -90l-2 -89l-5 -9q-8 -13 -14.5 -16.5t-29.5 -3.5
q-45 0 -61 7q-13 6 -17 34l-2 18l-23 3q-38 4 -47 17q-9 14 -13 68l-3 37l-21 -2q-12 -1 -48 -1q-27 0 -39 6q-30 15 -39 49q0 1 -14 5q-45 9 -63 47q-6 13 -6 43q0 40 22 106q42 126 63 170q21 45 64 52z" />
    <glyph glyph-name="five" unicode="5" horiz-adv-x="521" 
d="M274 158q0 2 -19 2.5t-43 2.5t-33 6q-4 1 -15 8l-5 2q1 -1 9 -8q38 -34 64 -34q8 0 16 3q8 2 17 8.5t9 9.5zM187 538q-16 16 -54 16q-11 0 -18 -3q-34 -15 -42 -117q-1 -10 -1 -43q0 -85 4 -101q5 -19 24 -30q23 -13 81 -15q71 -4 95 -16q17 -9 23 -17.5t6 -28.5
q0 -26 -20 -49q-20 -20 -52 -20q-17 0 -35 7q-32 14 -49 33q-29 33 -58 33q-19 0 -34 -16q-16 -16 -16 -49q0 -20 5 -30.5t23 -29.5q60 -65 156 -69q5 0 12 -0.5t10 -0.5q16 0 31 4q96 22 128 111q10 29 10 66q0 51 -18 88q-7 15 -26 34q-21 21 -41.5 29.5t-61.5 14.5
q-46 7 -59 15q-16 10 -16 31q0 23 17 35q7 5 31 6h14q33 0 75 -3q58 -4 59 -4q14 0 18.5 3t8.5 12q6 14 6 36q0 27 -8 41q-6 10 -18.5 12t-64.5 4q-137 3 -145 11zM106 574q9 4 27 4q35 0 54 -11l14 -7q11 -5 140 -9q58 -1 71 -7q30 -13 34 -59q1 -12 3 -14t16 -4
q24 -6 32 -19.5t8 -48.5q0 -27 -3 -37.5t-13 -19.5q-8 -7 -31 -7q-45 0 -88 5l-18 2l11 -7q17 -10 35 -30.5t26 -39.5q4 -11 9 -13q24 -17 40 -42q15 -22 20.5 -45t5.5 -65q0 -43 -7 -64q-36 -111 -159 -127q-11 -2 -32 -2q-99 0 -167 70q-15 15 -36 28q-51 32 -72 73
q-10 20 -10 45q0 35 19 61t50 27h6q23 0 46 -15l11 -7l-6 10q-6 9 -8 17q-1 5 -3 6.5t-12 3.5q-27 6 -46 24q-17 16 -21 34.5t-4 78.5q0 104 13 150.5t45 60.5z" />
    <glyph glyph-name="six" unicode="6" horiz-adv-x="532" 
d="M281 144q0 1 -3.5 0.5t-8.5 -3t-8 -5.5l-3 -2l5 1q18 7 18 9zM216 233q13 4 35 4q27 0 39 -6q33 -17 33 -54q0 -11 -3 -23q-3 -10 -15.5 -22t-26.5 -18q-17 -7 -38 -7q-49 0 -72 32q-10 15 -10 31t9 31q12 22 49 32zM287 534q-8 3 -12 3q-3 0 -26 -5q-97 -27 -146 -90
q-20 -26 -36 -62.5t-20 -66.5q-7 -41 -7 -105q0 -44 4 -61q24 -117 134 -148q22 -6 54 -6t55 6q53 14 90 48.5t49 82.5q3 10 3 42q0 89 -57 136q-35 30 -83 30q-17 0 -42 -5q-33 -9 -48 -15q-26 -10 -35 -10q-6 0 -9 3t-3 9q0 13 18 41q19 32 44.5 48t71.5 24
q16 3 22.5 12.5t6.5 31.5q0 45 -28 57zM241 556q15 4 29 4q27 0 46 -18q25 -23 25 -58q0 -4 1.5 -5t6.5 -1q22 -1 36.5 -21t14.5 -50v-10q-3 -38 -31 -45q-9 -2 -9 -4q0 -1 11 -8q37 -21 60 -65q9 -17 20 -26q28 -22 46 -60.5t18 -84.5q0 -10 -2 -30q-11 -74 -64 -117
q-62 -49 -149 -49q-62 0 -108 29q-31 18 -51 44q-4 5 -13 11q-94 48 -110 169q-3 21 -3 49q0 77 15 139q18 73 70 128q50 55 141 79z" />
    <glyph glyph-name="seven" unicode="7" horiz-adv-x="551" 
d="M219 545q-51 4 -101 4q-22 0 -26 -1q-36 -8 -47 -37q-6 -15 -6 -39q0 -10 1 -13q4 -15 28 -18q101 -10 163 -24q22 -5 22 -21q0 -8 -29 -115q-51 -193 -51 -227q0 -12 3 -19q5 -17 23 -28.5t42 -11.5q17 0 25 3.5t19 14.5q15 16 31 63.5t65 225.5q21 76 25.5 86.5
t21.5 25.5q23 20 23 53q0 35 -26 48q-31 17 -206 30zM15 476q0 81 68 96q10 2 30 2q87 0 227 -15q72 -8 93 -20q16 -8 28 -25.5t14 -35.5q1 -13 8 -14q26 -7 39 -24q13 -16 13 -42v-8q-1 -27 -10 -40.5t-31 -30.5q-5 -4 -25 -77q-65 -239 -84 -282q-12 -25 -31 -38
q-20 -12 -43 -12q-32 0 -55 19q-24 20 -24 36q0 5 -10 6q-20 3 -39 16t-26 30q-6 13 -7 39v12q0 18 7 47q13 60 42 167l16 64l-21 2q-21 3 -46 6.5t-33 6.5q-19 7 -19 45v7l-25 3q-35 4 -44 14q-12 12 -12 46z" />
    <glyph glyph-name="eight" unicode="8" horiz-adv-x="537" 
d="M173 155q0 47 54 58q8 2 14 2q21 0 38 -12q22 -16 22 -44q0 -36 -32 -53q-16 -8 -37 -8q-13 0 -25 4q-34 14 -34 53zM191 455q6 3 21 3q19 0 31 -5q29 -15 29 -43q0 -22 -18 -40.5t-42 -18.5q-12 0 -21 4q-35 15 -35 48t35 52zM264 534q-22 5 -51 5h-5q-117 -16 -153 -80
q-15 -27 -15 -64q0 -58 39 -100q13 -14 13 -20t-13 -22q-34 -42 -39 -78q-2 -20 -2 -30q0 -55 24 -89q22 -33 60 -47t102 -14h21q104 3 147 46q33 32 42 91q3 18 3 33q0 43 -24 84q-7 11 -22 27.5t-26 23.5q-13 10 -13 16q0 4 8 22q17 35 17 60q0 10 -3 24q-18 92 -110 112z
M441 252q9 -17 11 -17q4 0 20.5 -19t23.5 -31q25 -40 25 -91q0 -3 -0.5 -10t-0.5 -11q-3 -40 -19 -74q-23 -47 -70 -67.5t-132 -21.5q-98 0 -139 28q-30 21 -38 39q-3 7 -17 12q-53 22 -76 77q-13 31 -13 79q0 42 6 62.5t27 48.5l14 18l-9 11q-36 43 -39 100v10
q0 137 162 164q23 4 49 4q113 0 158 -92q7 -16 17 -23q26 -17 42.5 -49.5t16.5 -69.5q0 -29 -12 -59z" />
    <glyph glyph-name="nine" unicode="9" horiz-adv-x="509" 
d="M212 423q12 2 19 2q38 0 60 -22q13 -13 13 -41q0 -23 -15 -37q-19 -16 -49 -16q-15 0 -30 5q-13 4 -25 16t-14 20q-2 12 -2 17q0 21 12 36.5t31 19.5zM380 485q-28 44 -134 47q-7 0 -16 0.5t-12 0.5q-17 0 -29 -4q-40 -10 -73 -40.5t-47 -68.5q-10 -28 -10 -57
q0 -30 15 -60.5t38 -48.5q23 -17 49.5 -24t83.5 -9q40 -2 42 -3q5 -3 5 -10q0 -16 -18 -36q-35 -40 -72 -46q-1 0 -4.5 -0.5t-5.5 -0.5q-24 0 -61 8q-19 4 -41 4q-16 0 -23 -3q-28 -12 -28 -54q0 -13 2 -19q4 -13 15 -24q26 -24 82 -36q27 -6 57 -6q23 0 45 5
q109 28 147 123q17 43 22 122q1 11 1 29q0 23 -4 75q-5 70 -9.5 94t-16.5 42zM175 551l19 6l51 -1q75 -1 111 -19q22 -11 39 -31t22 -40q3 -9 8 -11q13 -6 26.5 -20t20.5 -29q21 -42 21 -196v-24q-1 -42 -4 -61t-16 -69q-6 -22 -22.5 -48.5t-33.5 -41.5q-24 -21 -53 -34
q-46 -21 -107 -21q-34 0 -59 7q-77 19 -96 58q-6 12 -14 14q-21 6 -41 21t-27 31q-5 10 -5 37q0 28 6 40q22 42 68 42q17 0 47 -5q34 -6 51 -6q9 0 12 1q5 1 -7 8q-27 15 -46 42q-7 11 -9 11q-3 0 -17.5 7t-22.5 13q-54 40 -62 119q-1 6 -1 17q0 70 53 126q36 39 88 57z" />
    <glyph glyph-name="colon" unicode=":" horiz-adv-x="256" 
d="M110 226q-13 6 -26 6q-19 0 -32 -11t-13 -29q0 -45 47 -57q10 -2 13 -2q18 0 29.5 12.5t11.5 30.5q0 36 -30 50zM101 303q54 0 54 45q0 28 -27 41q-13 6 -34 6q-12 0 -19 -3q-26 -12 -26 -44q0 -28 21 -40q10 -5 31 -5zM24 347q0 55 50 70q9 4 21 4q9 0 23 -3
q58 -12 63 -66l1 -15q36 -8 47 -24q11 -14 11 -35q0 -39 -29 -53q-18 -8 -43 -8h-4l-10 1q6 -14 9 -31q1 -13 5 -13q21 0 39 -21.5t18 -48.5q0 -14 -6 -27q-13 -27 -48 -27h-7q-25 1 -42.5 15.5t-22.5 37.5q-1 7 -13 8q-32 5 -51.5 26t-19.5 53v7q3 33 33 51q14 8 36 8h11
q13 0 13 2l-1 4q-1 4 -1 8q0 6 -18 8q-64 9 -64 69z" />
    <glyph glyph-name="semicolon" unicode=";" horiz-adv-x="258" 
d="M120 217q-9 3 -18 3q-19 0 -33 -11t-19 -27q-1 -2 -1 -7q0 -14 16 -31l12 -14l-2 -13q-2 -20 -2 -21q0 -9 6 -15t16 -6q19 0 30 19q24 39 32 70q1 4 1 12q0 30 -38 41zM108 391q-9 4 -21 4q-33 0 -44 -24q-4 -8 -4 -19q0 -18 12 -31.5t28 -18.5q9 -3 17 -3q21 0 35 13.5
t14 31.5q0 1 -0.5 3.5t-0.5 3.5q-6 28 -36 40zM75 418q2 0 5.5 0.5t5.5 0.5q33 0 56.5 -18.5t26.5 -50.5q1 -14 5 -14q15 0 35 -18q21 -18 21 -46q0 -23 -16 -39q-17 -17 -31 -17q-7 0 -8.5 -2t2.5 -9q3 -7 5 -27q1 -13 1.5 -15t4.5 -2q18 0 37 -15q17 -14 17 -42
q0 -14 -4 -26q-16 -44 -34 -68q-14 -19 -38 -19q-35 0 -35 33q0 10 1 15q2 12 0 17.5t-10 1.5q-13 -7 -29 -7q-19 0 -30 9q-15 13 -15 37q0 8 3 17q2 7 -8 17q-17 18 -18 37v6q0 28 21 49t51 21l11 1q0 2 -5 11t-5 11q-1 5 -4 6.5t-9.5 2t-9.5 1.5q-12 2 -27 13t-22 24
q-11 16 -11 36q0 11 5 29q4 15 20 26t35 13z" />
    <glyph glyph-name="less" unicode="&#x3c;" horiz-adv-x="462" 
d="M332 429q-8 2 -18 2q-14 0 -24 -3q-28 -9 -126 -59q-100 -50 -114 -64q-11 -11 -11 -31q0 -24 14 -46q10 -13 63.5 -45.5t99.5 -53.5q69 -31 91 -31q7 0 10 1q35 12 35 45q0 12 -5 19q-13 19 -71 49q-63 34 -67 41q-1 2 -1 5v2q1 2 1 3q0 3 31 18t68 38t49 45q4 7 4 17
q0 15 -8.5 29.5t-20.5 18.5zM302 455q5 1 14 1q28 0 47 -18t22 -49l2 -15h7q24 0 37 -20q15 -21 15 -42q0 -45 -72 -84q-4 -2 -13.5 -7.5t-12.5 -6.5l-11 -7l8 -6q28 -21 31 -48l2 -13l16 -9q34 -20 40 -38q3 -9 3 -20q0 -19 -10.5 -35t-27.5 -21q-14 -4 -22 -4q-13 0 -37 8
q-86 29 -187 96q-34 22 -40 31q-7 10 -34 27q-39 25 -51.5 44.5t-12.5 55.5q0 26 13 44q11 15 121 71q116 59 153 65z" />
    <glyph glyph-name="equal" unicode="=" horiz-adv-x="468" 
d="M339 231q-14 3 -47 3h-7q-1 0 -9.5 -0.5t-26.5 -1.5t-30 -2q-113 -6 -136 -13q-15 -4 -25 -15.5t-10 -23.5q0 -11 8 -19q14 -13 56 -13q114 0 187 11q57 7 67 31q2 8 2 12q0 23 -29 31zM332 382q-6 1 -86 1h-31q-110 -6 -134 -12q-19 -4 -30.5 -15.5t-11.5 -24.5
q0 -7 3 -13q6 -13 28 -18q8 -2 27 -2q29 0 59 1q139 5 161 14q31 13 37 24q5 10 5 17q0 25 -27 28zM239 409q6 0 15 0.5t10 0.5q36 0 76 -5q26 -3 39 -29q4 -7 4 -25q0 -11 -1 -17q-1 -4 1.5 -5t15.5 -3q44 -6 44 -45q0 -22 -17 -35q-21 -17 -37 -17q-5 0 -1 -5q4 -8 4 -26
q0 -9 -2 -17q-1 -3 2 -4.5t15 -2.5q29 -4 40 -24q5 -10 5 -24q0 -10 -3 -16q-9 -18 -34 -28q-13 -5 -35 -8t-39.5 -4.5t-50 -3t-45.5 -2.5q-25 -2 -61 -2q-47 0 -64 13q-14 10 -14 32v13l-15 1q-67 6 -67 55q0 50 55 65q14 3 15 4t3 16l1 13h-12q-27 0 -47 12t-23 30
q-1 5 -1 14q0 55 70 66q65 10 154 13z" />
    <glyph glyph-name="greater" unicode="&#x3e;" horiz-adv-x="454" 
d="M115 429q-12 4 -22 4q-17 0 -32 -14q-16 -14 -16 -28q0 -3 1 -5q8 -21 76 -58q83 -46 90 -53q2 -3 2 -8.5t-3 -7.5q-1 -1 -47 -21q-89 -37 -110 -56q-15 -15 -15 -29q0 -8 4 -16q6 -16 27 -25q8 -4 17 -4q7 0 27 5q42 12 114 46.5t103 58.5q23 17 23 51q0 12 -5 27
q-5 12 -19.5 22t-76.5 43q-117 61 -138 68zM69 454q12 3 23 3q27 0 80 -26q34 -17 97 -50.5t76 -42.5q25 -17 31 -46l3 -15l14 -8q35 -20 42 -47q2 -7 2 -22q0 -29 -10 -46q-7 -12 -52 -40q-84 -50 -171 -80q-30 -9 -39 -9h-9q-22 1 -31 7q-21 13 -26 40l-3 12h-14
q-27 0 -47 21t-20 49q0 2 0.5 5t0.5 5q5 27 24 41q21 16 93 46l24 10l-11 8q-26 18 -36 32q-6 10 -19 16q-53 28 -66 56q-5 12 -5 22q0 6 2 12q5 14 19.5 28t27.5 19z" />
    <glyph glyph-name="question" unicode="?" horiz-adv-x="455" 
d="M182 78q-15 6 -27 6q-19 0 -31.5 -13.5t-15.5 -34.5q0 -2 -0.5 -5t-0.5 -4q0 -29 25 -43q8 -5 27 -5t27 5q26 13 26 50q0 11 -4 19q-7 17 -26 25zM254 521q-25 7 -53 7q-19 0 -31 -3q-37 -8 -74.5 -29.5t-48.5 -41.5q-7 -11 -7 -28q0 -22 11.5 -39t27.5 -17q4 0 21 7.5
t35.5 16.5t20.5 10q16 4 22 4q22 0 37 -13t15 -32q0 -34 -46 -47q-4 -2 -30 -8q-28 -8 -37 -28q-6 -12 -6 -38q0 -6 2 -48q2 -35 6 -39q9 -11 41 -11q39 0 43 25q5 31 13.5 41.5t40.5 21.5q35 12 51 28q31 30 42 75q4 20 4 41q0 22 -4 38q-12 40 -37.5 68t-58.5 39zM162 548
q24 3 43 3q78 0 120 -45q25 -27 35 -51q3 -10 6 -10t19 -16t23 -26q30 -41 30 -99q0 -76 -45 -121q-24 -24 -58 -35t-40 -20q-2 -3 -6.5 -25.5t-6.5 -25.5q-7 -11 -33 -16l-15 -3l1 -14q1 -14 2.5 -16.5t8.5 -4.5q22 -4 36.5 -20.5t14.5 -39.5q0 -9 -1 -14q-10 -52 -62 -56
h-9q-24 0 -39 14q-20 18 -20 36q0 7 -3.5 9t-13.5 2q-39 0 -58 38q-8 15 -8 37q0 35 19 57t51 22q14 0 16.5 0.5t2.5 4.5t-2.5 4.5t-16.5 1.5q-31 1 -49 16q-9 8 -12 19t-4 53q-1 17 -1 41q0 36 13 53l8 12q-7 12 -10 25l-1 10h-18q-26 0 -41 15q-23 23 -23 64q0 19 6 32
q13 29 59 56t82 33z" />
    <glyph glyph-name="at" unicode="@" horiz-adv-x="620" 
d="M256 205q0 -1 4.5 2.5t8.5 8t3 5.5q-2 1 -9 -6t-7 -10zM232 204q0 15 11.5 28t27.5 13h4q24 -2 30 -17q2 -7 -1 -28q-2 -19 -6.5 -25.5t-15.5 -9.5q-10 -2 -14 -2q-16 0 -26 11t-10 30zM241 52q0 2 -7 5t-14 4t-7 0q0 -2 5.5 -4.5t12.5 -4t8 -2.5t2 -0.5t0 2.5zM421 275
q-11 1 -11 -1q0 -3 -2 -15l-1 -12l8 2q15 2 17.5 3t2.5 5q0 14 -14 18zM349 423q-27 4 -57 4q-107 0 -181 -64q-54 -47 -68 -149q-3 -20 -3 -38q0 -67 30 -118.5t75 -74.5q54 -27 112 -27q29 0 57 6q40 9 55 17t15 22q0 7 -6.5 18t-12.5 15q-8 5 -22 4q-7 0 -37 -7
q-28 -7 -49 -7q-14 0 -26 3q-89 20 -108 128q-3 18 -3 35q0 48 24 92q41 74 141 83q5 1 17 1q36 0 72 -12t55 -31q31 -31 31 -81q0 -28 -12 -54q-20 -42 -55 -42q-7 0 -15 3t-8 12q0 12 5 44q10 67 10 81q0 2 -0.5 4.5t-0.5 3.5q-5 14 -24 14q-8 0 -19 -3q-13 -4 -27 -1
q-17 4 -32 4q-17 0 -40 -10q-73 -33 -73 -111q0 -50 30 -80t65 -30q23 0 48 13q12 6 17 6q3 0 21 -7q12 -6 37 -7h7q48 0 78 29q48 46 48 130v9q-4 79 -46 120.5t-125 52.5zM111 396q74 56 181 56q37 0 66 -5q121 -18 164 -103q5 -11 18 -21q65 -51 65 -147q0 -18 -3 -36
q-10 -69 -46 -107q-27 -27 -64 -34q-10 -2 -28 -2q-30 0 -56 12q-1 -5 -1 -10q0 -8 -2 -14q-1 -4 0 -4.5t9 0.5q14 0 18 -1q11 -2 21.5 -15t13.5 -28q1 -4 1 -10q0 -17 -16 -27.5t-53 -19.5q-37 -10 -73 -10q-81 0 -145 47q-16 12 -25 24q-11 14 -17 16q-22 8 -54 40
q-70 70 -70 184q0 12 2 34q9 71 39 122q7 11 25 30.5t30 28.5z" />
    <glyph glyph-name="A" unicode="A" horiz-adv-x="578" 
d="M239 322q10 4 18 -3q7 -6 19 -34t12 -39q0 -7 -6.5 -9t-34.5 -5q-13 -2 -25 -2q-7 0 -9 2q-5 3 -5 10q0 1 4 25q10 48 27 55zM284 543q-11 3 -28 3q-20 0 -31 -4q-18 -6 -25 -13t-12 -25q-58 -177 -59 -182q-32 -105 -39 -111q-5 -5 -14 -7q-22 -3 -29 -16q-6 -12 -6 -27
q0 -28 18 -52q6 -8 6 -17q0 -8 -3 -18q-2 -5 -7 -30q-2 -12 -2 -16q0 -22 22 -35q9 -6 32 -6t33 6t23 27q16 27 29 61q6 18 10 19q5 3 47 5q15 1 63 5q20 2 25 -2t25 -42q16 -32 24 -42t20 -14q9 -3 18 -3q36 0 50 19q6 8 6 22q0 22 -15 52q-16 33 -94 255q-34 99 -56 156
q-11 27 -31 32zM239 570q6 1 18 1q56 0 72 -30q2 -4 12 -30l9 -23l11 -4q21 -6 27 -15q6 -10 44 -116q8 -23 36 -100t40 -111q10 -29 23.5 -66t20.5 -55t7 -21q4 -16 4 -29t-4 -21q-17 -27 -60 -27q-24 0 -40 10q-14 9 -29 37q-7 13 -13 13q-13 0 -29 9t-25 20l-7 10l-26 -1
q-32 -2 -37 -3l-12 -1l-7 -17q-23 -56 -47 -82q-12 -12 -23 -14q-11 -3 -26 -3q-17 0 -31 4q-13 4 -24 19t-12 29q0 5 -1.5 6t-6.5 1q-46 0 -68 40q-5 10 -5 25q0 19 6 45q5 24 2 27q-16 19 -20 42q-2 12 -2 19q0 37 20 55q10 9 29 14l10 3l18 60q47 156 67 209
q2 7 5.5 15.5t4.5 13.5l2 4q0 3 7 12q20 23 60 26z" />
    <glyph glyph-name="B" unicode="B" horiz-adv-x="559" 
d="M181 234q25 11 64 11q61 -3 68 -44q0 -1 0.5 -3t0.5 -3q0 -37 -50 -60q-34 -16 -63 -16q-14 0 -16 5q-4 8 -4 58v52zM227 448q45 0 45 -38q0 -27 -14 -39.5t-43 -23.5q-18 -6 -25 -6q-9 0 -12 9q-3 8 -3 57q0 31 2 33q8 8 50 8zM305 544q-16 3 -47 3q-47 0 -101 -6.5
t-75 -15.5q-42 -20 -42 -56q0 -21 18 -42l7 -7l-1 -169q-1 -168 -5 -188t-4 -35q0 -24 24 -37q9 -4 63 -4q118 0 184 17q25 6 54.5 25t45.5 38q21 26 28 53q4 13 4 53q0 34 -4 46q-10 32 -28 51t-53 36q-20 10 -20 17q0 4 8 22q25 53 25 92q0 49 -29 78q-24 24 -52 29z
M193 570q14 1 47 1q63 0 76 -4q60 -17 85 -76q5 -12 19 -21q51 -34 51 -104q0 -32 -12 -66l-7 -19l10 -18q4 -6 6.5 -12t3.5 -9t3.5 -6t8.5 -7q23 -14 40 -42q19 -31 19 -90q0 -52 -16 -83q-14 -28 -48.5 -55t-69.5 -37q-68 -20 -199 -20q-52 0 -68 6q-25 9 -30 43l-1 10
l-17 2q-63 6 -63 68q0 17 2 26q7 39 7 171v58v125l-8 11q-16 22 -16 46q0 6 2 18q8 39 48 59q41 20 127 25z" />
    <glyph glyph-name="C" unicode="C" horiz-adv-x="551" 
d="M381 533q-21 6 -64 6q-16 0 -22 -1q-47 -7 -95.5 -31.5t-83.5 -59.5q-55 -56 -69 -128q-8 -40 -8 -79q0 -58 15 -97q33 -89 120 -132q31 -15 60 -20q20 -3 44 -3q78 0 124 24q31 16 31 57q0 48 -26 65q-17 12 -34 12q-14 0 -38 -6q-30 -6 -55 -6h-27l-16 8q-48 26 -61 79
q-3 15 -3 40t3 37q9 37 37 65q38 39 102 39q10 0 36 -2q24 -2 33 -2q54 0 64 38q2 10 2 20q0 24 -6 36q-15 29 -63 41zM288 561q6 1 29 1q52 0 67 -4q79 -18 89 -79q1 -9 15 -15q41 -19 45 -61q2 -14 2 -20q0 -45 -38 -63q-11 -4 -27 -4h-20q-31 1 -65 1q-31 0 -45 -6
q-39 -14 -61 -47t-22 -75v-10q0 -3 0.5 -6t0.5 -5.5v-4.5v-3l1 -2q1 -1 10 -1q27 0 50 5q21 5 42 7q3 0 7 0.5t6 0.5q33 0 59 -25q20 -20 24 -49q1 -10 5 -10q5 0 17 -7.5t18 -14.5q9 -9 15 -21q5 -11 5 -40q0 -31 -6 -44q-7 -15 -19 -23.5t-40 -17.5q-51 -16 -98 -16
q-107 0 -187 77q-20 18 -29 24q-91 56 -118 171q-4 19 -4 68q0 53 6 79q14 63 40 101q36 53 98.5 91t127.5 48z" />
    <glyph glyph-name="D" unicode="D" horiz-adv-x="561" 
d="M297 324q-2 0 -6 1t-7 1.5t-4 0.5h-6l-1 -30q-1 -12 -3.5 -59t-2.5 -56q7 6 15 14q24 24 32 52q2 6 2 26q0 21 -2 27q-3 14 -5.5 18t-11.5 5zM188 377v9q0 17 10 23q6 2 12 2q24 0 64 -19q66 -31 66 -118q0 -47 -29 -84q-16 -20 -36 -32t-62 -27q-20 -7 -27 -7
q-10 0 -10 8q0 14 6 129t6 116zM194 544q-24 2 -42 2q-12 0 -13 -1t-19 -5q-25 -6 -45 -18.5t-26 -25.5q-4 -10 -4 -21q0 -21 22 -40q10 -8 12 -14q2 -4 2 -28q0 -4 -2 -70q-4 -138 -8 -175.5t-13 -53.5q-19 -32 -19 -51q0 -17 12 -30q12 -14 29.5 -19t55.5 -5h16
q74 1 117.5 10.5t79.5 33.5q43 28 71.5 77t37.5 110q3 20 3 50q0 43 -6 73q-10 51 -30.5 83.5t-59.5 57.5q-31 20 -82 38t-89 22zM31 514q19 26 55.5 41.5t80.5 15.5q2 0 6.5 -0.5t11 -1.5t9.5 -1q31 -2 77 -16t82 -32q73 -37 103 -97q2 -4 21 -23q68 -64 68 -203
q0 -122 -68 -203q-31 -37 -67 -56t-92 -28q-35 -5 -94 -5q-52 0 -67 4q-48 11 -57 45q-2 7 -5 9t-15 5q-25 6 -45 26q-19 19 -19 49v7q1 23 17 48q10 16 13 45.5t7 153.5l4 113l-11 11q-26 26 -26 59q0 19 11 34z" />
    <glyph glyph-name="E" unicode="E" horiz-adv-x="533" 
d="M154 513q-20 13 -39 13q-21 0 -37 -16q-25 -25 -35 -53q-2 -5 -2 -14q0 -15 10 -30l2 -152q1 -210 8 -235q9 -32 65 -37h12q29 0 71 3q170 12 200 25q23 10 23 50q0 29 -10 40q-8 11 -32 11q-2 0 -8 -0.5t-10 -0.5q-75 -3 -179 -17q-7 -1 -12 4t-5 53q0 47 4 52
q3 4 46 10q83 10 105.5 20.5t22.5 37.5q0 15 -5 25q-7 13 -14.5 16t-37.5 3q-52 0 -73 -1q-9 0 -19.5 -0.5t-12.5 -0.5q-8 0 -10 2q-4 5 -7 57q-1 26 3 28q9 6 117 10q66 2 78 14q13 13 13 40q0 19 -3.5 26.5t-15.5 11.5q-9 3 -80 3q-59 0 -83 -3q-21 -3 -29 -3t-21 8z
M84 546q12 5 26 5q30 0 51 -13q10 -7 14 -5q3 1 3 -1t18 0q12 2 103 2q68 0 74 -1q19 -3 31 -26q5 -8 6 -32l1 -22l18 -1q18 -2 23 -5q18 -11 18 -47q0 -35 -16 -51q-13 -13 -72 -17l-20 -2l8 -14q7 -15 8 -33l1 -18l17 -2q16 -2 22 -6t12 -16q9 -18 9 -36q0 -36 -25 -47
l-57 -15l15 -1q16 0 33.5 -1.5t22.5 -5.5q26 -16 29 -58l1 -16l14 -2q20 -2 29 -10t13 -29q2 -7 2 -26q0 -22 -4 -33q-10 -25 -46 -33q-37 -8 -120 -16t-129 -8q-38 0 -54 5t-31 20q-12 12 -14 23q-2 12 -9 13q-60 12 -73 55q-6 26 -7 217l-2 167l-5 10q-6 12 -6 30
q0 15 4 24q8 22 28 46t36 32z" />
    <glyph glyph-name="F" unicode="F" horiz-adv-x="555" 
d="M222 358v21v12t1 7t1.5 4t3.5 4t4 5h77q81 0 94 3q29 7 40.5 18.5t11.5 34.5q0 38 -35 44q-25 4 -126 10t-144 6q-25 0 -44 -24q-8 -10 -10 -24.5t-4 -64.5q-3 -89 -6 -105q-2 -6 -10 -12q-24 -17 -32 -33q-5 -10 -5 -18q0 -25 35 -46l8 -5v-72q0 -63 2.5 -82t13.5 -31
q19 -22 58 -22q38 0 50 26q7 14 9 58t3.5 81.5t6.5 40.5q3 1 42 7q93 11 110 20q22 12 22 41t-22 41q-15 8 -54 8h-38h-31q-26 0 -29 3t-3 44zM128 549q3 1 24 1q91 0 244 -12q33 -3 44 -6.5t21 -14.5q17 -18 18 -46l2 -16q24 0 36 -10q23 -18 23 -51q0 -40 -30 -54
q-26 -11 -78 -14l-39 -2l10 -10q20 -18 21 -46l1 -15l12 -3q21 -4 34 -18.5t13 -36.5q0 -11 -3 -21q-8 -33 -40 -41q-23 -6 -89 -15l-46 -6l-2 -21q-1 -7 -3 -67q-4 -82 -21 -103q-12 -15 -53 -15q-29 0 -41 5q-13 5 -24.5 16.5t-14.5 22.5q0 2 -1 4.5t-2 4.5v2q0 3 -13 5
q-37 9 -56 33q-11 15 -13.5 32t-3.5 79q-2 72 -3 72q-4 0 -15.5 13t-16.5 22q-7 13 -7 29q0 15 7 30q13 24 36 40q5 4 7 77q2 70 4 86q4 23 20 43t38 27z" />
    <glyph glyph-name="G" unicode="G" horiz-adv-x="570" 
d="M257 190l-9 9q-3 0 -3 -34q0 -10 4 -12.5t24 -2.5q36 0 47 8q2 2 0 7q-1 4 -3.5 5t-16.5 1q-17 0 -25 3.5t-18 15.5zM457 481q0 49 -66 60q-16 3 -48 3q-14 0 -15 -1q-14 -2 -30 -4q-129 -15 -186 -83q-72 -86 -72 -220q0 -43 9 -82q12 -51 48 -88q48 -49 141 -62
q11 -2 48 -2q48 0 82 4q70 10 82 66q1 7 3 79l2 68l6 10q8 14 8 39q0 8 -1 12q-4 20 -24 30q-10 5 -47 5q-104 0 -128 -50q-5 -10 -5 -26q0 -25 15 -37q8 -7 22 -7q10 0 17 1t16 1q5 0 8 -1t5 -5t2.5 -8t1.5 -14l1 -17l-8 -8q-13 -13 -48 -18q-16 -2 -25 -2q-49 0 -79 33
q-30 31 -30 82v11q5 82 61 135q28 26 63.5 36t99.5 10q27 0 36 3q35 12 35 47zM289 562q35 6 66 6q54 0 82 -15q18 -10 30 -27t14 -34q1 -12 9 -14q24 -7 37.5 -26t13.5 -43q0 -26 -17 -43q-11 -12 -25 -15t-60 -5q-52 -2 -53 -3v-1h3.5h5h6.5q85 0 92 -67l2 -16l15 -5
q23 -7 33.5 -21.5t10.5 -41.5q0 -11 -4 -25.5t-8 -17.5q-3 -2 -3 -39q0 -81 -6 -115q-9 -43 -46 -60q-35 -16 -104 -16h-26q-74 2 -120.5 18t-82.5 52q-17 17 -31 25q-33 17 -59.5 52.5t-37.5 76.5q-10 39 -10 91q0 81 23 144q33 90 95 132q55 37 155 53z" />
    <glyph glyph-name="H" unicode="H" horiz-adv-x="595" 
d="M191 352q0 11 4 66t4 69q0 29 -5 39q-9 17 -30 22q-20 4 -28 4q-47 0 -58 -46q-5 -20 -21.5 -210.5t-16.5 -223.5v-23l9 -9q24 -26 61 -26q18 0 29 10q13 11 18 32t17 113q7 58 10 61t10 3q10 0 61.5 -11t53.5 -13q2 -4 2 -66v-40v-11q0 -56 7 -70q13 -25 55 -25
q20 0 32 9t16 31t7 89q3 57 6 64q3 4 17 4q29 0 38 23q5 15 5 26q0 22 -13 38.5t-32 18.5q-10 2 -12 5q-3 4 -3 99q0 97 -4 105q-12 26 -48 26h-5q-33 -2 -47 -22q-10 -15 -12 -98.5t-8 -91.5q-3 -5 -13 -5q-6 0 -36 5q-50 9 -60 13.5t-10 15.5zM108 574q10 2 23 2
q21 0 35 -3q58 -12 58 -67v-13q40 -5 54 -33q5 -10 5 -43q0 -41 -1 -52q-1 -16 -0.5 -18.5t7.5 -2.5l4 71q4 88 12 105q10 20 34 31q15 7 44 7q30 0 40 -6q32 -18 35 -58l1 -16l10 -1q40 -5 47 -41q2 -12 2 -100v-92l16 -5q40 -13 45 -58v-6q0 -28 -11 -46q-13 -20 -41 -20
h-11l-1 -11q0 -3 -0.5 -10.5t-1 -19.5t-0.5 -20q-3 -80 -13 -103q-13 -25 -27 -30q-9 -3 -23 -3q-28 0 -47 8q-28 12 -32 52l-15 1q-50 5 -63 47q-4 14 -5 69l-1 56l-11 2l-11 2q-3 -24 -7 -53q-14 -115 -22 -132q-13 -30 -44 -35q-1 0 -3 -0.5t-4 -0.5q-26 0 -56.5 16.5
t-30.5 38.5q0 3 -0.5 4.5t-3 2.5t-9.5 3q-48 13 -64 42q-5 10 -5 40q0 47 23 299q12 137 19 156q6 14 21 27t29 17z" />
    <glyph glyph-name="I" unicode="I" horiz-adv-x="274" 
d="M160 500q-4 18 -24.5 29.5t-43.5 11.5q-34 0 -47 -25q-5 -9 -5 -43q0 -10 0.5 -26t1 -45.5t0.5 -54.5q5 -305 12 -323q9 -24 41 -24q51 0 71 25l6 8v102q0 98 -4 226t-8 139zM67 563q6 2 27 2t27 -2q25 -6 42.5 -24.5t22.5 -44.5q2 -9 3.5 -11t8.5 -4q14 -5 27.5 -17.5
t17.5 -25.5q5 -17 8 -146q1 -25 3 -82t2 -74q1 -31 1 -86q0 -84 -4 -92q-20 -41 -87 -41q-24 0 -39.5 13t-17.5 35l-1 11l-18 1q-42 3 -58 39q-7 17 -11 183q-1 51 -4 213q-1 27 -1 62q0 42 7 57q12 27 44 34z" />
    <glyph glyph-name="J" unicode="J" horiz-adv-x="531" 
d="M395 535q-21 6 -46 6q-8 0 -10 -1q-21 -5 -25.5 -28t-7.5 -133q-5 -204 -29 -236q-18 -22 -49 -22q-29 0 -50 22q-15 16 -28 56q-9 29 -19.5 40t-28.5 11q-42 0 -57 -28q-5 -10 -5 -27q0 -22 6 -43q16 -60 43.5 -94t73.5 -49q31 -10 92 -10q45 0 63 5q65 20 87 102.5
t26 317.5q0 15 0.5 34.5t0.5 24.5q0 25 -3 31q-9 16 -34 21zM295 537q12 28 57 28h8q77 -3 92 -41q3 -6 3 -25v-18l13 -3q30 -6 44 -29q3 -5 3 -64q0 -123 -7 -218q-11 -141 -38 -186t-71 -60q-21 -7 -74 -7q-51 0 -82 7q-39 11 -69 33q-9 7 -21.5 20.5t-12.5 15.5
q0 3 -16 10q-72 37 -100 136q-8 30 -8 60q0 16 3 27q14 47 78 52q18 1 28 -4q35 -16 48 -62q0 -2 1 -4q3 -10 8 -12l3 -1q13 -4 25 -15.5t17 -24.5q5 -12 21 -2q17 12 24 62.5t10 194.5q2 109 13 130z" />
    <glyph glyph-name="K" unicode="K" horiz-adv-x="585" 
d="M185 530q-20 20 -50 20q-4 0 -14 -2q-28 -6 -37 -19q-10 -12 -11 -150q-2 -94 -3 -98q-2 -4 -12 -14q-18 -19 -18 -39t20 -35q11 -7 11 -12q0 -1 0.5 -7t1 -18t0.5 -21q2 -46 8 -69t21 -36t33 -17q5 -1 15 -1q32 0 46 21q7 11 10 105q1 47 2.5 56t10.5 9q6 0 24 -21
q4 -5 30 -34t42 -48q75 -87 88 -93q12 -6 27 -6q33 0 44 23q10 17 10 33q0 17 -20 48q-37 54 -128 161q-27 31 -27 37q0 5 32 38q84 88 104 126q12 25 12 37q0 5 -1 8q-4 16 -22.5 27t-38.5 11q-4 0 -14 -2q-10 -3 -22 -15q-23 -25 -63.5 -72.5t-53.5 -62.5q-27 -31 -33 -31
q-8 0 -10.5 11t-3.5 70l-2 75zM408 -21q-2 0 -12.5 4.5t-12.5 4.5q-5 -2 -56 58l-36 42l-2 -46q-1 -69 -9 -84q-6 -13 -23.5 -21.5t-38.5 -8.5q-12 0 -24 3q-33 9 -50 43l-6 13l-15 4q-39 10 -59 51q-13 27 -14 85l-2 42l-11 12q-21 21 -21 49q0 27 22 52l11 12v79
q0 151 16 172q21 29 73 29q13 0 25 -3q20 -5 34.5 -16.5t17.5 -24.5q2 -10 2 -24v-15l10 -1q18 -3 36 -17l4 -2t3 -1h1q0 7 63 72q27 28 51 32q4 1 13 1q39 0 65 -26q17 -17 18 -42q1 -16 5 -16t20 -9q26 -12 34 -36q3 -8 3 -14q0 -9 -7 -26q-19 -46 -90 -120
q-32 -34 -39 -41l-11 -11l18 -21q93 -114 124 -158.5t31 -63.5q0 -25 -15 -49q-16 -23 -51 -24h-7q-20 0 -31.5 7t-33.5 32q-20 22 -23 22z" />
    <glyph glyph-name="L" unicode="L" horiz-adv-x="546" 
d="M178 510q-5 14 -20.5 25.5t-34.5 11.5q-1 0 -4 -0.5t-5 -0.5q-30 -6 -37 -29q-6 -22 -8 -276l-1 -123l-9 -12q-17 -19 -18 -42v-7q0 -22 9.5 -33t31.5 -15q27 -5 163 -5q112 0 146 5q55 9 55 55q0 35 -27.5 47t-107.5 12h-38q-15 0 -31 -0.5t-18 -0.5q-13 0 -24 8l-4 111
q-8 240 -18 269zM107 570q12 2 17 2q31 0 54.5 -20.5t27.5 -51.5l1 -10l13 -4q25 -7 39 -36q13 -29 19 -229q2 -52 3 -58l1 -15h43q55 0 82 -6.5t45 -23.5q18 -18 19 -43l1 -14l12 -4q42 -13 46 -54v-10q0 -39 -29 -56q-31 -17 -169 -17h-57q-89 1 -115 3.5t-41 13.5
q-17 11 -20 35l-1 11l-13 1q-47 5 -61 33q-8 18 -8 39q0 39 19 61l10 11v66q0 54 2 188q1 100 3.5 124t11.5 38q15 21 45 26z" />
    <glyph glyph-name="M" unicode="M" horiz-adv-x="612" 
d="M141 531q-16 11 -31 11q-14 0 -37 -10q-19 -9 -25 -20q-8 -16 -8 -282v-105q0 -66 1.5 -77.5t10.5 -19.5q13 -13 42 -13q36 0 45 18q10 16 14 161q1 74 5 78q2 3 9 3t10 -3q1 -1 29 -39q38 -53 52 -56q6 -2 9 -2q8 0 18 10t44 49q29 34 34 36q6 2 11 -2q5 -3 6 -51
q2 -54 2 -97q0 -81 8 -96q12 -23 47 -23t49 22q4 7 4 201v195l6 8q17 22 17 45q0 22 -16 38q-15 15 -36 15q-26 0 -50 -24q-26 -24 -97 -131q-28 -44 -34 -47q-7 -2 -9 -1q-9 3 -65.5 102t-64.5 107zM596 399q0 -31 -23 -57l1 -195v-107q0 -87 -4 -94q-15 -25 -59 -28h-6
q-27 0 -44.5 14t-17.5 35v10h-11q-29 0 -49 16q-19 15 -23 49q-2 24 -2 38v16q-17 -5 -24 -5q-21 0 -50 38q-11 15 -14.5 18.5t-11.5 4.5q-11 2 -15 4h-1q-3 0 -4 -41q-4 -139 -16 -160q-15 -25 -59 -25q-18 0 -36 8q-29 13 -29 44v7l-14 1q-42 3 -60 33q-9 15 -9 96
q0 12 0.5 58.5t0.5 81.5q1 248 9 263q9 19 34 31q24 12 53 12q25 0 39 -10q14 -9 37 -50q14 -23 19 -26q1 0 3 -1q11 -6 28.5 -32.5t30.5 -50.5t15 -24q1 0 5 6q4 7 39.5 57.5t46.5 64.5q39 48 77 49h6q33 0 56 -20t23 -52q0 -6 1.5 -7.5t10.5 -3.5q22 -4 39 -31
q8 -14 8 -35z" />
    <glyph glyph-name="N" unicode="N" horiz-adv-x="579" 
d="M461 508q-9 20 -47 20q-30 0 -46 -12q-10 -7 -12 -17t-2 -48q0 -5 5 -165q0 -10 0.5 -21.5t0.5 -14.5q0 -15 -3 -18q-9 -8 -19 2q-4 4 -50 72q-110 160 -127 181q-25 32 -61 32q-41 0 -55 -30q-5 -12 -5 -18q0 -1 0.5 -6t0.5 -8q1 -26 17 -50l7 -10l2 -79q5 -290 8 -297
q12 -27 43 -33q12 -2 16 -2q31 0 50 21q12 12 12 36q0 4 -2 48q-2 56 -4 79q-3 20 -3 43q0 34 13 34q1 0 7 -2q7 -3 68 -91q74 -106 100 -130q15 -14 25 -18.5t29 -4.5q35 0 43 18q4 8 4 163q0 154 -4 214q-7 101 -11 112zM334 298q-5 155 -5 158q0 47 5 57q19 34 66 39
q5 1 15 1q28 0 49 -12q13 -9 18 -19t10 -45q1 -7 12 -8q25 -2 37 -18q14 -23 20 -237q2 -96 2 -140q0 -78 -2 -108q-2 -28 -14.5 -37t-45.5 -11q-4 0 -9.5 -0.5t-7.5 -0.5q-7 0 -20 5q-23 11 -52 46q-7 11 -11 11q-13 0 -37 20q-17 14 -62 75l-28 37q0 -10 2 -45t3 -61
l2 -57l-6 -10q-12 -19 -32 -31q-7 -4 -32 -4q-28 0 -43 5q-32 12 -37 47q-1 7 -15 8q-49 5 -64 49q-6 18 -9 241l-1 134l-9 13q-17 26 -17 60q0 33 11 50t37 28q11 5 34 5q35 0 55.5 -14.5t55.5 -64.5q13 -19 20 -24q15 -13 77 -103z" />
    <glyph glyph-name="O" unicode="O" horiz-adv-x="604" 
d="M359 300q-3 10 -9 10q-2 0 -4.5 -0.5t-6.5 -1.5l-8 -2q-40 -11 -67 -52q-22 -34 -22 -83v-9q0 -15 2 -18t13 -3q76 0 101 88q4 12 4 39q0 22 -3 32zM256 390q10 2 20 2q21 0 38 -5q33 -11 53 -43.5t20 -76.5q0 -19 -5 -42q-11 -43 -36 -70.5t-61 -34.5q-14 -2 -25 -2
q-30 0 -45 6q-28 10 -45 45q-13 26 -13 66q0 48 17 85q27 54 82 70zM311 519q-17 4 -44 4q-23 0 -39 -3q-34 -6 -73 -32q-80 -53 -106 -162q-10 -41 -10 -96q0 -58 12 -97q11 -34 38 -67t62 -53q34 -20 104 -23h13q40 0 69 10q123 45 158 207q8 38 8 73q0 79 -30 130
q-53 87 -162 109zM223 544q17 4 41 4q65 0 131 -32q20 -10 32 -18q18 -13 39 -36.5t29 -40.5q4 -8 23 -26q69 -67 69 -182q0 -59 -17 -114q-39 -139 -149 -180q-38 -14 -84 -14q-21 0 -34 1q-56 4 -102 35q-12 8 -30.5 23t-18.5 17t-17 12q-41 24 -70.5 65t-43.5 90
q-4 15 -5 64v30q0 79 21 133q25 65 72.5 109.5t113.5 59.5z" />
    <glyph glyph-name="P" unicode="P" horiz-adv-x="546" 
d="M206 420q5 5 30 4q37 -1 51 -14q16 -15 16 -39q0 -17 -5 -26q-18 -30 -65 -33q-17 -1 -22 4q-7 8 -9 63q0 6 -0.5 14t-0.5 10q0 12 5 17zM161 -10q41 0 56 16t15 50q0 3 -5 63q-3 35 -3 48q0 9 2 13t4 5t9 3q60 15 104 38q47 24 74 64t27 84q0 14 -3 28q-7 32 -32 57
q-72 72 -226 72q-27 0 -41 -1q-32 -1 -60 -10q-22 -7 -31 -17t-11 -29v-8q0 -20 15 -32q6 -6 9 -12.5t3.5 -10.5t1 -22t1.5 -31q12 -193 27 -293q6 -53 25 -65q15 -10 39 -10zM118 553q9 1 48 1q93 0 113 -4q57 -10 108.5 -41.5t67.5 -71.5q6 -15 9 -16q15 -11 38 -36
q27 -30 27 -82q0 -8 -2 -24q-8 -55 -47 -94q-41 -41 -123 -68q-38 -12 -42 -13q-5 -1 -6 -2.5t-1 -9.5q0 -16 3 -43q5 -57 5 -71q0 -24 -9 -42q-12 -25 -56 -30q-7 -1 -21 -1q-61 0 -72 53q-1 6 -9 7q-43 7 -57 29q-15 21 -22 100q-4 40 -5 43q-8 18 -18 212l-4 62l-9 9
q-18 17 -18 47q0 32 16 51q25 28 86 35z" />
    <glyph glyph-name="Q" unicode="Q" horiz-adv-x="615" 
d="M252 141q-6 12 -10 12q-2 1 -1 -4q0 -3 11 -8zM362 294q-2 11 -9 11h-2q-13 0 -39 -12q-16 -8 -16 -10q0 -1 10 -1q22 0 45 -19l14 -11l-1 15q0 15 -2 27zM257 385q11 3 22 3q59 0 92 -52q15 -23 16 -68v-18q0 -16 -3 -24q-5 -8 -9 -8h-2q-7 0 -31 20q-22 20 -35 20h-4
q-33 -3 -52 -33q-6 -9 -6 -19q0 -19 33 -58q14 -17 14 -23q0 -7 -2 -9t-12 -2q-32 0 -60 13q-56 26 -60 98v10q0 55 27.5 97t71.5 53zM382 496q-44 23 -100 23q-19 0 -27 -2q-101 -17 -155 -99q-45 -66 -56 -149q-4 -24 -4 -51q0 -122 91 -188q54 -38 119 -42q9 -1 26 -1
q46 0 90 20q20 8 22 8q3 0 24 -24q29 -34 45 -34q20 0 38.5 17.5t18.5 37.5q0 10 -5.5 19.5t-28.5 42.5q-19 26 -19 32t10 28q26 56 33 104q3 18 3 43q0 41 -6 64q-26 101 -119 151zM258 543q6 1 21 1q68 0 120 -29q30 -17 59 -45t42 -53q4 -8 22 -26q69 -69 69 -176
q0 -82 -35 -157q-10 -22 -7 -26q2 -5 22 -33q28 -40 28 -55q0 -25 -17 -44.5t-43 -24.5q-10 -2 -13 -2q-22 0 -53 38q-2 3 -5 6t-4.5 5t-3 3.5l-2.5 2.5l-1 1q-1 0 -15 -6q-43 -20 -91 -20h-18q-56 2 -85 14q-51 21 -86 57q-16 16 -27 23q-68 41 -97 108q-22 53 -22 114
q0 112 58 206q60 98 184 118z" />
    <glyph glyph-name="R" unicode="R" horiz-adv-x="588" 
d="M202 416q2 1 12 1q19 0 34 -5q35 -14 35 -44q0 -9 -5 -21q-14 -29 -61 -34q-2 0 -4.5 -0.5t-3.5 -0.5q-8 0 -10.5 8.5t-4.5 38.5v5q-1 15 -1 32q0 16 9 20zM324 496q-59 22 -181 22q-32 0 -48 -5q-54 -15 -54 -48q0 -23 25 -53l1 -130q3 -241 17 -274q11 -25 49 -25
q58 0 68 49q2 8 2 55q0 52 -2 70q-1 9 -1 21q0 14 11 20q20 8 28 2q6 -6 29 -42q86 -131 120 -154q19 -14 42 -14q22 0 39.5 14t17.5 33t-54 98q-56 83 -61 93q-17 28 -17 38q0 9 10 19q51 55 51 102q0 39 -35 73q-23 24 -57 36zM16 467q0 31 27 50t65 25q18 2 37 2
q92 0 154 -15q103 -26 130 -92q5 -14 21 -26q27 -20 42 -53q7 -17 7 -43t-6 -42q-12 -31 -45 -67l-10 -12q12 -24 76 -120q52 -77 56 -96q1 -4 1 -12q0 -33 -33 -51q-13 -7 -37 -7q-23 0 -35 5q-23 10 -45 37q-16 19 -23 21q-24 7 -50 35q-15 16 -55 71l-6 9l1 -45v-31
q0 -68 -21 -90q-20 -22 -59 -22q-12 0 -26 3q-20 5 -29.5 14t-13.5 28l-3 14l-15 2q-32 5 -48 21q-10 10 -13 18.5t-7 36.5q-7 46 -9 220l-2 147l-7 9q-19 28 -19 56z" />
    <glyph glyph-name="S" unicode="S" horiz-adv-x="486" 
d="M308 514q-18 11 -35.5 16t-28.5 6t-45 3h-13q-30 0 -56 -11q-39 -16 -64 -57.5t-25 -90.5t21 -79q15 -23 35 -34.5t74 -27.5q69 -22 87 -48q10 -14 10 -30q0 -9 -2 -14q-11 -34 -53 -37h-7q-22 0 -65 29q-19 13 -38 13q-21 0 -38 -14q-16 -13 -16 -38q0 -14 7 -28
q13 -25 39.5 -45t59.5 -29q15 -5 58 -5q37 0 50 4q102 29 121 144q2 12 2 20q0 30 -11.5 61t-30.5 50q-28 30 -105 51q-58 17 -75 31q-12 10 -12 26q0 14 10 25q17 20 50 20q25 0 53 -13q21 -10 37 -10q8 0 15 3q17 9 25 27q4 12 4 24q0 13 -4 23q-10 21 -34 35zM431 386
q0 -28 -16.5 -48.5t-44.5 -20.5q-16 0 -38 10q-33 15 -51 15q-9 0 1 -5q3 -2 7 -3q42 -13 65 -35q24 -22 37 -52q6 -11 18 -21q61 -47 61 -136q0 -46 -21 -88q-46 -94 -169 -94q-105 0 -150 63q-9 11 -24 19q-68 36 -80 93q-2 10 -2 16q0 32 20 52q24 25 59 25t61 -22
q27 -21 41 -21q20 0 32 12q6 6 6 7t-31 12q-68 22 -88 55q-6 11 -16 15q-70 29 -86 99q-6 26 -6 50q0 59 34 109q32 48 93 66q18 5 50 5q34 0 49 -3q9 -2 19 -2q1 1 16 -3q79 -24 92 -81q2 -10 17 -19q45 -26 45 -69z" />
    <glyph glyph-name="T" unicode="T" horiz-adv-x="620" 
d="M513 514q-9 32 -43 32q-9 0 -14 -1q-9 0 -58 -7q-70 -9 -185 -26t-136 -22q-21 -4 -28.5 -15t-7.5 -34q0 -36 15 -60t39 -24q11 0 101 11q20 3 24 -11q4 -19 12 -140q12 -183 22 -204q15 -28 48 -28q5 0 8 1q41 8 49 36q2 10 2 26q0 30 -4 97q-10 180 -19 232
q-2 7 3 11.5t17 6.5q124 27 147 37q12 5 14 14q1 3 1 12q0 33 -7 56zM435 567q12 2 36 2q22 0 28 -2q33 -9 41 -62q3 -16 8 -16q22 0 34 -14q21 -24 21 -74v-8q-1 -22 -4 -30t-14 -13q-19 -9 -124 -33q-35 -7 -37 -9q-1 -1 1 -17q5 -41 12 -154.5t7 -155.5q0 -28 -2 -37
t-11 -18q-15 -17 -39 -23q-10 -3 -20 -3q-23 0 -40 13t-23 35l-4 11l-14 2q-38 3 -56 36q-10 18 -14 50t-15 181l-4 47q-15 -3 -42 -3h-5q-35 5 -51 58q0 3 -13 3q-31 0 -51 26.5t-24 72.5q0 2 -0.5 6t-0.5 5q0 40 24 57q14 11 70 20q154 26 326 47z" />
    <glyph glyph-name="U" unicode="U" horiz-adv-x="555" 
d="M158 538q-6 12 -15.5 16t-30.5 4h-6q-30 0 -41 -10.5t-15 -40.5q-10 -82 -10 -202q0 -32 1 -46q3 -85 15.5 -128t42.5 -76q47 -50 117 -50q16 0 36 3q29 5 50 24q12 11 19 11q11 0 14 -14q4 -16 16 -22q18 -9 40 -9q24 0 33 10q32 34 32 380q0 54 -0.5 76.5t-3.5 39.5
t-6.5 20.5t-13.5 8.5q-11 6 -37 6t-34 -4q-14 -7 -20 -38t-15 -136q-13 -147 -24 -172q-8 -18 -19 -25t-35 -7q-44 0 -65 41q-8 17 -10.5 38t-3.5 103q-2 88 -4 146q-2 44 -7 53zM91 583q1 0 4.5 0.5t5.5 0.5q19 0 42 -5q22 -8 32 -21.5t13 -38.5l1 -16q33 -7 45.5 -19.5
t14.5 -45.5q1 -4 3.5 -125.5t2.5 -130.5q2 -2 8.5 1t10.5 7q9 9 13.5 37.5t12.5 128.5q10 125 20 163q14 46 74 46q13 0 20 -1q55 -6 62 -52q4 -24 5.5 -27t11.5 -5q36 -6 43 -38q3 -15 3 -129q0 -140 -4 -197q-9 -150 -24 -179q-7 -14 -15 -17.5t-33 -3.5q-56 0 -67 31
l-4 11q-32 -25 -59 -33q-17 -5 -49 -5q-31 0 -48 5q-37 11 -73 47q-21 21 -33 27q-67 37 -92 108q-22 66 -22 196v36q3 163 16 203q11 34 59 41z" />
    <glyph glyph-name="V" unicode="V" horiz-adv-x="659" 
d="M136 541q-8 5 -20 5q-26 0 -50.5 -24t-24.5 -55q0 -17 14 -48q3 -6 15.5 -33.5t32 -71t35.5 -79.5l69 -154l-1 -18q-1 -19 2 -27q8 -18 41 -35q19 -10 34 -10t23 6q13 8 23 23q15 22 102 174q91 156 109.5 192t18.5 53v9q0 33 -21 51q-26 24 -49 24t-39 -24
q-29 -43 -105 -177q-43 -74 -46 -76q-4 -3 -11 -1q-6 2 -38 72q-64 141 -83.5 179t-30.5 45zM16 466q0 37 22.5 64.5t55.5 36.5q11 3 24 3q14 0 21 -3q26 -10 49 -57q11 -23 19 -25q15 -5 30 -29t51 -103q20 -43 21 -43t8 13q42 76 101 172q15 25 25 35q16 16 46 16
q22 0 37 -8q33 -18 48 -45q6 -10 8 -21q2 -12 14 -18q29 -16 41 -39q5 -8 6 -33v-9q0 -30 -18 -62q-4 -6 -102.5 -178.5t-107.5 -187.5q-22 -38 -58 -38h-5q-27 2 -55 19t-32 36q-1 5 -13 10q-51 19 -64 50q-6 13 -7 36l-1 25l-69 152q-71 157 -83 185t-12 38v8z" />
    <glyph glyph-name="W" unicode="W" horiz-adv-x="769" 
d="M630 543q-13 7 -31 7q-17 0 -24 -6q-12 -10 -18 -19q-6 -11 -28.5 -121.5t-27.5 -114.5q-9 -7 -15 0q-1 1 -40 90q-43 103 -54 118q-12 17 -34 17q-24 0 -40 -19q-8 -10 -15 -24q-19 -44 -44 -160q-8 -34 -9 -35q-2 -3 -8 -3t-9 4q-3 3 -25 55q-43 105 -62 143
q-22 44 -52 44q-24 0 -39 -20.5t-15 -52.5q0 -34 17 -85q24 -72 64.5 -176t59.5 -141q16 -30 29.5 -42t32.5 -12h5q21 1 39 21q11 13 19.5 42.5t31.5 139.5q11 55 14 59t9 4.5t10 -3.5q1 -1 26 -59q72 -171 84 -183q14 -14 40 -14h3q19 3 32 19q12 15 31 79q40 137 74 319
q7 42 7 64t-5 32q-10 21 -33 33zM16 444q0 43 20 71t57 28q26 0 42.5 -12t32.5 -44q13 -26 22 -30q22 -9 43 -55l15 -28q4 18 10 38q19 72 37 96.5t55 29.5q17 2 29 -1q17 -5 28.5 -19t24.5 -43q5 -12 8 -15t11 -6q19 -7 38 -46q9 -16 11 -16q2 10 12.5 59.5t13.5 58.5
q16 58 60 64q2 0 5 0.5t5 1.5h2h1q23 0 43 -11q41 -19 49 -63q2 -13 8 -14q14 -3 28 -17t21 -31q5 -13 5 -32q0 -37 -22 -141q-48 -233 -76 -298q-13 -31 -27.5 -43.5t-38.5 -12.5h-6q-24 2 -35.5 12t-23.5 34q-7 14 -14 14q-17 0 -33 10q-22 13 -48 73l-13 29l-8 -37
q-18 -84 -28 -103q-20 -39 -65 -39q-18 0 -31 6q-19 10 -36 39q-7 13 -14 14q-26 5 -39 16q-20 17 -44 67.5t-72 177.5q-63 164 -63 218z" />
    <glyph glyph-name="X" unicode="X" horiz-adv-x="591" 
d="M395 537q-11 6 -29 7h-7q-17 0 -28 -14q-18 -21 -51 -90q-16 -35 -20 -39q-9 -9 -18 -1l-21 27q-45 63 -77 93q-19 18 -41 18q-24 0 -43 -15.5t-19 -38.5q0 -12 6 -25q17 -34 109 -134q34 -38 34 -43t-39 -57q-97 -126 -105 -154q-2 -8 -2 -13q0 -24 21 -45t40 -21
q22 0 49 27q34 33 99 128q15 22 23 22q2 0 6 -2q5 -2 33 -44q63 -95 85 -107q8 -5 23 -4q37 3 57 37q11 18 11 34q0 14 -16 38t-58 81q-17 21 -26 34q-44 59 -44 64q0 6 18 38q45 78 64 124q6 15 6 26q0 28 -40 49zM330 562q12 7 26 7q8 0 12 -1q35 -2 61.5 -23.5
t29.5 -50.5q1 -12 7 -13q7 -1 19.5 -9.5t18.5 -15.5q16 -19 16 -39q0 -10 -5 -25q-9 -30 -63 -127q-20 -35 -20 -36t49 -66q75 -100 87 -124q7 -13 7 -27q0 -32 -27.5 -59t-56.5 -27h-6q-16 2 -27 10.5t-30 32.5q-15 19 -21 19q-14 0 -33 17t-32 35l-14 17l-2 -4
q-3 -4 -8 -11t-9 -13q-36 -51 -70 -85q-35 -35 -58 -37h-4q-18 0 -38 15t-30 36q-4 8 -12 9q-20 4 -39.5 19t-29.5 36q-8 16 -8 39q0 7 1 11q7 36 118 179l22 29q-16 21 -40 46q-88 95 -101 131q-4 9 -4 27q0 15 7 29q14 28 44 43q13 6 35 6q19 0 29 -3.5t24 -15.5
q25 -21 73 -83q18 -24 20 -24t18 31q42 83 64 95z" />
    <glyph glyph-name="Y" unicode="Y" horiz-adv-x="539" 
d="M129 531q-12 12 -27 12q-13 0 -28 -7q-33 -18 -33 -44q0 -14 7 -29q6 -13 64 -108q60 -97 60 -98q2 -4 2 -21q0 -4 -0.5 -16t-0.5 -21q-3 -71 -3 -124q0 -46 3 -52q11 -30 66 -30q39 0 52 17q11 13 19 169l2 56l40 65q55 92 69.5 121t18.5 53q0 2 0.5 4t0.5 4
q0 44 -67 44q-24 0 -33.5 -6t-15.5 -26l-9 -27q-6 -15 -28 -62t-25 -52q-6 -10 -17 -3q-6 6 -38 58q-72 115 -79 123zM16 492q0 24 20.5 45.5t44.5 28.5q8 2 16 2q12 0 26 -4q13 -4 21.5 -13.5t25.5 -35.5q20 -31 30 -37t47 -63l11 -17l10 24q29 63 34 79q7 21 15 30.5
t25 14.5q15 5 34 5q16 0 29 -3q60 -14 60 -66v-8.5t0.5 -4.5t2 -2.5t3.5 -0.5q39 -8 48 -27q5 -10 5 -28q0 -21 -7 -42q-12 -33 -97 -172l-23 -38l-3 -52q-5 -117 -12 -151q-3 -16 -9 -25q-18 -24 -64 -24q-12 0 -18 1q-56 8 -62 50q-1 7 -3.5 9t-15.5 3q-41 5 -59 44
q-5 12 -5 69q0 49 2 109l1 55l-40 65q-71 116 -82 137t-11 43z" />
    <glyph glyph-name="Z" unicode="Z" horiz-adv-x="536" 
d="M282 109h-31q-44 0 -44 15q0 2 83 139.5t98 159.5q7 11 19 18q28 16 28 56q0 34 -18 42q-9 4 -60 4q-71 0 -105 -3q-161 -11 -174 -21q-22 -17 -22 -53q0 -30 19 -43l10 -7h83q84 0 87 -4q3 -3 3 -7q0 -5 -12 -23q-69 -99 -171 -253q-23 -34 -28.5 -46t-5.5 -25
q0 -44 31 -59q10 -6 66 -7h16q167 0 230 9q26 4 37 16t11 36q0 34 -20 47q-7 5 -44 7q-40 2 -86 2zM469 484q28 0 39.5 -14.5t11.5 -45.5q0 -44 -32 -65q-9 -6 -17 -17t-48 -76q-13 -21 -27.5 -44.5t-26 -42.5t-13.5 -22l-14 -23l11 -1q57 -3 67 -8q32 -16 36 -61
q1 -12 3 -13.5t16 -3.5q16 -2 29.5 -22.5t13.5 -43.5v-7q-6 -46 -47 -55q-17 -4 -106 -8t-148 -4q-67 0 -82 8q-23 12 -35 51q-7 2 -15 3q-29 4 -49.5 27.5t-20.5 57.5q0 18 5 33q6 17 126 193l36 52l-18 1q-18 1 -26 8q-19 16 -23 36l-2 13l-19 2q-29 1 -46 22t-17 51
q0 7 2 21q11 55 61 64q61 11 224 18q7 0 20 0.5t18 0.5q46 0 66.5 -6.5t29.5 -24.5q9 -16 9 -43v-11h8z" />
    <glyph glyph-name="bracketleft" unicode="[" horiz-adv-x="355" 
d="M167 572q-23 4 -71 4q-20 0 -23 -1q-22 -8 -28.5 -32t-6.5 -69q0 -58 7 -242.5t10 -208.5q4 -26 14 -37t33 -14q6 -1 21 -1q34 0 71.5 7.5t48.5 16.5q12 10 12 29t-12 31q-16 18 -54 19h-17l-10 1q-9 1 -9 30l-6 190l-6 172q11 8 29 9q33 1 48 14q16 13 16 37q0 11 -5 19
q-13 18 -62 26zM236 90q43 -19 43 -63q0 -12 4 -12q20 0 38 -18q18 -17 18 -43q0 -40 -37 -51q-49 -16 -108 -16q-39 0 -54 8q-18 9 -27 50l-16 3q-25 4 -36.5 10.5t-19.5 22.5q-11 22 -15 103q-11 207 -11 366q0 85 4 97q8 26 23 39t40 16q1 0 5 0.5t7 0.5q59 0 109 -13
q55 -16 55 -69v-9l18 -6q23 -8 31 -18.5t9 -34.5v-9q0 -19 -15 -33q-19 -16 -53 -20l-23 -2l2 -18q1 -20 5 -134t4 -130v-17z" />
    <glyph glyph-name="backslash" unicode="\" horiz-adv-x="457" 
d="M95 548q-4 2 -11 2q-6 0 -20 -6q-24 -13 -24 -42q0 -19 17 -59q21 -49 103 -216t99 -196q22 -39 45 -39q12 0 29 8.5t21 16.5q2 3 2 15q0 17 -4 29q-3 12 -17 41q-34 75 -106.5 223.5t-83.5 166.5q-30 47 -50 56zM64 571q9 3 21 3q13 0 25 -5q24 -11 57 -66q8 -14 15 -19
q21 -14 45 -55q14 -22 92 -182t106 -224q16 -35 16 -61q0 -18 -6.5 -28t-25.5 -18q-17 -8 -36 -8q-8 0 -11 1q-23 7 -43 42l-10 17h-10q-27 0 -53 36q-17 25 -113 221t-111 238q-7 20 -7 38q0 26 13.5 44.5t35.5 25.5z" />
    <glyph glyph-name="bracketright" unicode="]" horiz-adv-x="355" 
d="M220 575q-10 2 -27 2q-44 0 -75 -7q-33 -7 -46 -16t-13 -27q0 -1 0.5 -4.5t0.5 -5.5q2 -19 20 -31q10 -7 44 -11q28 -3 28 -14q0 -24 -6 -201t-9 -181q-2 -4 -28 -5q-41 -1 -59 -19q-11 -13 -11 -30q0 -24 17 -35q31 -18 110 -18q47 0 59 11.5t15 58.5q15 216 15 433v13
q-1 46 -7 59q-11 24 -28 28zM142 599q9 1 51 1q31 0 40 -2.5t21 -15.5q19 -19 23 -45q0 -3 1 -7t2 -6v-3q0 -3 8 -3q14 0 28 -13q19 -18 22 -65q1 -11 1 -51q0 -126 -10 -342q-4 -79 -7.5 -104t-14.5 -39q-8 -10 -21.5 -13t-49.5 -3q-53 0 -93 11q-23 6 -33 15t-13 26l-2 12
q-9 3 -19 5q-46 12 -57 38q-4 9 -4 28q0 20 5 32q17 36 78 42l17 2l1 14q0 26 5 158l5 144l-5 16l-6 18q0 3 -8 3q-20 0 -41 14q-31 21 -31 60q0 33 24 49.5t83 23.5z" />
    <glyph glyph-name="asciicircum" unicode="^" horiz-adv-x="463" 
d="M238 594q-12 6 -32 6q-9 0 -13 -1q-18 -5 -28 -18t-55 -90q-58 -101 -67 -126q-4 -9 -4 -21q0 -19 15 -34q14 -14 24 -14q13 0 29 19t44 66q2 4 9 15t13 20.5t10 16.5q13 19 16.5 23t8.5 4q8 0 10 -2q1 -1 18 -47q29 -80 49 -111q10 -17 29 -18h4q18 0 31.5 15.5
t13.5 35.5q0 26 -29 97t-63 131q-14 25 -33 33zM149 211q-16 0 -34 19t-18 36v8l-15 -1q-14 -1 -26 5q-15 8 -27.5 24t-14.5 33v6q0 33 57 132q6 11 21.5 37.5t17.5 30.5q27 47 39.5 61.5t32.5 19.5q6 2 31 2q30 -1 48 -13.5t37 -46.5q15 -26 22 -30q24 -12 65 -94
q23 -46 42 -99t21 -77v-7q0 -26 -15 -42t-42 -17h-7q-18 0 -29 9.5t-22 34.5l-7 16h-11q-37 0 -61 46l-9 18l-12 -20q-53 -91 -84 -91z" />
    <glyph glyph-name="underscore" unicode="_" horiz-adv-x="463" 
d="M304 67q-30 5 -103 5q-86 0 -124 -7q-15 -2 -28.5 -13.5t-13.5 -24.5q0 -9 8 -17q29 -29 209 -29q59 0 75 4q38 11 38 40q0 21 -11.5 29t-49.5 13zM133 95q17 1 60 1q82 0 120 -5q37 -5 52.5 -14t20.5 -27q4 -16 4 -25q0 -7 -2 -13q-1 -5 4 -5q10 0 22 -4q24 -6 32 -27
q3 -8 3 -21q0 -20 -6 -29q-9 -13 -35 -23q-13 -5 -93 -5q-113 0 -159 9q-62 12 -62 43v9q0 5 -2 7t-10 2.5t-11 1.5q-36 9 -52 30q-6 8 -6 25q0 42 40 59q15 7 80 11z" />
    <glyph glyph-name="grave" unicode="`" horiz-adv-x="260" 
d="M81 602q-11 6 -23 -3q-19 -14 -19 -33q0 -27 38 -70q34 -38 51 -38q2 0 5 0.5t4 0.5q21 3 21 21q0 17 -36 73q-27 41 -41 49zM57 627q10 2 14 2q33 0 76 -68q13 -19 18 -23q16 -12 40 -49q35 -53 38 -80l2 -14l-9 -8q-13 -13 -36 -13q-14 0 -25 6q-16 9 -47 46
q-7 9 -12 9q-12 0 -29 15q-15 12 -37 38.5t-28 39.5q-8 19 -8 35q0 21 11 37q16 23 32 27z" />
    <glyph glyph-name="a" unicode="a" horiz-adv-x="508" 
d="M156 127q0 22 38 22h11q47 -1 47 -30q0 -11 -4.5 -14.5t-19.5 -5.5q-8 -1 -24 -1q-48 0 -48 29zM163 255l1 1q-2 0 -1 -1zM287 360q-13 4 -52 4h-16q-33 0 -65 -12q-25 -10 -33.5 -17.5t-8.5 -20.5t8.5 -23t22.5 -12q8 -2 30 3q20 4 37 4t26 -5q24 -13 28 -35
q3 -13 0 -17q-3 -6 -16 -6t-38 4q-21 3 -39 3q-87 0 -117 -50q-14 -25 -14 -56q0 -30 14 -49q37 -50 109 -55h9q26 0 59 9l18 4l12 -9q21 -16 49 -16q33 0 41 12q10 15 15 70q2 23 15 29q26 11 26 32q0 6 -1 9q-1 11 -31 33l-2 24q-5 67 -25 100t-61 43zM97 345
q13 20 52 32.5t85 12.5q24 0 51 -5q48 -10 74 -39q7 -7 16 -24.5t9 -22.5q0 -4 6 -6q60 -27 68 -143l1 -22q25 -15 31 -34q2 -5 2 -15q0 -26 -30 -41q-10 -5 -10 -8q0 -7 -7.5 -43.5t-9.5 -41.5q-10 -21 -56 -21h-7q-33 1 -55 23l-16 -4q-27 -7 -55 -7q-58 0 -97 28
q-31 20 -38 37q-2 5 -17 12q-79 40 -79 110q0 23 11 54q16 40 55 60q28 15 50 15q12 0 0 5l-4 1q-23 6 -32 27q-7 14 -7 29q0 18 9 31z" />
    <glyph glyph-name="b" unicode="b" horiz-adv-x="480" 
d="M181 205v23q0 13 2.5 15t17.5 6q7 2 18 2q41 0 41 -40v-6q-2 -23 -14.5 -33t-39.5 -10q-19 0 -22 5.5t-3 37.5zM136 562q-10 5 -23 5q-42 0 -60 -23q-6 -8 -6 -18q0 -8 3 -28q5 -32 6 -39q4 -32 11 -223q2 -50 3 -56l1 -13l-11 -12q-20 -20 -20 -44q0 -20 19 -35
q12 -9 18 -27q7 -26 32 -35q5 -2 15 -2q26 0 38 14q4 4 11 4q3 0 23 -4q26 -6 47 -6q52 0 89 37q18 18 26 35q21 45 21 104q0 91 -43 140q-34 39 -94 39q-23 0 -44 -4q-25 -5 -28 4q-1 2 -5 59q-4 75 -9.5 97t-19.5 31zM81 588q6 2 25 2q27 0 37 -5q22 -11 32 -31
q11 -33 11 -43q11 0 31 -10q31 -20 31 -98q0 -4 16 -5q55 -4 89 -43q23 -25 31 -49q2 -7 9 -9q7 -3 21 -18.5t22 -29.5q24 -43 28 -117v-12q0 -71 -32 -122q-42 -64 -121 -64q-25 0 -49 7l-18 5q-18 -13 -25 -15q-9 -3 -25 -3q-15 0 -24 3q-24 9 -35 44l-4 12l-15 1
q-44 3 -61 50q-4 9 -16 21q-24 23 -24 52q0 6 2 16q5 28 21 42l8 7l-2 38q-7 176 -12 235q-1 10 -4.5 37t-3.5 42q0 16 6 27q16 23 51 33z" />
    <glyph glyph-name="c" unicode="c" horiz-adv-x="478" 
d="M334 321q-16 41 -95 41q-11 0 -31 -2q-49 -10 -88.5 -36.5t-60.5 -61.5q-21 -34 -21 -86q0 -41 13 -68q21 -46 65 -72q46 -28 103 -28q48 0 91 20q68 32 68 79q0 16 -8 29q-8 12 -21.5 22.5t-23.5 10.5q-6 0 -32 -14q-51 -27 -78 -27q-9 0 -14 1q-48 7 -48 58q0 26 18 47
q23 24 56 24q12 0 18 -1q24 -3 37 -3t22 3q22 7 30 26q3 7 3 19q0 13 -3 19zM60 304q78 83 198 83q44 -3 71.5 -23.5t32.5 -52.5l1 -12l13 -6q23 -8 34 -25q12 -18 12 -38q0 -36 -33 -53l-14 -6l8 -9q15 -19 19 -42q1 -11 9 -13t20.5 -13t20.5 -22q9 -12 10 -28t-2 -29
q-11 -36 -61.5 -63.5t-109.5 -27.5q-19 0 -37 3q-77 14 -116 62q-12 13 -25 20q-67 35 -90 112q-5 19 -5 56q0 41 6 59q12 39 38 68z" />
    <glyph glyph-name="d" unicode="d" horiz-adv-x="473" 
d="M159 208q4 48 40 48q8 0 26.5 -4t20.5 -6q3 -3 3 -17q0 -3 -0.5 -12.5t-0.5 -16.5q0 -42 -3 -45t-31 -3q-16 0 -26 2q-29 10 -29 48v6zM351 572q-9 6 -31 6q-25 0 -39 -7q-22 -12 -24 -94q-3 -109 -8 -113q-6 -3 -16 -1q-14 2 -37 4q-7 1 -21 1q-106 0 -130 -119
q-4 -16 -4 -32q0 -3 0.5 -10.5t0.5 -12.5q3 -93 57 -147q32 -32 79 -32q28 0 58 10q8 2 10 2q7 0 20 -7q16 -8 41 -8q23 0 34 7q15 11 18 38q4 31 10 286q4 122 4 137q0 49 -4.5 66.5t-17.5 25.5zM284 599q13 3 29 3q37 0 56 -11q20 -13 26 -56l3 -16h10q29 0 41 -28
q8 -19 8 -86q0 -47 -3 -131q-1 -24 -3.5 -86.5t-2.5 -85.5q-4 -125 -12 -144q-9 -19 -18.5 -24t-39.5 -5q-29 0 -45 7l-14 6l-20 -5q-22 -6 -54 -6q-24 0 -35 4q-39 14 -68 51q-9 11 -24 17q-33 13 -60 54t-37 92q-5 28 -5 53q0 84 37 133t97 56q6 1 20 1q32 0 60 -4l2 47
q3 104 9 122q11 36 43 42z" />
    <glyph glyph-name="e" unicode="e" horiz-adv-x="513" 
d="M219 296q8 3 16 3q17 0 32 -13q8 -8 8 -15q0 -10 -9.5 -15t-37.5 -12q-17 -4 -25 -4q-5 0 -8 3t-3 13t3 18q7 17 24 22zM285 353q-17 5 -52 5q-14 0 -19 -1q-56 -9 -93 -45q-25 -23 -35 -70l-4 -18l-15 -7q-26 -13 -26 -39v-6q1 -16 9 -29t19 -16q4 -1 6.5 -3.5t3.5 -5
t3.5 -8t4.5 -9.5q20 -41 64 -64.5t102 -23.5q92 0 139 49q19 19 19 39q0 9 -3 16t-13 18t-17 14t-12 3q-10 0 -38 -17q-7 -4 -15.5 -9t-11.5 -7t-9.5 -4t-13.5 -2.5t-19 -0.5q-22 0 -35 7q-20 10 -20 23q0 3 2 7q3 3 33 10q48 11 93 27q24 9 33.5 17t9.5 22q0 13 -4 26
q-19 82 -86 102zM86 310q19 31 62.5 52t92.5 21q34 0 67 -12q20 -7 39 -25.5t30 -41.5q9 -18 21 -26q23 -16 40 -49.5t20 -68.5v-9q0 -20 -14 -31q-8 -7 -7 -16q1 -10 6 -10q17 0 35.5 -22t18.5 -41q0 -24 -25 -49q-28 -28 -57.5 -38.5t-80.5 -12.5h-22q-38 0 -69 11
q-29 10 -47.5 22.5t-41.5 38.5q-10 10 -24 17q-47 26 -69 76q-4 9 -7 9q-2 0 -13 9q-25 23 -25 62q0 6 2 16q8 33 35 46q9 4 10 14q4 28 23 58z" />
    <glyph glyph-name="f" unicode="f" horiz-adv-x="451" 
d="M346 469q-9 24 -35.5 40t-62.5 16h-16q-19 0 -37 -6q-57 -18 -74 -69q-4 -12 -7 -58q-2 -43 -6 -47q-5 -5 -23 -8q-29 -7 -40 -22q-5 -7 -5 -22t5 -27q7 -16 15 -20t28 -5q21 -1 24 -5q1 -1 1 -33q0 -37 -1 -65q-3 -78 -3 -112q1 -29 15 -37q13 -8 44 -8q10 0 14 1
q21 4 29 18q5 7 6 73q0 13 1 57.5t2 60.5q1 49 5 56t31 14q33 8 46 18q16 13 16 41q0 23 -12 32q-5 4 -27 4.5t-40 3t-18 11.5q0 1 1 3q0 14 4.5 31.5t10.5 20.5q6 2 9 2q9 0 30 -9q19 -9 30 -9q10 0 20 6q23 12 23 36q0 8 -3 17zM219 551q5 1 16 1q48 0 82 -18
q19 -10 35 -28.5t20 -36.5q2 -10 14 -17q5 -2 23 -18q26 -24 26 -53q0 -33 -30 -48q-16 -7 -33 -7q-12 0 -18 3l-9 3q-1 -8 -1 -16l-1 -15l15 -1q24 -1 33.5 -14t9.5 -41q0 -23 -8 -35q-9 -13 -22.5 -19.5t-45.5 -14.5q-14 -3 -17 -8q-1 -2 -6 -117t-5 -119q-4 -21 -21 -28
q-14 -7 -41 -7q-31 0 -49 9q-15 8 -18 36l-1 14l-18 2q-32 2 -46.5 14t-17.5 40v10q0 91 5 171l1 23h-12q-34 0 -52 30q-11 20 -11 45q0 19 6 32q14 30 58 38q8 1 8 6q0 63 8 87q10 34 39.5 60t67.5 33q3 1 9 2.5t7 1.5z" />
    <glyph glyph-name="g" unicode="g" horiz-adv-x="457" 
d="M159 233q19 22 59 22q17 0 21 -3t4 -18v-12q-3 -61 -4 -65q-1 -3 -14 -9t-24 -8q-4 -1 -11 -1q-23 0 -33 19q-7 11 -7 35q0 29 9 40zM334 379q-7 3 -22 3q-28 0 -49 -8q-15 -5 -27 -5h-9h-46q-27 0 -45 -6q-47 -17 -71 -63q-23 -42 -23 -104q0 -97 48 -145q29 -29 85 -29
q19 0 42 5q21 6 27 2q8 -4 8 -23q0 -15 -1 -25q-2 -47 -18 -61q-14 -13 -43 -13q-15 0 -30 6q-9 5 -14 10t-25 32q-17 22 -38 22q-26 0 -38 -16q-5 -6 -5 -20q0 -26 20 -60t46 -52q33 -22 83 -23h9q66 0 108 27.5t49 79.5q2 16 2 51q0 59 -5 154q-3 48 -3 148v90l-6 10
q-6 11 -9 13zM281 405q5 1 21 1q35 0 42 -4q29 -16 29 -56q0 -20 1 -20h1q1 0 3 -0.5t4 -0.5t5 -0.5t5 -0.5q24 -2 34 -21l6 -11l1 -105q0 -83 3 -143q5 -72 5 -154q0 -30 -1 -38q-1 -29 -8 -45q-39 -86 -161 -86q-64 0 -103 27q-10 7 -25.5 22.5t-15.5 18.5q0 2 -9 6
q-38 17 -70 58t-32 87q0 29 17.5 45.5t48.5 16.5q21 0 35.5 -9.5t31.5 -33.5q13 -18 18.5 -22t18.5 -5h6q9 0 25 6l-12 3q-43 10 -70 48q-9 14 -21 18q-26 10 -44 30q-53 58 -53 157q0 38 8 69q24 102 113 126q20 5 55 5q19 0 28 -1q5 -1 11 -1q5 0 22 5q19 7 27 8z" />
    <glyph glyph-name="h" unicode="h" horiz-adv-x="506" 
d="M166 557q-12 5 -39 5q-9 0 -11 -1q-13 -5 -18.5 -28.5t-8.5 -84.5q-5 -108 -8 -116q-1 -4 -11 -9q-29 -13 -29 -46v-7q3 -33 24 -56q10 -10 12 -19t4 -61q3 -67 6.5 -88t12.5 -29q16 -13 43 -13q15 0 23 6q10 7 13 29t6 101q2 71 9 77q2 2 25 8q15 3 27 3q22 0 33 -8
q20 -15 20 -80q0 -100 18 -119q13 -16 47 -16q21 0 31 10q10 11 10 102q0 148 -22 189q-27 52 -96 52q-29 0 -65 -9q-20 -5 -24 -5q-7 0 -10 5q-1 2 -3 85q-2 80 -4.5 99t-14.5 24zM107 584q8 2 20 2h12q39 -1 53 -18t17 -64h4q4 -1 10 -1.5t12.5 -2t12.5 -5t9 -8.5
q10 -14 11 -56q0 -25 2 -37l1 -11l25 -2q45 -3 69 -18q16 -10 30 -28.5t19 -35.5q3 -10 9 -13q46 -26 56 -76q11 -50 11 -173q0 -28 -2 -60q-3 -34 -11 -44t-35 -11h-11q-29 0 -44 10.5t-22 34.5l-4 13l-13 2q-41 5 -57 32t-16 92v11.5v8.5t-1 6v2l-4 -70q-5 -110 -11 -121
q-10 -22 -47 -22q-29 0 -49 14q-14 9 -17 33l-2 12l-11 1q-23 2 -42 13.5t-25 28.5q-5 20 -10 107l-3 59l-7 8q-24 25 -29 61q-2 14 -2 20q0 42 36 63l8 5l1 21q1 16 3 53.5t4 60.5q5 53 13 75t27 28z" />
    <glyph glyph-name="i" unicode="i" horiz-adv-x="256" 
d="M122 356q-8 4 -23 4q-15 1 -27 -5q-28 -15 -28 -67q0 -9 2 -39q1 -14 3 -127q2 -101 7 -109q2 -4 13 -8q8 -4 31 -4q26 0 36 5q12 6 16.5 19t4.5 45v14q-2 125 -14 215q-7 49 -21 57zM117 520q-8 5 -25 5h-5q-22 0 -34.5 -16t-12.5 -39q0 -2 0.5 -5t0.5 -4q4 -39 43 -45
q4 -1 10 -1q25 0 42 15.5t17 36.5q0 9 -5 21q-9 20 -31 32zM22 435q-7 18 -7 37q0 33 21 55.5t52 22.5q35 0 60 -21.5t29 -51.5q1 -12 5 -12q5 0 18.5 -7.5t18.5 -14.5q17 -20 17 -48q0 -20 -4 -27q-17 -32 -56 -36l-12 -2l2 -13q1 -13 2 -13.5t15 -2.5q25 -4 33.5 -23
t15.5 -84q8 -83 8 -175q0 -52 -2 -66t-12 -23q-14 -12 -56 -12q-31 0 -41 5q-20 10 -21 38l-1 15l-20 1q-48 3 -59 36q-1 3 -2.5 65.5t-3 127.5t-1.5 71v18q0 34 9 53q7 16 23 26t34 10q12 0 12 3t-14 4q-49 5 -63 44z" />
    <glyph glyph-name="j" unicode="j" horiz-adv-x="381" 
d="M260 352q-13 4 -28 4q-30 0 -40 -19q-15 -27 -15 -202q0 -184 -11 -219q-9 -29 -37 -34q-3 -1 -7 -1q-6 0 -24 7q-20 7 -32 7q-9 0 -15 -3q-9 -3 -16.5 -14t-7.5 -23q0 -7 3 -13q9 -18 45.5 -34.5t74.5 -16.5q20 0 38 6q43 15 69 52q18 25 21 54t5 171q0 46 0.5 97.5
t1 79.5t0.5 44q0 32 -1 35q-5 17 -24 22zM259 520q-12 2 -16 2q-35 0 -46 -28q-3 -7 -3 -20q0 -18 4 -27q5 -12 21 -22t32 -10q18 0 28 13q14 17 14 42q0 42 -34 50zM253 380q-5 11 -9 12q-22 0 -41 12q-34 22 -34 68q0 31 19 53q17 20 54 20q23 0 45 -11q13 -7 22 -24.5
t9 -35.5q0 -10 6 -11q40 -8 50 -36q4 -9 4 -27q0 -22 -7 -36q-15 -34 -45 -34h-5l-13 2l3 -16l2 -16l18 -5q16 -4 22 -8.5t12 -15.5q5 -9 5 -50q0 -15 -0.5 -41t-1 -74.5t-0.5 -94.5q-1 -141 -3.5 -169.5t-14.5 -54.5q-13 -30 -48 -53.5t-65 -23.5q-10 0 -16.5 -1.5
t-9.5 -1.5q-9 0 -18 2q-50 9 -83 33q-8 6 -16 16.5t-8 15.5q0 4 -11 7q-19 6 -37.5 19.5t-26.5 27.5q-7 12 -7 28q0 28 19 45.5t47 17.5q20 0 37 -8q17 -7 25 -2q11 8 14.5 38t5.5 151q3 169 8 212t25 57t45 14h6z" />
    <glyph glyph-name="k" unicode="k" horiz-adv-x="484" 
d="M199 81v20q0 19 11 19h1q5 0 8 -3.5t19 -26.5q10 -14 16 -23q25 -37 39 -49t36 -13h6q22 0 35 14.5t13 41.5q0 17 -3.5 25.5t-20.5 29.5q-19 25 -42 61t-23 43q0 3 23 29q52 58 52 81q0 9 -5 19q-7 16 -21 26t-27 10h-4q-22 -3 -63 -35q-31 -25 -41 -25q-5 0 -10 5
q-6 6 -15 138q-4 53 -7.5 68t-13.5 22q-15 11 -38 11q-2 0 -5 -0.5t-4 -0.5q-20 -4 -26 -46q-6 -37 -10 -214l-1 -58l-18 -17q-17 -17 -19 -25q-1 -3 -1 -10q0 -24 24 -41q10 -7 11.5 -14t3.5 -49q2 -57 16 -72q12 -15 44 -15h8q34 1 44 19q8 15 8 55zM103 591q10 2 21 2
q16 0 28 -3q46 -12 52 -68q1 -12 6 -12q32 0 47 -31q6 -11 8 -39q1 -13 2.5 -27.5t1.5 -17.5l13 7q14 7 34 7q30 0 49 -19q21 -21 31 -60q0 -3 10 -5q10 -3 22 -15q25 -25 25 -53q0 -12 -4 -20q-14 -29 -48 -66l-22 -24l18 -30q20 -33 36 -53q22 -28 27 -37t7 -22
q1 -5 1 -14q0 -10 -2 -17q-10 -53 -61 -53q-43 0 -72 40q-10 15 -14 18t-13 5q-11 3 -17 7q-4 3 -5 -2q0 -3 -2 -13q-4 -26 -15 -37.5t-38 -15.5q-14 -2 -19 -2q-46 0 -63 33q-6 11 -6 20v7l-18 2q-28 4 -43 20t-19.5 36t-6.5 60l-1 33l-12 11q-25 24 -25 55q0 29 23 51
l14 13l4 106q5 154 8 168q5 28 20 42q11 11 18 13z" />
    <glyph glyph-name="l" unicode="l" horiz-adv-x="267" 
d="M163 540q-8 25 -41 25q-5 0 -17 -2q-11 -3 -20.5 -18t-13.5 -35q-4 -18 -18 -275q-6 -91 -6 -94q-5 -55 -5 -79q0 -16 2 -22q9 -27 46 -34q14 -3 25 -3q35 0 42 39q3 15 8 309q2 100 2 117q0 56 -4 72zM102 587q12 2 18 2q20 0 37.5 -8.5t24.5 -21.5q9 -18 9 -43
q0 -6 1 -7t9 -2q20 -3 28.5 -8t14.5 -18q5 -10 6 -51q0 -5 0.5 -21.5t0.5 -27.5q0 -10 -0.5 -30t-0.5 -29q-3 -96 -4 -196q-2 -146 -10 -174q-6 -21 -21 -29q-8 -4 -26 -4q-48 0 -71 18q-14 12 -18 34q-1 6 -3 7t-15 4q-35 7 -50.5 26.5t-15.5 56.5q0 8 2 32q5 35 12 149
q4 91 14 235q7 93 58 106z" />
    <glyph glyph-name="m" unicode="m" horiz-adv-x="633" 
d="M107 374q-9 3 -19 3q-28 0 -39 -13q-6 -7 -7.5 -18t-1.5 -61v-88l1 -146l5 -10q10 -18 41 -19h13q40 0 45 22q1 4 4.5 88t4.5 88q6 28 32 28h6q11 -2 20.5 -11.5t13.5 -23.5q9 -25 9 -81q0 -4 -0.5 -13.5t-0.5 -14.5q-1 -13 -1 -32q0 -27 10 -38q16 -17 55 -17
q33 0 41 13q7 11 14 94q8 98 22 117q7 10 20 10q20 0 26 -20q3 -8 3 -87q0 -48 -1 -69v-17q0 -11 5 -22q7 -14 14.5 -18t25.5 -4h13q24 1 30.5 4t11.5 15q8 19 9 158q0 85 -3 99q-13 58 -54 73q-20 8 -56 8q-40 0 -63 -10q-9 -4 -29 -23q-20 -18 -23 -17q-2 1 -5 1
q-2 0 -9 13q-23 38 -70 38q-23 0 -58 -11q-20 -7 -27 -7q-8 0 -13 8q-8 10 -15 11zM60 398q9 3 22 3q37 0 53 -16l4 -5l13 6q26 11 64 11q49 0 79 -29l12 -12l11 10q32 28 98 28h11q50 -1 71 -15q37 -24 49 -65q2 -6 14 -14q41 -23 52 -83q4 -26 4 -92q0 -115 -7 -155
q-4 -25 -16 -33t-43 -8q-40 0 -52 11q-14 12 -18 33q-2 11 -4.5 13t-14.5 3q-17 2 -31 7v-8q0 -57 -57 -57q-13 0 -20 1q-30 4 -44.5 15.5t-17.5 34.5q-1 7 -2.5 8.5t-6.5 1.5q-22 0 -48 14q-1 0 -3 -16q-2 -36 -20 -45q-13 -7 -43 -7q-33 0 -49 8q-17 8 -20 37l-2 13l-17 1
q-30 2 -44 13.5t-19 36.5q-3 18 -3 155q0 146 4 157q9 30 41 39z" />
    <glyph glyph-name="n" unicode="n" horiz-adv-x="466" 
d="M251 362q-17 4 -37 4q-39 0 -72 -19q-8 -5 -12 -5q-2 0 -18 7q-18 9 -33 9q-18 0 -26 -6q-9 -7 -10 -14q-2 -10 -2 -32q0 -58 7 -154.5t14 -117.5q8 -25 43 -25t44 21q2 8 2 90q0 85 4 92q14 24 46 24q13 0 23 -6q17 -10 24 -37t11 -99t26 -81q6 -3 22 -3q19 0 30 3
q18 6 27 17q4 5 4 26q0 1 -2 67q-5 98 -10 128t-21 55q-30 45 -84 56zM146 376q26 14 68 14q8 0 28 -2q45 -6 80 -32t48 -62q5 -10 9 -13q58 -41 65 -121q6 -61 6 -154q0 -39 -2 -49q-9 -30 -61 -31h-11q-23 0 -34 8q-14 10 -20 40l-2 12h-13q-25 0 -38 8t-19 20.5t-13 44.5
q-1 -18 -1 -45q0 -59 -11 -71q-16 -19 -50 -19q-22 0 -38 11q-15 11 -19 35l-3 14l-14 1q-51 0 -65 48q-5 19 -14 154q-6 84 -6 117q0 35 7 48q15 31 56 31q22 0 42 -10l8 -4z" />
    <glyph glyph-name="o" unicode="o" horiz-adv-x="476" 
d="M202 256q27 0 44.5 -19.5t17.5 -48.5q0 -20 -5 -30q-21 -41 -58 -41q-26 0 -44 21.5t-18 50.5q0 14 4 25q12 42 59 42zM297 343q-50 24 -91 24q-29 0 -52 -9q-38 -14 -67 -43.5t-39 -64.5q-7 -24 -7 -54q0 -68 31 -118q19 -31 65 -55q32 -15 69 -15q40 0 77 17t60 47
q34 46 34 115q0 10 -2 30q-1 11 -1 29v7q2 14 2 19q0 40 -28 59q-8 6 -22 5q-12 -1 -29 7zM171 388q12 2 38 2q46 0 86 -20q17 -9 35 -9q25 0 45 -20q18 -20 26 -55q1 -6 6 -6q4 0 16 -6q15 -7 26 -26.5t11 -42.5v-5q0 -5 -0.5 -17t-0.5 -16q0 -15 0.5 -35.5t0.5 -25.5
q0 -30 -3 -44q-13 -51 -45 -84q-19 -21 -55 -38q-35 -16 -79 -16q-50 0 -87 21q-26 14 -47 39q-9 11 -32.5 25.5t-33.5 23.5q-36 34 -52 92q-10 37 -10 72q0 77 52 134q44 47 103 57z" />
    <glyph glyph-name="p" unicode="p" horiz-adv-x="505" 
d="M219 258q5 1 14 1q54 0 54 -52q0 -30 -20 -43q-17 -12 -49 -12q-11 0 -14 3q-2 2 -4 48v24q0 21 3 25t16 6zM162 372q-21 11 -37 11q-9 0 -19 -3q-12 -4 -18 -14q-7 -11 -15 -15q-17 -7 -26 -26q-7 -16 -7 -43q0 -2 0.5 -5t0.5 -4q3 -20 21 -25q9 -3 16 -6q2 -2 2 -27
v-64q0 -132 -11 -220q-5 -45 -5 -68t4 -37q11 -29 62 -32h9q20 0 30 9q9 8 12 24.5t9 88.5q7 75 9 80q4 9 39 11q80 6 122 56q45 53 45 139v14q-2 33 -4 40q-12 51 -42.5 81t-75.5 34q-8 1 -20 1q-15 0 -49 -5l-31 -5zM109 406q12 3 19 3q15 0 43 -13q15 -7 21 -7t11 1
q36 6 59 6q27 0 51 -7q64 -19 93 -76q10 -21 24 -31q59 -46 59 -149q0 -113 -65 -169q-50 -43 -121 -43h-3q-14 0 -17 -4.5t-5 -30.5q-9 -101 -12 -123.5t-9 -33.5q-11 -17 -38 -20q-1 0 -4 -0.5t-4 -0.5q-17 0 -39.5 6t-30.5 13q-12 10 -17 31q-2 12 -7 12q-18 0 -42 12
q-20 11 -27.5 27t-7.5 48v15q1 10 8.5 109t7.5 157v16l-1 70q-21 8 -29.5 19t-9.5 36v7q0 32 11 54q5 9 15.5 20t14.5 11t13 13q13 17 39 22z" />
    <glyph glyph-name="q" unicode="q" horiz-adv-x="532" 
d="M152 200q3 25 10.5 35t26.5 10h6q26 -1 54 -18l-1 -24q-3 -50 -8 -62q-4 -9 -18 -9q-9 0 -15 1q-30 5 -43 16.5t-13 35.5q0 10 1 15zM340 379q-11 3 -23 3q-31 0 -51 -16q-9 -8 -29 -3q-15 5 -52 5q-13 0 -18 -1q-37 -3 -59 -19q-43 -31 -59 -92q-9 -34 -9 -69
q0 -58 24.5 -104.5t68.5 -66.5q15 -7 45 -7q26 0 42 5q21 6 27 -3q2 -3 2 -81q0 -83 1 -94q5 -33 19 -42q11 -7 33 -7q39 0 86 22q28 13 40 35q3 8 3 17q0 29 -16 45q-10 10 -34 10h-7q-12 0 -14.5 7t-2.5 42v14q0 41 6 215q5 125 5 158q0 8 -9 16.5t-19 10.5zM263 393
q23 14 49 14q12 0 18 -1q38 -4 57 -34q6 -9 6 -28t5 -19q13 0 30.5 -10.5t21.5 -21.5q3 -7 3 -26q0 -17 -3 -97q-5 -101 -7 -183l-2 -70l5 -11q5 -11 9 -29l4 -19l13 -2q20 -3 30 -17q14 -20 14 -50q0 -14 -5 -24q-23 -42 -104 -58q-19 -4 -37 -4q-51 0 -60 45l-3 14h-9
q-37 0 -55 22q-11 13 -14.5 31.5t-3.5 64.5q0 44 -3 45l-2 1q-3 1 -7 2t-7 2q-35 10 -65 50q-6 8 -17.5 13t-16.5 8q-11 7 -12 7q-2 0 -20 18q-27 29 -43 67q-16 39 -16 94q0 93 40 145q18 24 45 38q10 5 14 9q15 14 69 14q22 0 38 -3l28 -4z" />
    <glyph glyph-name="r" unicode="r" horiz-adv-x="471" 
d="M299 376q-17 5 -42 5q-14 0 -19 -1q-32 -5 -72 -23q-10 -3 -20 4q-18 12 -43 12q-30 0 -51 -17q-12 -9 -12 -25q0 -3 4 -35q11 -92 18 -189q1 -7 1.5 -21t1.5 -19.5t2.5 -16t3.5 -14.5t6 -10.5t9.5 -9t13.5 -4.5t19 -2q29 0 43 12q13 13 13 50q0 24 -3 72q-1 17 -2 36.5
t-2 31t-1 13.5v6q0 20 7 27q14 14 49 20q10 2 15 2q10 0 46 -14q42 -18 55 -18h4q29 1 29 36q0 15 -6 30q-7 18 -26.5 36.5t-40.5 25.5zM190 392q33 12 58 12h17q29 0 43 -5q26 -9 49.5 -31.5t32.5 -48.5q4 -11 16 -18q49 -32 49 -86q0 -23 -7 -34q-15 -18 -36 -18
q-16 0 -38 9q-53 22 -66 22h-3q-11 -1 -28 -6.5t-22 -10.5q-5 -3 -5 -15q0 -4 5 -71q4 -72 4 -88q0 -36 -5 -48q-7 -16 -23 -23q-10 -5 -37 -5q-40 0 -54 15q-10 12 -14 31l-3 11l-14 2q-42 4 -55 29q-12 23 -23 168q-1 20 -8 71.5t-7 73.5q0 39 35 56q29 13 54 13
q27 0 49 -12q4 -2 6 -2t30 9z" />
    <glyph glyph-name="s" unicode="s" horiz-adv-x="455" 
d="M259 376q-13 4 -59 5h-16q-49 0 -77 -14q-14 -7 -30.5 -23t-24.5 -29q-12 -21 -12 -46q0 -34 22 -59q19 -20 69 -33q25 -5 55 -15q26 -8 34 -14t8 -18q0 -25 -41 -25q-15 0 -37 12l-23 12h-24q-21 0 -34 -5q-24 -10 -27 -28q0 -1 -0.5 -3t-0.5 -3q0 -21 25.5 -43
t59.5 -30q30 -7 64 -7q4 0 11 0.5t10 0.5q69 5 106 42q38 38 38 81q0 31 -21 57t-59 38q-6 2 -51.5 12.5t-52.5 13.5q-11 6 -11 17q0 9 5 14q13 14 40 14q17 0 69 -15q12 -4 20 -4q10 0 21 12q13 14 13 27q0 8 -4 15q-14 27 -65 41zM17 92q0 25 25.5 44.5t55.5 19.5q5 0 6 1
t-3 3l-7 2q-31 8 -52 33t-25 57q-1 5 -1 15q0 55 40 94t102 45q6 1 23 1q38 0 66 -4q47 -8 76 -30t29 -52q0 -9 2 -9t16 -6q41 -19 41 -56q0 -14 -3 -20q-7 -14 -18.5 -23.5t-20.5 -9.5l-7 -1q1 -1 7 -16t6 -16q0 -2 10 -9q54 -34 54 -94q0 -30 -18 -63q-12 -21 -39 -41
q-42 -28 -110 -31h-14q-109 0 -148 59q-8 12 -23 19q-70 33 -70 88z" />
    <glyph glyph-name="t" unicode="t" horiz-adv-x="404" 
d="M183 575q-12 3 -24 3q-6 0 -14 -2q-16 -4 -21.5 -28t-9.5 -96q-2 -49 -6 -53q-2 -2 -26 -10q-34 -11 -40 -33q-1 -3 -1 -12q0 -18 7 -33q6 -13 13 -18t22 -7t17 -5q3 -3 5.5 -120t10.5 -129q9 -13 46 -13q28 0 37 5.5t14 24.5q7 29 12 171q2 59 4 66.5t17 10.5
q55 11 59 55v6q0 24 -12 38q-12 12 -39 12h-10q-13 0 -16 5t-3 31v18q0 63 -8 84.5t-34 28.5zM97 542q6 33 21 47t45 14q73 0 82 -70l2 -13q40 -9 51 -30q10 -20 10 -60q0 -12 6 -20q15 -18 15 -47v-13h8q30 0 45 -26q6 -12 6 -38q0 -27 -7 -38q-21 -31 -71 -37v-39
q0 -48 -3 -93q-3 -46 -5 -67.5t-5.5 -40.5t-12 -24.5t-17.5 -8t-29 -3.5h-13q-31 0 -43 9t-14 35l-2 15h-14q-53 0 -63 37q-3 13 -8 172l-2 60h-5q-21 0 -36 17q-22 25 -22 65q0 47 51 65l21 7v21q0 47 9 104z" />
    <glyph glyph-name="u" unicode="u" horiz-adv-x="465" 
d="M124 372q-12 2 -23 2q-21 0 -28 -3q-11 -5 -14 -17t-8 -62q-1 -9 -4 -33.5t-3 -27.5q-4 -29 -4 -59q0 -42 10 -68q11 -32 34.5 -56t52.5 -31q12 -3 31 -3t31 3q9 3 24 10q9 6 15 6q3 0 25 -11q31 -15 63 -15q23 0 33 18q4 7 4 148q0 116 -1.5 138t-10.5 32q-11 14 -36 16
q-6 1 -16 1q-16 0 -27 -7q-10 -6 -14 -25t-10 -88q-6 -64 -7 -69q-2 -8 -10 -16.5t-15 -10.5q-6 -2 -18 -2q-22 0 -32 10q-8 6 -10 17.5t-2 48.5v40v43q0 35 -3 47q-7 20 -27 24zM196 315q15 0 33 -20l3 21q4 39 17.5 52.5t47.5 15.5h7q74 0 83 -70l1 -12l13 -2
q37 -7 44 -43q4 -19 4 -132q0 -166 -6 -178q-13 -24 -47 -24q-12 0 -18 1q-34 4 -57 18l-10 6l-11 -5q-25 -13 -62 -13q-31 0 -61 14.5t-46 38.5q-9 12 -23 19q-92 44 -92 171q0 17 1 26q2 23 6 58t6 55q4 44 6 49q7 23 27 32q8 4 23 4h16q33 -1 42 -6q32 -15 35 -59
q1 -12 3.5 -14.5t14.5 -2.5z" />
    <glyph glyph-name="v" unicode="v" horiz-adv-x="485" 
d="M335 389q-11 4 -18 4q-6 0 -15 -9q-8 -8 -26 -48q-18 -41 -19 -48q-4 -13 -16 -40.5t-15 -30.5q-5 -5 -10 -5q-11 0 -24 21q-19 33 -46.5 71.5t-38.5 47.5q-10 9 -20 9q-7 0 -18 -6q-29 -16 -29 -52q0 -11 5 -23q15 -38 84 -149q33 -53 42 -76q11 -27 39 -34q6 -2 20 -2
q28 0 41 15q4 5 33.5 74.5t31.5 79.5q1 3 22.5 57.5t22.5 59.5q4 16 4 23q0 43 -50 61zM298 414q6 2 17 2q23 0 35 -5q22 -9 39.5 -29.5t19.5 -40.5q0 -4 0.5 -5.5t2 -3t3 -2.5t6.5 -3q26 -12 40 -37q8 -14 8 -33q0 -11 -3 -22q-4 -14 -27 -72q-23 -57 -23 -61q0 -2 -29 -73
q-28 -68 -39 -79q-16 -15 -46 -15h-8q-48 3 -61 36q-7 18 -9 20.5t-11 3.5q-25 4 -45 20q-8 6 -21 33q-14 29 -31 57q-83 138 -94 163q-6 13 -6 35q0 24 6 37q10 20 27.5 33t35.5 13q35 0 81 -68q6 -8 23 -27t21 -24l7 -9q2 0 11.5 22.5t9.5 26.5q0 6 28 68q14 32 32 39z
" />
    <glyph glyph-name="w" unicode="w" horiz-adv-x="658" 
d="M556 324q1 3 1 10q0 22 -17 38.5t-44 21.5h-5q-9 0 -15 -9.5t-21 -46.5q-41 -106 -46 -109q-7 -5 -16 4q-5 5 -17 36l-13 33l3 11q1 3 1 8q0 21 -17 36.5t-38 15.5q-15 0 -28 -10q-17 -15 -36 -76q-15 -45 -20 -47q-1 -1 -3 -1l-2 1h-3q-8 1 -49 73q-20 35 -28 45.5
t-18 15.5q-9 5 -17 5q-7 0 -18 -4q-29 -10 -43 -40q-8 -16 -8 -27q0 -18 23 -50q7 -9 53 -97q40 -78 45 -97q9 -41 59 -44q17 -1 28 4q12 7 14 10q8 11 31 86q13 41 15 43q4 4 8 4q9 0 18 -26q25 -76 34 -92q5 -10 11 -13q10 -5 34 -5q12 0 16 1q11 2 19 10.5t19 30.5
q18 35 50.5 126t39.5 125zM395 314q1 0 21 -8l17 43q23 58 36 65q7 4 18 4q37 0 63.5 -20.5t29.5 -51.5q1 -13 5 -13q11 0 32 -16q17 -13 23 -37q3 -9 3 -14q0 -6 -4 -21q-6 -25 -40 -125q-55 -155 -83 -168q-10 -5 -40 -5q-12 0 -24 2q-21 5 -36 47l-4 11h-12q-5 0 -23 3
l-11 2l-8 -23q-8 -24 -13 -32t-15 -14q-13 -8 -34 -8q-29 0 -53 16.5t-24 37.5q0 5 -5 5q-14 0 -42 14q-25 12 -34 45q-4 16 -7 22q-70 139 -92 171q-23 32 -23 60q0 40 33 71q26 25 59 25q20 0 32 -7q21 -12 43 -52q7 -12 12 -17.5t12 -11t12 -10.5l7 -7l7 22q18 55 45 71
q10 6 31 6q34 0 57 -22q25 -22 25 -49q0 -11 4 -11z" />
    <glyph glyph-name="x" unicode="x" horiz-adv-x="473" 
d="M147 383q-22 12 -37 12q-10 0 -19 -4q-39 -16 -39 -43q0 -8 3 -15q9 -27 73 -99q17 -19 17 -24q0 -9 -28 -33q-64 -58 -72 -72q-4 -8 -4 -26q0 -33 27 -40q10 -2 14 -2q39 0 91 50q21 20 32 20q12 0 30 -33q19 -33 41 -45q14 -8 29 -8q23 0 44.5 17t21.5 40q0 12 -7 25
q-12 25 -57 89q-12 18 -12 21q0 4 21 30q55 66 55 90q0 4 -2 12q-11 33 -43 33t-72 -49q-13 -16 -16.5 -19t-9.5 -3q-7 0 -18 14q-42 50 -63 62zM83 414q9 4 28 4q24 0 36 -6q43 -21 79 -70q4 -4 12 7q45 51 85 52h2q29 0 48.5 -18t21.5 -47l1 -15l11 -2q20 -2 34 -19
t14 -39q0 -13 -6 -25q-13 -27 -58 -81l-11 -14l18 -25q38 -53 52 -83q8 -16 7 -28q-2 -29 -26.5 -49t-58.5 -20q-38 0 -69 49q-8 13 -17 14q-18 3 -23 6q-6 2 -24 -13q-48 -39 -86 -39q-49 1 -55 48l-1 12h-15q-62 0 -66 62v8q0 24 12.5 42t51.5 53q34 29 34 32q0 1 -17 20
q-53 59 -64 91q-5 18 -5 29q0 43 55 64z" />
    <glyph glyph-name="y" unicode="y" horiz-adv-x="482" 
d="M108 381q-3 2 -11 2q-19 0 -40 -23q-18 -19 -18 -42v-8q3 -27 28 -73q16 -29 91 -158q8 -13 8 -19t-27 -74q-43 -110 -43 -132q0 -5 2 -13q5 -18 20.5 -32t33.5 -14q9 0 17 4q19 11 35 42q10 20 53.5 126.5t49.5 124.5q7 18 23.5 60t29.5 76t17 50t4 40q0 18 -2 24
q-3 9 -12.5 18.5t-18.5 12.5q-12 4 -26 4q-32 0 -44 -23l-7 -23q-8 -33 -23.5 -78.5t-19.5 -48.5q-6 -3 -9 -3q-4 0 -7 3t-41 74q-40 76 -47 87.5t-16 15.5zM75 405q4 2 18 2q19 0 27 -4q19 -8 40 -49q16 -30 20 -30q15 0 33 -33q11 -22 13 -22t20 67q10 36 25.5 50.5
t49.5 14.5h8q68 -4 76 -66q2 -17 7 -17q18 0 36 -18q17 -18 18 -47q0 -2 0.5 -6.5t0.5 -6.5q0 -22 -10 -52.5t-43 -112.5q-26 -67 -26 -68q0 -4 -25 -63q-60 -146 -73.5 -175.5t-27.5 -41.5q-17 -16 -39 -16q-19 0 -36.5 12t-25.5 29q-6 14 -6 16q0 4 -12 5q-41 3 -63 45
q-6 12 -6 38q0 24 5.5 43t35.5 93l26 66l-51 89q-56 98 -65 118.5t-9 50.5q0 36 19 58q18 22 40 31z" />
    <glyph glyph-name="z" unicode="z" horiz-adv-x="489" 
d="M274 378q-81 3 -148 3q-33 0 -36 -1q-18 -6 -25 -22q-4 -9 -4 -21q0 -22 19 -32q15 -7 80 -12q29 -6 30 -11q0 -8 -9.5 -20t-69.5 -78q-49 -54 -59 -67t-12 -28v-6q0 -18 14 -31.5t37 -18.5q21 -4 99.5 -8.5t116.5 -4.5q5 0 10 0.5t6 0.5q35 6 35 44q0 31 -23 42
q-11 6 -64 9q-48 3 -51 8q-1 2 -1 4q0 9 38 56q8 10 29 35.5t26 32.5q2 3 5 7t4.5 5.5t3.5 4.5t3 3.5t3 2.5t3.5 2.5t5 1.5t6 2t7.5 2q24 5 33 21q4 7 4 18q0 19 -15 34q-11 12 -28.5 16t-72.5 6zM355 123q29 -20 29 -58q0 -11 14 -11q12 0 28 -16q16 -15 16 -44
q0 -21 -6 -31q-11 -19 -34 -25q-4 -1 -31 -1q-51 0 -136 5q-64 5 -83.5 8.5t-31.5 12.5q-18 14 -21 35q0 4 -0.5 5t-2 2.5t-4 2t-8.5 1.5q-45 8 -63 45q-5 12 -5 27q0 27 14 48q25 34 81 93q13 14 13 18q0 1 -2.5 7t-3.5 13l-1 13l-17 2q-34 4 -49 20t-15 45q0 25 13.5 41.5
t34.5 22.5q3 1 37 1q108 0 178 -4q43 -2 61.5 -7t30.5 -17q20 -20 22 -47l1 -14l12 -3q47 -14 47 -65q0 -40 -41 -49l-10 -2.5t-7 -1.5q-3 0 -32 -36z" />
    <glyph glyph-name="braceleft" unicode="{" horiz-adv-x="474" 
d="M339 585q-12 3 -23 3q-58 0 -111 -55q-28 -28 -37 -60q-4 -15 -10 -48t-6 -42q0 -17 -11 -23t-50 -8q-26 -1 -35 -7q-19 -13 -19 -37q0 -14 9 -28.5t20 -19.5q9 -5 26 -8q33 -7 40.5 -11t7.5 -12q0 -9 3 -22q4 -16 4 -71q0 -42 2 -55t10 -30q13 -25 54.5 -46t78.5 -21h4
q51 2 51 47q0 24 -18 39q-9 8 -49 17q-24 5 -24 16q0 3 0.5 18.5t0.5 28.5q0 35 -6 63q-10 54 -22 68q-7 9 6 27q21 28 27 82q5 39 9 52.5t16 26.5q13 14 43 22q39 9 43 40v6q0 16 -9.5 30t-24.5 18zM375 25q57 -14 57 -65q0 -25 -15.5 -42t-41.5 -19h-6q-54 0 -101 27
q-12 7 -29 22.5t-19 21.5q-2 5 -15 10q-46 21 -70 63q-13 23 -13 87v51l-8 8q-17 17 -17 31q0 5 -24 11q-34 8 -52 42q-6 11 -6 34q0 32 16 49q18 20 58 22q30 2 35 4t5 12q0 5 8 51q8 41 18 62.5t31 43.5q42 43 102 58q16 4 19 4h20q28 -2 48 -21t22 -47q1 -14 5 -14
q20 0 38.5 -20.5t18.5 -45.5q0 -13 -6 -25q-12 -26 -48 -34q-29 -7 -40.5 -21.5t-15.5 -48.5q-7 -69 -28 -102l-10 -16q25 -44 30 -109q1 -14 10 -24q18 -18 20 -45q2 -15 4 -15z" />
    <glyph glyph-name="bar" unicode="|" horiz-adv-x="248" 
d="M117 592q-6 3 -18 3t-18 -3q-17 -7 -27 -30q-13 -34 -13 -344q0 -185 3 -196q11 -32 49 -32q25 0 34 15t12 60q7 123 7 367q0 96 -2 106q-7 45 -27 54zM80 619q4 1 13 1q27 0 44 -10q24 -15 29 -61l2 -11l11 -1q26 -3 36 -23q11 -22 16 -71q1 -7 1 -52q0 -329 -9 -415
q-6 -54 -31 -66q-7 -3 -28 -3q-16 0 -28 3q-27 8 -35 44l-3 12l-16 1q-36 1 -50 20.5t-16 61.5q0 1 -0.5 21.5t-0.5 38.5q0 229 5 361q3 70 8.5 92.5t22.5 39.5q13 13 29 17z" />
    <glyph glyph-name="braceright" unicode="}" horiz-adv-x="469" 
d="M202 544q-18 18 -51 35.5t-60 17.5q-32 0 -46 -26q-8 -13 -8 -28q0 -17 12.5 -29t32.5 -16q50 -12 60 -57q3 -15 4 -40q4 -58 27 -88q7 -8 7 -16q0 -3 -5 -15q-27 -52 -28 -131q-1 -47 -4 -50q-2 -2 -18.5 -6.5t-23.5 -4.5q-18 0 -31.5 -16t-13.5 -36q0 -10 5 -20
q14 -27 48 -27h8q39 4 73 21t50 40q17 25 17 94q0 38 10 93q3 8 43 16q35 7 46 20q13 15 13 34q0 12 -6 24q-8 14 -16.5 18.5t-35.5 5.5q-35 2 -45.5 9t-10.5 28q0 42 -15 90q-9 31 -38 60zM20 576q21 46 71 46q34 0 75 -22q57 -28 85 -80q6 -12 30 -36q40 -40 49 -90
q3 -14 6 -14t15 -4q39 -14 42 -60l1 -17l11 -1q22 -3 35 -19t13 -39q0 -56 -60 -68l-27 -6l-12 -3l-5 -15q-9 -27 -9 -92q0 -52 -12 -74q-26 -48 -100 -69q-17 -5 -48 -5h-15q-11 0 -21 5q-30 18 -30 47q0 6 -14 7q-30 1 -49.5 22t-19.5 49q0 13 4 24q9 26 24.5 37.5
t46.5 16.5l16 3l-1 14v11q0 76 24 134l8 18l-4 7q-23 31 -27 90l-2 31q-19 16 -26 46q-8 1 -18 4q-41 9 -55 37q-6 12 -6 33q0 22 5 32z" />
    <glyph glyph-name="asciitilde" unicode="~" horiz-adv-x="537" 
d="M204 328q-21 6 -44 6q-55 0 -87 -23q-25 -18 -31 -33q-2 -4 -2 -12q0 -15 11.5 -28t28.5 -17q4 -1 11 -1q16 0 33 16q16 16 43 16h5q27 -4 82 -39q53 -33 83 -33q13 0 20 2q22 5 45.5 20t29.5 28q4 8 4 18q0 18 -12 32t-27 14q-3 0 -11 -2t-19 -14q-23 -20 -42 -20
q-20 0 -45 22q-38 35 -76 48zM128 358q10 2 29 2q75 0 139 -60q20 -18 28 -18q10 0 31 18q20 18 38 19h4q25 0 44.5 -21.5t19.5 -50.5v-11h9q20 0 35 -18.5t15 -41.5q0 -19 -11 -33q-10 -14 -33.5 -28t-43.5 -18q-18 -2 -31 -1q-36 3 -86 36q-47 31 -72 35h-5q-21 0 -36 -15
q-17 -17 -40 -17q-22 0 -42 16t-23 36l-1 8l-13 1q-30 4 -48.5 23.5t-18.5 45.5q0 21 15 41q14 18 42 33t55 19z" />
    <glyph glyph-name="nbsp" unicode="&#xa0;" 
 />
    <glyph glyph-name="exclamdown" unicode="&#xa1;" horiz-adv-x="248" 
d="M125 360q-8 5 -25 5q-35 0 -45 -13q-9 -11 -12 -50q-3 -36 -3 -207q0 -74 1 -80q7 -35 45 -35q12 0 19 2q22 6 31 44q7 30 7 218q0 69 -3 89t-15 27zM124 534q-12 6 -27 6q-16 0 -30 -7q-16 -9 -23 -31q-3 -9 -3 -18q0 -41 46 -51q10 -2 15 -2q26 0 38 24q8 16 8 33
q0 35 -24 46zM71 560q12 3 27 3q26 0 41 -8q27 -16 32 -57l1 -16l14 -2q17 -4 23 -9q23 -18 23 -56q0 -9 -1 -13q-8 -54 -56 -54q-8 0 -10 -1t-1 -4q1 -2 3 -20l1 -17h10q31 0 43 -26q4 -9 5 -121v-53q0 -154 -17 -184q-9 -15 -19.5 -20t-34.5 -5q-48 0 -55 37q-1 5 -2 13
t-1 9l-18 1q-49 3 -61 42q-3 10 -3 130q1 147 5.5 188.5t22.5 57.5q14 11 44 14l15 1l-2 9q-1 7 -2.5 8t-7.5 1q-19 0 -43 16q-29 19 -29 61q0 59 53 75z" />
    <glyph glyph-name="cent" unicode="&#xa2;" horiz-adv-x="474" 
d="M265 510q-5 4 -16 4q-20 0 -30 -13q-1 -1 -6 -17q-5 -19 -9 -23t-27 -13q-66 -25 -102 -85t-36 -134q0 -55 23 -98q13 -24 38.5 -46.5t53.5 -35.5q15 -8 16 -11q1 -2 3 -11q2 -18 7 -25.5t16 -11.5q5 -2 19 -2q13 0 16 2q12 7 16 32q2 8 4 10t30 8q38 8 48 22q8 11 8 34
q0 21 -7 32q-13 21 -39 21q-11 0 -17 -1q-32 -2 -40 -2q-37 0 -59 19q-34 31 -34 83q0 49 33 82t80 33q20 0 41 -4t38 -4q21 0 31 11t10 36t-16 38.5t-53 21.5q-17 3 -20.5 5.5t-4.5 14.5q-4 21 -15 28zM187 486q18 53 58 53q15 0 30 -7q21 -10 27 -35q2 -8 3.5 -9t8.5 -2
q27 -4 52 -20q30 -21 33 -54l1 -13l12 -4q28 -12 40 -32q6 -9 6 -33q0 -25 -4 -32q-15 -28 -51 -28q-13 0 -31 3q-40 6 -50 6q-21 0 -42 -11q-28 -15 -42 -41q-13 -26 -13 -51q0 -7 2 -7q7 0 33 3q24 2 29 2q23 0 40 -10q32 -20 32 -61v-11h7q28 0 44 -26q10 -17 10 -34
q0 -10 -1 -16q-5 -39 -36 -52q-5 -2 -27 -7.5t-25 -5.5q-2 0 -4 -11q-5 -25 -22 -34q-7 -3 -18 -3q-17 0 -35 7q-13 5 -16 14q-4 11 -6 23l-2 14l-17 1q-56 7 -62 44q-3 19 -39 39q-76 46 -94 139q-2 10 -2 40q0 42 4 62q16 74 51 116.5t102 71.5q12 5 14 12z" />
    <glyph glyph-name="sterling" unicode="&#xa3;" horiz-adv-x="587" 
d="M335 515q-20 5 -51 5q-26 0 -39 -3q-72 -16 -98 -57q-13 -20 -17 -39.5t-6 -66.5q-1 -48 -5 -52q-3 -3 -22 -5q-51 -6 -57 -30q-1 -3 -1 -9q0 -21 13 -31q5 -3 14 -3q2 0 8.5 0.5t10.5 0.5t10 0.5t8 0.5q10 0 13 -3t3 -12q0 -2 -0.5 -8t-0.5 -10q-4 -52 -13 -69
q-3 -6 -15 -20q-19 -23 -19 -42v-5q1 -16 7 -25q9 -12 18 -15t40 -4h12q50 0 250 9q56 2 71 13q18 12 18 34q0 15 -11 28q-10 10 -29 13.5t-70 3.5q-7 0 -25.5 -0.5t-29.5 -0.5q-97 -2 -100 -3q-4 -1 -10 4.5t-4 9.5q0 1 1.5 6.5t3.5 9.5q5 12 6 46q1 41 6 43q4 2 38 4
q68 5 88 13q14 7 17 30q1 11 -4 17q-7 9 -19 11t-64 3q-62 0 -65 4q-3 5 -3 37q0 34 3 44q7 23 28 36q13 8 30 8q13 0 46 -7q28 -7 48 -9q6 -1 14 -1q14 0 22 17q6 12 5 23q-2 20 -18.5 33t-55.5 23zM391 281q0 -3 -3 -33l19 -1q30 -1 40 -17q6 -8 6 -22q0 -32 -20 -43
q-17 -8 -49.5 -11.5t-55.5 -5t-23 -5.5t62 -5q69 -2 78 -3q67 -10 67 -67v-16l13 -1q46 -5 46 -56q0 -14 -6 -25q-13 -20 -38.5 -27t-98.5 -8q-9 0 -33.5 -1t-47 -1.5t-38.5 -1.5q-58 -2 -82 -2h-22q-37 1 -49 7q-22 12 -26 37l-3 14l-18 2q-33 5 -48 21.5t-15 48.5
q0 33 24 60t24 74v8l-15 -1q-2 0 -5.5 -0.5t-5.5 -0.5q-53 0 -53 60q0 54 70 61l12 1l2 41q2 44 4 57q12 55 58 89t113 37h9q63 0 115 -29q31 -19 34 -53l1 -14l17 -7q30 -12 38 -33q5 -13 5 -25q0 -30 -21 -45q-8 -4 -18 -4q-24 0 -75 12q-22 5 -32 5q-20 0 -41 -21h14
q47 0 65 -22q6 -7 6 -28z" />
    <glyph glyph-name="currency" unicode="&#xa4;" horiz-adv-x="431" 
d="M123 257v5q0 25 12 41t33 16q10 0 24 -6q19 -9 26 -27q3 -8 3 -19q0 -20 -6 -31q-10 -20 -34 -27q-10 -2 -14 -2q-18 0 -30 13.5t-14 36.5zM123 389q-26 21 -50 21q-16 0 -23 -13q-4 -5 -4 -13q0 -12 13 -38q6 -14 6 -20q0 -4 -5 -22t-5 -40q0 -9 2 -25q1 -6 2 -12.5
t1.5 -10t0.5 -6.5q0 -6 -10 -22q-11 -17 -11 -28q0 -12 12 -23q10 -10 24 -10q10 0 28 8q12 7 16 7t17 -5q17 -5 39 -5q10 0 28 2l14 2l11 -10q21 -18 39 -18t29 17q7 10 7 16q0 7 -12 30l-12 24l5 16q5 15 5 58v41l11 13q24 30 28 46q3 17 -8 27q-11 9 -23 9q-20 0 -45 -18
q-13 -9 -16 -9t-19 6q-18 7 -42 7q-16 0 -29 -3q-17 -4 -24 1zM354 377q0 -12 -7 -31q7 -1 16 0q17 1 25 -2t16 -11t10 -15q1 -2 1 -8q0 -25 -29 -63l-12 -17l1 -18q0 -2 0.5 -7t0.5 -8q0 -39 -7 -62l-3 -10l12 -23q11 -21 11 -29q0 -34 -32 -47q-10 -4 -16 -4q-19 0 -46 19
l-11 8h-35q-35 0 -46 4l-10 4l-12 -5q-22 -10 -36 -10q-1 0 -3 0.5t-3 0.5q-17 2 -29.5 16.5t-12.5 32.5v12h-17h-5q-29 0 -44 18q-16 17 -16 39t16 42q5 7 3 22q-3 17 -3 36q0 28 6 52l3 13l-7 17q-10 25 -10 43q0 48 55 48q26 0 51 -18q6 -4 14 -3q10 3 26 3q34 0 56 -9
q8 -3 20 5q25 16 53 16q24 0 40 -13t16 -38z" />
    <glyph glyph-name="yen" unicode="&#xa5;" horiz-adv-x="540" 
d="M177 39q0 -28 16 -39t50 -11q33 0 46 8t17 35q2 8 2.5 9.5t1.5 5t3.5 3.5t4 1t8.5 1h12q21 1 41 8t20 18q0 4 -3 8q-6 11 -49 18q-30 6 -32 8t-2 18q0 29 4 35q2 4 28 5q49 3 58 19q2 4 -1 11t-8 10q-13 7 -48 12q-26 3 -26 14q0 1 30 54q54 91 71.5 129t17.5 60
q0 25 -18 35q-20 11 -47 11q-28 0 -40 -12q-5 -5 -9 -18q-2 -8 -11 -32q-7 -18 -27 -63.5t-24 -50.5q-7 -10 -17 -1q-4 4 -29 43q-81 127 -95 138q-9 8 -24 8q-23 0 -46 -23q-13 -13 -13 -29q0 -9 5 -22q9 -21 62 -102q71 -111 71 -117q0 -13 -27 -13q-43 0 -54 -20
q-4 -6 0 -12q8 -14 47 -19q27 -4 29 -6q3 -2 3 -28q0 -25 -3 -28q-1 -1 -27 -3q-25 -2 -33 -4q-9 -3 -15.5 -10t-6.5 -13q0 -20 57 -26q20 -2 25 -6t5 -17zM151 139v14l-21 4q-59 9 -59 46q0 23 20 38t51 15l-27 42q-27 43 -57 91t-35 59q-9 20 -9 36q0 28 19.5 48.5
t47.5 26.5q7 2 20 2q18 0 27 -5q10 -5 17.5 -14t26.5 -37q18 -28 27 -34q7 -4 21.5 -23.5t25.5 -37.5l11 -17q1 0 20 45.5t23 58.5q7 22 14 30.5t23 15.5q16 6 37 6q23 0 40 -6q49 -17 49 -63v-14q49 -12 56 -30q4 -11 4 -26q0 -11 -1 -16q-5 -24 -16 -48.5t-49 -90.5
q-28 -48 -28 -59q0 -15 -14 -31q45 -5 56 -13q17 -10 17 -30q0 -13 -14.5 -23.5t-37.5 -12.5h-4q-9 -2 -9 -3t0.5 -2t0.5 -2q0 -10 -12 -30q2 -1 24.5 -5.5t25.5 -6.5q21 -9 21 -30q0 -17 -16 -26q-17 -11 -52 -12l-23 -2l-3 -15q-4 -25 -20 -35q-20 -14 -54 -14
q-26 0 -47 9q-14 6 -23.5 19t-9.5 27q0 6 -13 7q-37 3 -68 33q-7 7 -6 18q0 12 2 16q1 3 -0.5 4t-10.5 2q-75 9 -75 50q0 11 8.5 23.5t19.5 18.5q16 9 46 9h13z" />
    <glyph glyph-name="brokenbar" unicode="&#xa6;" horiz-adv-x="243" 
d="M102 230q-8 4 -16 4q-18 0 -27 -14q-8 -11 -11 -32.5t-7 -95.5q-2 -25 -2 -63q0 -52 12 -73q11 -18 31 -18q19 0 29 16q10 13 15 75q4 52 4 116q0 39 -2 51q-5 24 -26 34zM123 592q-11 7 -20 7q-16 0 -27 -14t-19.5 -78.5t-8.5 -132.5q0 -38 4 -45q13 -25 41 -25
q19 0 30 25q5 12 10 62q1 7 3 32t3 34q5 50 5 72q0 47 -21 63zM85 621q7 2 19 2q29 0 46.5 -21.5t17.5 -53.5q0 -5 1.5 -6t8.5 -1q28 0 44 -34q5 -11 5 -57q0 -27 -12 -153q-5 -51 -26 -69q-11 -8 -26 -8h-6q-9 0 -9 -3q6 -18 6 -32q0 -9 6 -9q13 0 27 -9t20 -22
q7 -14 7 -65q0 -34 -1 -56q-3 -97 -14 -135q-5 -21 -22 -29q-13 -7 -25 -7q-19 0 -33.5 15t-18.5 36l-2 11h-17q-54 0 -64 64q-2 18 -2 45q0 37 3 91q4 64 8.5 87.5t15.5 37.5q15 18 46 18q10 0 14 -1q5 -1 6 -0.5t0 2.5q-1 1 -1.5 5.5t-0.5 6.5q0 3 -0.5 4.5t-2 2.5t-3 1
h-6.5q-19 0 -37 10.5t-26 27.5l-6 12v52q0 87 13 169q5 33 16 49.5t31 21.5z" />
    <glyph glyph-name="section" unicode="&#xa7;" horiz-adv-x="402" 
d="M131 286q10 2 18 2q28 0 45 -11q25 -16 25 -42q0 -14 -7 -22q-6 -9 -19 -9q-5 0 -35 7q-52 9 -52 39q0 6 1 10q6 20 24 26zM204 497q-16 2 -25 2q-74 0 -107 -35q-29 -29 -29 -74q0 -37 22 -65q5 -7 5 -12q0 -3 -11 -16q-20 -23 -20 -55q0 -40 26 -61q21 -18 77 -27
q43 -8 60.5 -19.5t17.5 -32.5q0 -18 -13 -28t-33 -10t-40 10t-34 10q-10 0 -20 -5q-18 -8 -18 -26q0 -8 5 -16q12 -19 39 -30.5t59 -11.5h10q62 4 95 37q31 31 31 68q0 26 -15 45q-9 11 -9 15q0 3 6 15q18 33 18 65q0 15 -4 26q-8 24 -22 41t-30.5 24.5t-54.5 14.5
q-36 7 -44 11q-24 12 -24 34q0 19 21 31q11 7 32 7q18 0 35 -5q16 -5 27 -5q7 0 10 2q7 4 14 13.5t7 16.5q0 14 -12 26q-15 15 -52 20zM137 520q9 2 38 2q42 0 57 -5q63 -18 60 -66l-1 -13l17 -6q44 -14 44 -50q0 -19 -13 -33.5t-30 -14.5q-12 0 -26 4l7 -9q18 -22 26 -43
q4 -12 16 -19q25 -14 39 -42.5t14 -60.5q0 -35 -16 -63l-6 -11l7 -10q16 -20 16 -47q0 -11 -3 -24q-15 -69 -92 -92q-19 -5 -53 -5q-35 0 -54 6q-48 16 -62 49q-4 10 -8 10q-5 0 -21 8t-24 14q-31 23 -31 54q0 25 16.5 39.5t44.5 15.5h18q-9 13 -11 20q-2 6 -5 7.5t-17 6.5
q-31 10 -48 33q-21 29 -21 69q0 42 22 65l4 5l-6 12q-15 27 -15 60v11q4 102 117 123z" />
    <glyph glyph-name="copyright" unicode="&#xa9;" horiz-adv-x="605" 
d="M202 136q-30 14 -49.5 46t-23.5 73q-1 16 -2 16l-4 -37v-11q0 -36 12 -69q10 -27 20 -38.5t34 -23.5q44 -22 90 -22q16 0 31 3q49 9 49 13q-10 -1 -24 -1h-12q-15 0 -25 2q-36 8 -63 32q-5 5 -12 7q-1 0 -4.5 2t-8 4t-8.5 4zM346 387q-8 19 -48 19q-21 0 -44 -5
q-35 -9 -62.5 -37.5t-34.5 -62.5q-3 -12 -3 -30q0 -19 4 -39q22 -83 109 -89h9q29 0 53 10q17 7 22 12.5t5 18.5q0 29 -25 29q-12 0 -24 -4q-21 -6 -35 -6q-22 0 -38 16q-23 23 -23 55q0 41 34 63q17 11 59 14q21 1 32 5q13 6 13 20q0 5 -3 11zM382 431q-20 5 -57 5
q-27 0 -27 -3q0 -1 14 -3q25 -2 42 -14t18 -32l1 -10l12 -4q23 -7 27 -24q3 -10 3 -18q0 -20 -18 -29q-9 -4 -39 -5t-42 -7q-34 -15 -37 -49v-6q0 -4 3 -4t21 5q15 5 28 5q12 0 21 -5q29 -14 29 -41q0 -7 0.5 -8t5.5 -1q15 0 25.5 -12t10.5 -28v-10q19 16 38 56q18 36 18 85
q0 20 -5 40q-7 27 -23.5 56t-34.5 45q-10 9 -34 16zM232 460q12 4 12 6q0 1 -2.5 0.5t-7.5 -2.5t-12 -4q-54 -17 -91.5 -58t-47.5 -99q-3 -18 -3 -23v-2q2 0 6 15q32 120 146 167zM57 270q0 89 51.5 146.5t131.5 73.5q17 4 38 4q53 0 99 -23q97 -49 121 -152q5 -18 5 -49
t-5 -48q-15 -62 -58 -107.5t-102 -61.5q-20 -5 -56 -5q-53 0 -93 17q-34 14 -63.5 41.5t-45.5 58.5q-23 46 -23 105zM542 205q2 16 0 16q-1 0 -1 -4q0 -16 -23 -65q-41 -81 -119 -121l-23 -12q16 0 50 17q49 25 80 71t36 98zM543 229l1 -2q2 3 0 4q-1 1 -1 -2zM379 490
q-44 21 -96 21q-55 0 -110 -25q-96 -45 -128 -156q-6 -22 -6 -57q0 -37 4 -54q16 -70 63.5 -119t118.5 -66q24 -6 58 -6q29 0 46 4q72 16 124 71t65 129q3 17 3 42q0 18 -2 34q-10 59 -47 107t-93 75zM258 535q9 1 20 1q16 0 33 -2q53 -5 103 -34t81 -74q7 -11 11 -13
t19 -20t22 -29q42 -64 42 -136q0 -84 -52 -154t-130 -94q-33 -10 -74 -10q-79 0 -148 46q-17 12 -27 16q-36 17 -68 49q-53 53 -70 129q-5 21 -5 60q0 41 6 64q20 84 85 138.5t152 62.5z" />
    <glyph glyph-name="registered" unicode="&#xae;" horiz-adv-x="606" 
d="M243 380q4 4 14 4q23 0 34 -14q5 -7 5 -18q0 -9 -3 -15q-7 -14 -32 -18q-1 0 -3 -0.5t-3 -0.5q-7 0 -9.5 5t-4.5 23l-2 24q0 6 4 10zM318 155q0 -28 -8.5 -39t-32.5 -11q-16 0 -22.5 4t-10.5 17l-4 12l-13 -1h-4q-23 0 -35 14q-9 10 -13.5 38t-8.5 110q-4 65 -5 65
q-3 0 -12.5 -18.5t-15.5 -36.5q-10 -29 -10 -62q0 -51 23 -97q8 -16 22 -24q37 -24 79 -33q15 -3 31 -3q72 0 117 36l-9 10q-13 14 -23 14q-16 0 -34 18l-11 10v-23zM298 417q-18 5 -71 5q-18 0 -23 -1q-32 -7 -32 -23q0 -8 7 -16q7 -11 9 -37q7 -112 11 -144.5t11 -36.5
q2 -2 13 -2q21 0 27 14q2 6 2 17q0 19 -3 47q-1 6 -1 16q0 14 14 18q6 2 8 2q7 0 22 -21q49 -67 62 -76q9 -6 18 -6q10 0 17 5.5t7 12.5t-26 43q-46 62 -46 69q0 8 12 23q16 19 16 38q0 39 -54 53zM360 455q-8 1 -22 1q-22 0 -51 -6q-10 -2 -10.5 -4t9.5 -2q21 0 49 -14
q24 -12 35 -38q4 -11 17 -19q31 -20 31 -50t-28 -63l9 -13q45 -65 49 -65q1 0 10 16q23 43 23 89q0 64 -44 125q-17 22 -32.5 30.5t-44.5 12.5zM239 482l8 4q-2 1 -20 -5q-64 -19 -102.5 -67.5t-42.5 -113.5v-13l1 6q8 50 41 99q19 27 52.5 53.5t62.5 36.5zM250 511
q18 2 27 2q40 0 78 -12q46 -16 83 -52.5t54 -84.5q13 -35 13 -74q0 -65 -35.5 -121.5t-95.5 -84.5q-38 -18 -91 -18q-36 0 -66 9q-48 14 -86 47.5t-57 77.5q-17 40 -17 94q0 20 3 35q14 74 65.5 123t124.5 59zM376 38q71 15 116 67.5t53 124.5v16q-3 -8 -5 -18
q-13 -58 -51.5 -106t-94.5 -75zM412 491q-61 40 -127 40q-10 0 -32 -2q-60 -7 -112.5 -44.5t-75.5 -85.5q-17 -38 -22 -72q-3 -18 -3 -45q0 -24 3 -37q15 -79 69 -130q73 -67 172 -67q57 0 102 23q51 25 85.5 70t46.5 99q6 27 6 50q0 9 -2 23q-17 114 -110 178zM226 550
q30 6 68 6q46 0 95 -23q59 -26 102 -81q7 -9 27 -29.5t35 -46.5q37 -61 37 -132q0 -70 -36 -130q-74 -124 -219 -124q-80 0 -147 45q-21 14 -31 19q-39 20 -70 53q-28 29 -43 58q-29 57 -29 123q0 85 49 158q25 37 69 65t93 39z" />
    <glyph glyph-name="macron" unicode="&#xaf;" horiz-adv-x="498" 
d="M291 603q-44 4 -136 4q-61 0 -69 -2q-21 -4 -34.5 -16t-13.5 -27q0 -18 22 -26q54 -23 234 -23q57 0 72 4t24.5 15.5t9.5 25.5q0 5 -5 14t-10 12q-18 13 -94 19zM81 629q18 2 68 2q84 0 126 -3q72 -5 107 -15q40 -10 40 -56v-19l19 -4q22 -5 31.5 -15t9.5 -31v-7
q-1 -32 -39 -47q-10 -4 -92 -4q-140 0 -199.5 14.5t-55.5 47.5l1 8l-19 5q-64 15 -64 57v6q2 22 21.5 39.5t45.5 21.5z" />
    <glyph glyph-name="degree" unicode="&#xb0;" horiz-adv-x="374" 
d="M112 509q12 22 40 22q24 0 39 -16q14 -15 14 -37q0 -21 -15 -38t-33 -19h-4q-33 0 -45 37q-2 10 -2 18q0 21 6 33zM256 551q-33 55 -100 55q-49 0 -83.5 -36.5t-34.5 -91.5q0 -22 6 -44q7 -28 31 -53q35 -35 83 -35q31 0 58 14q48 24 57 83q1 5 1 21q0 40 -5 58
q-5 17 -13 29zM131 628q12 3 26 3t29 -3q52 -11 79 -45q24 -31 24 -44q0 -2 11 -9q47 -32 57 -98q3 -18 3 -34q0 -62 -35 -98.5t-95 -37.5q-35 0 -64.5 16t-45.5 41q-7 10 -15 12q-34 10 -58.5 44t-31.5 76q-1 6 -1 24q0 35 3 47q11 41 41 69t73 37z" />
    <glyph glyph-name="acute" unicode="&#xb4;" horiz-adv-x="259" 
d="M152 587q-16 19 -26 19q-17 0 -56 -61q-31 -49 -31 -66q0 -19 28 -19q15 0 24 7q8 6 27 27t27 33q13 21 13 39q0 12 -6 21zM116 630q3 1 8 1q15 0 31 -12t22 -24q6 -11 6 -29q0 -8 -1 -11q0 -10 2 -10q6 3 12 3q17 0 32.5 -17.5t15.5 -36.5q0 -30 -44 -80
q-36 -40 -59 -40q-4 0 -16 2q-10 1 -20 10l-8 8v16l9 36q-21 -11 -39 -11q-24 0 -38.5 11.5t-14.5 31.5q0 27 46 97q32 47 56 55z" />
    <glyph glyph-name="paragraph" unicode="&#xb6;" horiz-adv-x="512" 
d="M273 602q-11 9 -26 7q-1 0 -12 -8q-7 -6 -36 -8q-62 -4 -98.5 -27t-52.5 -71q-9 -29 -9 -65q0 -14 1 -21q9 -95 68 -124l16 -8l44 -1q44 0 47 -4q2 -3 2 -81q0 -154 13 -180q6 -13 24 -13q12 0 17.5 6.5t9.5 23.5q3 16 3 238q0 236 -1 256q0 7 -0.5 15.5t-0.5 10.5
q0 11 3 14t33 3h11q16 0 20 -3t4 -17q0 -3 -0.5 -12.5t-0.5 -16.5q-2 -44 -2 -247q0 -205 3 -224q4 -21 10 -29t19 -8q18 0 23 20q6 18 6 335q0 158 -3 185q-5 40 -11 49q-7 9 -19 9t-19 -7q-5 -4 -38 -4q-40 0 -48 7zM408 -10q-21 -7 -27 -7h-6q-4 0 -5.5 -4t-4.5 -24
q-4 -31 -20 -38q-8 -4 -20 -4q-13 0 -22 5q-10 5 -13.5 12.5t-6.5 28.5l-3 19l-7 -2q-9 -3 -18 -3q-33 0 -46 23q-15 28 -15 152q0 46 -4 46q-2 0 -20 8q-28 14 -45 44q-5 8 -18 13q-75 25 -89 135q-3 21 -3 41q0 79 38 123q46 53 142 60q22 1 28 6q10 9 31 9q12 0 26 -6
q13 -6 37 -7q5 0 10 -0.5t7 -0.5q6 0 16 5q10 7 26 7q17 0 30 -8q17 -12 24 -51l4 -24h14q31 0 38 -27q10 -39 10 -191q0 -103 -1 -174q-2 -149 -3.5 -177.5t-8.5 -40.5q-9 -15 -30 -15q-25 0 -34 18q-10 18 -10 40z" />
    <glyph glyph-name="Agrave" unicode="&#xc0;" horiz-adv-x="577" 
d="M235 319q7 5 12 5q11 0 20 -18q21 -46 21 -58q0 -8 -7 -11t-32 -5q-20 -2 -27 -2h-6l-3 1q-5 3 -5 10q0 8 4 23q13 46 23 55zM314 525q-10 21 -53 21q-35 0 -52 -13q-9 -6 -14 -20q-4 -8 -98 -291q-5 -10 -24 -16q-29 -8 -33 -34q-1 -4 -1 -12q0 -21 18 -46q6 -8 6 -15
t-6 -34q-6 -30 -6 -35q0 -12 9 -24t20 -16q9 -3 26 -3q18 0 24 3q17 7 34 37q2 3 16 35t19 37q4 4 11 4q43 0 100 6q19 2 22 0q4 -2 18 -30q22 -42 30.5 -53.5t20.5 -16.5q9 -4 22 -4q33 0 47 19q6 8 6 23q0 14 -42 136q-10 30 -39 113t-40 115q-39 111 -41 114zM200 738
l-9 4q-2 0 -11 -6q-21 -14 -21 -35q0 -22 27 -56q42 -52 62 -52q7 0 16 3q16 4 16 17t-16 41q-42 74 -64 84zM157 749q18 18 35 18q29 0 67 -58q16 -24 33 -41q18 -18 41 -54.5t28 -55.5q3 -12 3 -19q0 -9 -9 -17l-10 -10l5 -12q3 -9 5 -11t12 -5q24 -7 36 -38
q6 -16 36 -103q56 -162 93 -267q29 -81 29 -101t-3 -25q-16 -29 -62 -29q-6 0 -18 2q-28 7 -46 38l-12 19l-10 1q-33 5 -52 34l-5 7l-34 -2q-7 0 -15 -0.5t-11 -0.5t-7 -0.5t-5.5 -2.5t-3.5 -5t-4 -8q-19 -46 -38 -71q-19 -24 -40 -28q-14 -2 -20 -2q-28 0 -47 14.5
t-19 39.5q0 4 -1.5 5t-7.5 1q-48 0 -67 39q-6 12 -6 27q0 16 6 41l6 27l-8 11q-15 21 -15 55q0 57 48 67l9 3l13 36q3 9 17 52.5t23 69.5q41 126 55 150q8 14 49 28q5 2 1 4l-6 3q-14 7 -39 32.5t-38 47.5q-13 23 -13 45q0 28 22 49z" />
    <glyph glyph-name="Aacute" unicode="&#xc1;" horiz-adv-x="568" 
d="M247 315q12 12 25 -1q7 -7 18 -47q5 -22 5 -27q0 -12 -16 -12q-3 0 -12 0.5t-16 0.5q-32 1 -35 6t6 29q14 40 25 51zM318 536q-16 4 -38 4q-18 0 -27 -3q-12 -4 -18.5 -10.5t-16.5 -27.5q-50 -108 -82 -187q-33 -79 -35 -83q-7 -11 -23 -11q-17 0 -27 -13t-10 -35
q0 -25 13 -43q6 -7 6 -14t-10 -37q-9 -27 -9 -35q0 -14 9 -26t23 -16q11 -3 24 -3q16 0 24 4q21 9 63 85l10 17l64 -1h20.5t19 -0.5t15 -1t10.5 -0.5h4q3 0 17 -33q19 -45 27 -57.5t22 -18.5q12 -4 21 -4q30 0 43 16q10 13 10 25q0 11 -11 57q-5 24 -53 212t-55 211
q-8 24 -30 29zM362 736q-9 9 -11 9q-16 -2 -50 -41q-51 -62 -51 -81q0 -8 9.5 -14t21.5 -6q7 0 15 3q13 5 41 32t35 40q7 14 7 26q0 15 -17 32zM329 763q12 5 20 5q32 0 49 -38q5 -12 5 -27t-3 -24l10 4q12 3 17 2q33 -12 36 -50v-10q0 -10 -7 -23q-6 -13 -29 -36
q-47 -45 -55 -45v-3q0 -3 1 -8l2 -10q5 -20 9 -20q11 0 25 -8.5t18 -17.5q6 -16 41 -156q18 -72 59 -230q23 -86 24 -98q1 -5 1 -15q0 -49 -59 -52h-7q-44 0 -63 41l-8 17l-14 2q-41 8 -57 43l-6 11h-27q-9 0 -21 1l-12 1q-4 0 -14.5 -19.5t-27 -44.5t-32.5 -35
q-9 -6 -25 -7q-2 0 -6 -0.5t-6 -0.5q-62 0 -68 50l-1 11h-10q-26 0 -47 15q-9 6 -17 22t-8 29q0 12 10 45l9 27l-5 8q-14 23 -14 52q0 39 22 57q15 13 33 13h1q7 0 11.5 8.5t25.5 60.5q89 213 107 233q19 22 69 22h6l18 -1l6 14l6 13q-5 -3 -12 -6q-16 -7 -28 -7
q-11 0 -24 5q-32 12 -32 38q0 25 35 72q18 24 38.5 44.5t30.5 25.5z" />
    <glyph glyph-name="Acircumflex" unicode="&#xc2;" horiz-adv-x="576" 
d="M240 317q4 4 11 4q12 0 20 -17q5 -10 12.5 -34t7.5 -28q0 -7 -6.5 -9t-33.5 -4q-13 -1 -27 -1q-8 0 -10 2q-4 3 -4 8q0 6 6 27q13 44 24 52zM315 531q-17 11 -45 11q-44 0 -59 -20q-16 -20 -81 -211q-31 -88 -33 -93q-5 -7 -22 -11q-22 -4 -29 -19q-6 -12 -6 -27
q0 -22 13 -41q10 -13 10 -19q0 -7 -7 -35q-8 -30 -8 -37q0 -5 4 -15q12 -26 50 -26h7q22 1 35 15.5t35 58.5q17 36 25 37q30 5 117 5h12l22 -43q5 -11 11 -22t10 -18l4 -7q1 -2 14 -11q12 -6 28 -6q17 0 30 7q23 12 23 32q0 4 -4 22q-7 23 -31.5 101t-52 164t-32.5 102
q-31 99 -40 106zM282 728q-12 6 -30 6q-24 0 -34 -9q-5 -5 -36.5 -46.5t-36.5 -51.5q-3 -5 -3 -9q0 -13 23 -18q3 -1 9 -1q16 0 52 43q24 28 26 29h2q9 0 28 -24q28 -37 39 -42q6 -3 19 -3t19 3q13 6 13 16q0 7 -4 14q-11 20 -42 53.5t-44 39.5zM227 755q10 2 31 2
q22 -1 36 -8t36 -29q44 -44 58 -70q1 -1 19 -22q39 -41 47 -63q3 -7 3 -16q0 -14 -8 -19q-16 -13 -42 -13q-7 0 -15 2q-17 5 -44 40q-14 19 -21 19q-5 0 -12 -8l-8 -8l10 -3q13 -6 21 -17t17 -36l8 -22l13 -4q24 -8 32 -27q4 -8 23 -69q19 -60 54 -169t39 -122
q31 -96 33 -104q3 -12 3 -23q0 -44 -54 -53q-4 -1 -11 -1q-23 0 -43 13q-12 8 -22 27l-11 20l-11 1q-16 2 -33 13.5t-22 24.5q-3 6 -15 6q-23 0 -36 -1l-24 -1l-11 -25q-22 -49 -46 -71q-14 -13 -28 -15t-20 -2q-28 0 -46.5 13.5t-20.5 37.5q-1 7 -2.5 8t-6.5 1
q-47 0 -66 39q-7 14 -7 28q0 11 7 42l6 26l-7 12q-14 23 -14 51q0 36 21 56q13 11 35 16q6 1 19 41q65 195 94 255q8 12 9 14q5 5 7 13q5 13 42 64q13 17 13 20q-3 -4 -11 -14q-38 -47 -70 -50h-4q-18 0 -34 9.5t-18 22.5q-1 4 -1 10q0 19 43 77q26 36 38.5 47t27.5 14z" />
    <glyph glyph-name="Atilde" unicode="&#xc3;" horiz-adv-x="578" 
d="M234 317q7 7 13 7q16 0 34 -50q7 -20 7 -27q0 -5 -3 -8q-2 -2 -26 -5.5t-37 -3.5q-7 0 -8 1q-9 2 -2 28q14 50 22 58zM64 98q0 -4 -6 -34t-6 -34q0 -19 15 -31t38 -12q11 0 22 3q27 7 58 79q11 23 15 28.5t11 5.5q45 0 99 6q20 2 22 1q4 -2 25 -41q19 -35 25.5 -45
t15.5 -14q7 -4 27 -4q18 0 31 6q13 7 17.5 14.5t4.5 22.5q0 9 -14 51q-50 148 -127 363q-16 50 -22 60q-8 17 -29 21q-14 2 -22 2q-34 0 -52 -12q-10 -6 -18 -24q-21 -48 -55 -157q-41 -130 -48 -139q-3 -4 -15 -7q-36 -9 -36 -44q0 -22 14 -44q10 -15 10 -21zM283 574l-4 4
q-2 -2 -3 -4q-2 -3 -1 -3.5t5 -0.5q5 0 5.5 0.5t-2.5 3.5zM231 722q-11 3 -20 3q-27 0 -50 -18q-9 -7 -19.5 -22t-14.5 -26q-3 -7 -3 -15q0 -13 8.5 -21.5t22.5 -8.5q18 0 30 22q11 22 17 25q9 5 24 -9q39 -35 75 -42q5 -1 14 -1q33 0 55 21.5t24 49.5v5q0 19 -19 29
q-7 3 -14 3q-11 0 -18.5 -7.5t-8.5 -19.5q-2 -11 -5 -15t-13 -4h-5q-20 1 -50 29q-19 19 -30 22zM156 590q-24 0 -40 14t-16 37q0 32 27.5 65.5t58.5 41.5q12 3 29 2q33 -1 62 -29q26 -25 31 -25q2 0 2 4q0 16 15 28t33 14h6q25 0 40 -17t15 -44q0 -11 -3 -23q6 1 17 1
q24 0 35 -12q12 -12 12 -34t-12 -43t-36 -33.5t-50 -12.5q-13 0 -30 5l-14 4q0 -1 8 -22t8 -22q0 -2 4 -2q5 0 16.5 -5.5t15.5 -9.5q7 -7 45 -117q6 -17 9.5 -27.5t10 -28.5t12.5 -35q7 -20 21.5 -61t26 -74t18.5 -53q29 -81 29 -101t-3 -25q-16 -29 -63 -29q-6 0 -18 2
q-28 7 -46 38l-11 19l-10 2q-34 5 -57 40l-35 -2q-7 0 -15 -0.5t-11 -0.5t-6.5 -0.5t-5 -2.5t-3.5 -5t-4 -8q-19 -46 -38 -71q-18 -24 -41 -28q-14 -2 -20 -2q-34 0 -52 20q-14 16 -14 34q0 4 -1.5 5t-7.5 1q-48 0 -67 40q-5 12 -5 25q0 15 6 42l5 27l-6 9q-17 23 -17 55
q0 25 11.5 44.5t32.5 23.5q1 0 4 1q11 3 13 9q0 1 1 3q7 17 23 72q61 192 78 223q7 13 5 20q-2 8 -2 13q0 16 6 30q-20 -9 -32 -9z" />
    <glyph glyph-name="Adieresis" unicode="&#xc4;" horiz-adv-x="570" 
d="M247 323q13 6 21 -2q10 -10 20 -47q6 -22 6 -26t-3 -8q-4 -5 -36 -6h-14q-27 0 -27 11q0 8 8 30q14 42 25 48zM320 539q-12 6 -36 7h-8q-26 0 -37.5 -6.5t-21.5 -25.5q-23 -45 -78 -186q-36 -91 -37 -93q-5 -11 -26 -15q-35 -6 -35 -48q0 -23 14 -43q5 -8 5 -15
q0 -6 -8 -35q-9 -29 -9 -37q0 -18 17 -30.5t39 -12.5h6q21 2 36 18t38 60q11 22 16 27q5 3 96 3q37 0 38 -1q2 -1 13 -23t21.5 -45t11.5 -24q13 -18 45 -18q13 0 24 4q20 8 24 25q2 8 2 13q0 15 -17 73q-70 247 -84 302q-28 104 -34 115q-4 6 -15 11zM363 693q-7 4 -16 4
q-12 0 -20 -9t-8 -23q0 -7 1 -11q5 -23 19 -27q3 -1 10 -1q22 0 28 22q2 6 2 16q0 20 -16 29zM247 695q-6 2 -10 2q-14 0 -25.5 -12t-11.5 -26q0 -29 26 -29q25 0 33 22q3 8 3 15q0 21 -15 28zM377 607q-17 -5 -23 -5h-8v-10q0 -9 -6 -21q-7 -12 -3 -13q15 -5 26 -40
q7 -20 10.5 -25.5t11.5 -7.5q19 -6 27 -15.5t14 -30.5q9 -30 28.5 -100t43 -155t30.5 -109q24 -87 26 -103v-8q0 -33 -29 -45q-18 -8 -35 -8q-25 0 -45 14q-11 8 -19 26l-9 19l-14 2q-38 7 -54 38l-6 11l-22 2q-12 1 -34 1h-11l-14 -27q-31 -57 -56 -75q-10 -6 -36 -6
q-27 0 -39 6q-25 13 -30 43l-1 10h-10q-40 0 -57 26q-14 22 -14 41q0 13 8 42l8 27l-8 16q-11 24 -11 47q0 29 15 49t41 20q5 0 8 5q1 1 4 9.5t9 24t11 27.5q81 213 104 239q15 17 42 21l10 1q-2 10 -2 15q0 17 8 33l-10 -5q-13 -7 -31 -7q-23 0 -35 12q-15 14 -15 39
q0 9 3 20q13 44 59 44q21 0 37 -17q12 -14 12 -37q0 -15 -6 -27l-2 -8q3 3 18 6v24q0 24 4.5 33.5t18.5 18.5q9 6 28 6q27 0 42 -15t15 -39q0 -8 -1 -12q-2 -16 -3 -17t-0.5 -1t2.5 1q9 3 17 3q19 0 32.5 -14t13.5 -34q0 -1 -0.5 -3t-0.5 -4q-3 -26 -20 -37q-10 -7 -24 -7
q-17 0 -28 10q-15 12 -15 41v15z" />
    <glyph glyph-name="Aring" unicode="&#xc5;" horiz-adv-x="578" 
d="M236 322q5 4 11 4q11 0 20 -18q5 -10 13 -31.5t8 -26.5q0 -8 -7 -10.5t-32 -4.5q-24 -2 -31 -2h-5q-5 2 -5 9q0 8 6 30q12 41 22 50zM259 612q-5 8 -13 -3q-5 -6 -5 -13v-8q15 18 16 19t2 2.5t0 2.5zM239 635q7 4 15 4q15 0 26 -12.5t11 -30.5t-11 -30t-26 -12
q-4 0 -12 2q-26 10 -26 41q0 27 23 38zM345 514q0 -2 1.5 -0.5t0.5 2.5t-1.5 0t-0.5 -2zM329 536q14 26 14 56q0 39 -22.5 67.5t-60.5 28.5q-24 0 -28 -1q-25 -6 -44.5 -27.5t-21.5 -50.5v-11q0 -40 20 -70q9 -12 7 -15q0 -1 -2.5 -7.5t-6.5 -18.5t-8 -22q-21 -55 -35 -101
q-46 -144 -48 -146q-6 -7 -23 -11q-31 -6 -31 -43q0 -9 1 -13q3 -17 16 -33q8 -11 8 -18q0 -4 -7 -37q-6 -24 -6 -32q0 -9 6 -18q14 -22 42 -23h8q19 0 31 8.5t26 31.5q8 12 20 41q11 26 15 30t31 5q51 3 92 7q7 2 11 -2q3 -1 27 -45t25 -45q13 -13 40 -13q32 0 45 17
q6 9 6 24q0 9 -1 13q-3 16 -37 112q-9 26 -117 336q-2 6 8 26zM188 693q30 21 68 21q39 0 66 -21t37 -55q3 -11 15 -17q24 -12 38 -41.5t14 -63.5q0 -38 -18 -66q-2 -4 -2 -6q0 -7 10 -33q3 -9 18 -52t24 -69q21 -64 64 -183q40 -113 40 -130v-7q-1 -20 -14 -30
q-20 -17 -51 -17q-13 0 -19 2q-28 7 -46 38l-11 19l-11 2q-34 5 -52 33l-5 7l-34 -1q-36 -2 -38 -3t-8 -15q-28 -66 -51 -86q-13 -11 -42 -14h-7q-26 0 -43.5 13.5t-20.5 36.5l-1 9h-9q-42 0 -61 31q-11 17 -11 37q0 15 6 39l6 26l-9 14q-14 22 -14 56q0 56 49 65
q8 1 10.5 6t11.5 34q37 122 61 191l18 49l-7 14q-17 30 -17 73q0 30 6 43q17 35 40 51z" />
    <glyph glyph-name="AE" unicode="&#xc6;" horiz-adv-x="858" 
d="M325 333q12 7 24 0q15 -9 16 -36q0 -3 0.5 -9t0.5 -9q0 -55 -7 -62q-3 -3 -25 -3h-24q-39 1 -46.5 2.5t-7.5 10.5t31 59q25 40 38 47zM554 544q-60 2 -81 2q-24 0 -72 -2q-52 -2 -66 -14q-25 -20 -141 -213q-50 -83 -64 -91q-7 -4 -23 -4q-27 0 -37 -20q-8 -16 -8 -29
q0 -11 5 -23q5 -13 5 -19q0 -8 -7 -19q-24 -40 -24 -57q0 -4 2 -10q4 -12 21.5 -22.5t36.5 -10.5q10 0 22 5q38 19 81 89q6 11 12 17q1 1 71 1q69 0 72 -3t4 -36q1 -56 27 -72q28 -19 179 -19q42 0 99 3q47 4 61 8.5t21 17.5q8 14 8 40q0 23 -7 34q-8 14 -58 14
q-31 0 -100 -3q-14 0 -29.5 -0.5t-23.5 -1t-13 -0.5q-14 0 -17 3t-3 12q0 3 0.5 8.5t1 15t0.5 18.5q4 52 4 53q1 5 34 7.5t74.5 6.5t58.5 14q14 8 14 33q0 39 -22 45q-23 7 -112 7q-30 0 -34 3t-4 23v24q0 41 3 47q3 3 75 3q74 0 88 4q39 10 48 34q5 15 5 27q0 28 -13 34
q-18 9 -174 16zM369 567q26 2 77 2q125 0 197 -6q59 -5 79 -8.5t28 -12.5q17 -18 15 -54v-11l19 -3q24 -3 32 -13.5t8 -37.5q0 -35 -17 -53q-26 -26 -97 -26h-22l7 -4q10 -6 17 -24t7 -36q0 -10 2 -11t22 -4q14 -3 19 -8q16 -18 16 -50q0 -39 -23 -48q-30 -15 -129 -20
q-29 -1 -30 -4q0 -1 0.5 -1.5t4.5 -0.5t9 0.5t15 0.5q17 1 68 1q55 0 69 -12q21 -17 21 -57v-12l14 -1q26 -3 38 -23q7 -13 7 -39t-7 -41q-10 -22 -30 -28t-98 -11q-13 -1 -59 -1q-153 0 -190 18q-25 13 -31 37q0 2 -1 4.5t-2 4.5v2q0 2 -14 4q-53 12 -67 57q-1 4 -24 4h-23
l-18 -27q-41 -62 -79 -80q-16 -8 -26 -8q-8 0 -25 5q-41 13 -48 44l-3 10l-14 4q-56 12 -65 58q-2 10 -2 14q0 14 19 48l12 23l-4 11q-4 9 -4 27q0 30 12 50q17 27 48 27q14 0 20 3q10 9 64 98q28 47 74 116t56 79q19 19 56 24z" />
    <glyph glyph-name="Ccedilla" unicode="&#xc7;" horiz-adv-x="563" 
d="M354 -189q-8 8 -10.5 9t-13.5 -4q-10 -8 -19 -12l-10 -5h14q24 0 39 12zM369 535q-28 5 -68 5q-14 0 -18 -1q-31 -4 -71 -23t-70 -42q-46 -36 -74 -102t-28 -138q0 -87 45 -147q21 -29 56 -53.5t71 -34.5q19 -6 19 -13q0 -5 -8 -21q-10 -20 -10 -31q0 -17 34 -21
q19 -2 33.5 -10.5t14.5 -17.5q0 -15 -15.5 -22.5t-37.5 -7.5q-11 0 -29 4q-10 3 -20 3q-7 0 -13 -6.5t-6 -14.5q0 -5 8 -12t18 -10q18 -5 49 -5q12 0 26 2q60 14 60 65q0 25 -11 38t-36 25q-17 9 -18 16q-1 5 3 13.5t8 11.5q2 2 21 4q61 5 91 20q31 15 31 67q0 14 -6 28
q-16 37 -60 37q-19 0 -30 -2q-22 -3 -45 -3q-22 0 -34 3q-24 7 -44.5 31t-27.5 55q-2 8 -2 31q0 30 4 45q7 28 28.5 53.5t46.5 36.5t62 11q25 0 46 -4q30 -5 45 -5q37 0 50 28q6 12 6 34t-5 32q-19 36 -89 48zM226 -210q-31 0 -53.5 13.5t-22.5 38.5q0 28 24 41q6 3 21 3
q11 0 19 -2q8 -4 26 -4q3 0 7.5 0.5t6.5 0.5l13 1q-19 6 -32 8q-48 7 -48 42q0 9 5 24q2 4 -8 10q-3 3 -19.5 18.5t-27.5 21.5q-73 46 -104 124q-17 45 -17 107q0 65 18 120q18 52 51 94q27 33 51 50.5t86 45.5q27 12 50 15q7 1 31 1q54 0 74 -4q47 -8 76 -30t33 -52l2 -11
l13 -7q28 -14 40 -36q5 -10 6 -38v-14q0 -14 -5 -25q-11 -26 -37 -34q-11 -4 -25 -4q-15 0 -53 6q-25 4 -45 4t-38 -6q-22 -8 -42 -24.5t-29 -35.5q-14 -30 -14 -67q0 -22 4 -24q6 -2 16 -2q13 0 37 3q26 3 42 3q35 0 57 -16q27 -20 32 -56q1 -10 12 -13q9 -3 17 -9
q5 -4 14.5 -16t9.5 -16q0 -3 4 -11q5 -10 5 -24q0 -21 -8 -43.5t-20 -29.5q-29 -19 -100 -25q-21 -1 -22 -6q0 -2 1 -5q1 -6 15 -13q19 -9 32.5 -28t13.5 -43q0 -10 -5 -27q-6 -17 -25 -32t-41 -20q-7 -2 -32 -2q-34 0 -49 4q-23 6 -31 19q-5 8 -5 22q0 7 1 10q2 3 0.5 4
t-8.5 1z" />
    <glyph glyph-name="Egrave" unicode="&#xc8;" horiz-adv-x="532" 
d="M156 506q-21 15 -44 15q-8 0 -16 -3q-17 -8 -37 -38q-18 -28 -18 -43q0 -10 6 -22q7 -14 7 -195q0 -169 7 -199q2 -9 12.5 -19t21.5 -14q7 -2 37 -4h14q109 0 217 17q39 6 51 13t17 27q2 6 2 20q0 33 -15 44q-9 6 -39 6q-34 0 -108.5 -8t-83.5 -8q-5 0 -6 1q-3 2 -3 55
q0 51 4 55q2 2 44 7q104 13 118 29q11 13 11 30q0 11 -7 27q-6 12 -15 14.5t-43 2.5t-70 -2q-10 -1 -23 -1q-17 0 -18 7q-4 12 -4 72q0 10 10.5 12t54.5 4q108 5 118 8q5 1 14 8q14 11 14 39q0 29 -12 37q-8 5 -82 5q-68 0 -100 -4l-24 -2zM178 724q-10 6 -11 6
q-2 0 -11.5 -7t-11.5 -10q-8 -9 -8 -25q0 -15 7 -28q8 -17 32.5 -44t35.5 -32q6 -3 15 -3q23 0 29 12q1 1 1 5q0 15 -19 47q-37 65 -59 79zM156 751q8 2 11 2q29 0 69 -59q17 -28 23 -33q1 0 11 -9q17 -16 40.5 -54.5t27.5 -55.5l3 -12l18 -1q52 -4 52 -64v-19h19l20 -1
l8 -9q13 -14 13 -42q0 -51 -33 -60q-23 -7 -63 -7h-13l8 -15q7 -13 8 -34l1 -20h10q41 0 50 -47q1 -4 1 -11q0 -34 -22 -46q-15 -8 -56 -16l-14 -3l31 1q30 0 38.5 -2t18.5 -11q20 -18 21 -51l1 -18l16 -1q30 -1 40 -32q2 -6 2 -27q0 -29 -4 -38q-6 -18 -23 -27
q-14 -7 -87.5 -16t-148.5 -13q-17 -1 -43 -1q-55 0 -78 24q-12 12 -15 31q-1 6 -7 6q-13 0 -32 9t-27 19q-12 16 -16 36q-6 42 -6 256v113l-7 15q-6 14 -6 28q0 24 22 58q23 33 45 45q12 6 30 6q30 0 51 -13q10 -7 28 -6q4 0 17 1t17 2l15 1l-12 14q-11 13 -15 13
q-21 0 -68 55q-36 44 -36 75q0 14 6 26q13 29 40 38z" />
    <glyph glyph-name="Eacute" unicode="&#xc9;" horiz-adv-x="523" 
d="M152 507q-19 13 -36 13q-38 0 -69 -59q-8 -18 -8 -24q0 -5 5 -17q6 -13 6 -58q0 -11 -0.5 -36.5t-1.5 -62t-1 -61.5q-1 -40 -1 -97q0 -79 7 -93q8 -17 35 -26q10 -3 75 -3q173 0 230 17q29 8 29 56q0 36 -21 44q-8 3 -32 3q-35 0 -113 -6q-68 -5 -70 -5q-10 0 -18 5l1 51
q1 51 4 54q2 2 48 7q52 5 77.5 10t37 13t13.5 21q0 1 0.5 5t0.5 5q0 30 -16 41q-10 6 -72 6h-27h-18q-34 0 -38 2q-6 4 -6 56q0 27 4 30q6 6 90.5 6.5t98.5 8.5q21 11 21 43q0 8 -1 12q-4 25 -22 28q-10 2 -104 2l-95 1zM296 706q-9 9 -16 9q-5 0 -14 -6q-13 -9 -47 -54
q-30 -41 -34 -60q-4 -14 19 -21q6 -2 10 -2q22 0 63 44q34 35 34 59q0 17 -15 31zM471 386q0 -41 -22 -53.5t-74 -12.5h-18l7 -14q10 -20 10 -40q0 -9 -1 -13l15 -2q28 -3 37 -21t9 -37q0 -22 -10 -35q-12 -16 -75 -26l-30 -5h41q35 0 46 -2t20 -10q9 -7 15.5 -25.5
t6.5 -35.5v-9h12q36 0 43 -33q4 -15 4 -31q0 -48 -32 -62q-35 -15 -231 -22h-27q-52 0 -68 6q-38 13 -43 54l-13 2q-22 4 -40 17.5t-25 31.5q-5 13 -6 59v30q0 39 2 145q2 64 2 124q0 34 -5 43t-5 27q0 21 7 34q27 52 63 69q13 5 27 5q29 0 53 -16l11 -7l33 2l33 3
q1 11 7 24l5 11l-11 -7q-10 -5 -19 -5h-12q-52 2 -52 43q0 26 34 73q42 58 68 71q8 4 17 4q16 0 33 -16q23 -20 23 -47q0 -15 -2 -21q0 -1 -1 -3l1 -1l1 1q7 4 16 4q16 0 27.5 -13.5t15.5 -27.5q2 -8 2 -13q0 -27 -32 -62q-9 -10 -12 -14t-2 -5q60 0 60 -61v-21h8
q28 0 40.5 -13t12.5 -41z" />
    <glyph glyph-name="Ecircumflex" unicode="&#xca;" horiz-adv-x="515" 
d="M161 509q-22 15 -38 15q-17 0 -32 -12q-14 -10 -27.5 -29.5t-16.5 -33.5q-2 -11 2 -22q5 -11 5 -44q0 -3 -5 -106q-8 -131 -8 -208q0 -38 3 -47q9 -26 52 -34q9 -2 92 -2q91 0 115 2q84 5 97 17q14 12 15 40v9q0 34 -21 42q-14 4 -50 4q-12 0 -68 -2q-80 -4 -90 -4h-3
q-9 0 -12.5 1t-5.5 4.5t-2 13.5q0 3 2 35q0 10 1 21.5t1.5 18.5t0.5 8q0 8 7.5 10t46.5 4q85 6 107 16q12 5 16 12t4 26q0 25 -12 37q-7 7 -96 10q-58 1 -61 4q-3 5 -3 43q0 39 5 42q4 3 88 3q86 0 89 1q14 4 21 11t11 21q3 10 3 20q0 17 -9 29q-3 6 -20 8q-53 7 -133 7h-57
zM334 544q-19 24 -27 24q-7 0 -24 -20l-18 -22q-1 -2 3.5 -2.5t15.5 -0.5q13 0 69 -4q-8 12 -19 25zM263 718q-11 7 -31 7q-13 0 -22 -3q-11 -2 -49 -52q-37 -49 -37 -59q0 -7 9 -13t20 -6h4q16 3 49 42q25 30 32 30q1 0 7 -4q5 -5 20 -25q29 -40 47 -43q2 0 4 -0.5t4 -0.5
q12 0 22.5 5.5t10.5 14.5q0 4 -1 6q-4 13 -42 58q-31 35 -47 43zM205 747q5 1 33 1q36 -1 60 -24q32 -28 63 -72q11 -16 22 -28q44 -49 53 -76q2 -6 2 -9q0 -19 -27 -29l-12 -3l4 -5q17 -15 17 -48q0 -2 -0.5 -4t-0.5 -4q-1 -6 0 -7t6 -2q28 -4 33.5 -6.5t12.5 -13.5
q6 -9 6 -37q0 -14 -2 -19q-5 -24 -21 -34q-16 -9 -70 -9q-25 0 -25 -1t6 -13q10 -22 10 -43v-5q-1 -4 4 -5q2 0 7 -1l7 -1q17 -2 26 -10t13 -26q3 -11 3 -20q0 -23 -12 -38q-18 -22 -135 -30l-37 -2h72q73 0 83 -5q33 -16 33 -59v-6v-12h12q23 0 34.5 -11t13.5 -36
q0 -3 0.5 -7.5t0.5 -6.5q0 -57 -37 -67q-46 -13 -210 -13q-85 0 -109 8q-16 5 -29.5 18.5t-15.5 27.5q-1 7 -6 9q-23 0 -43 14t-28 32l-6 12v53q0 40 11 233q3 51 3 76q0 28 -4 36t-4 21q0 12 3 22q7 21 27 45.5t39 34.5q16 7 28 7q27 0 53 -17l11 -7q-3 9 -3 15q0 13 35 60
l20 28q-2 -2 -7 -8q-27 -31 -42 -41.5t-34 -10.5q-20 0 -36.5 12t-16.5 31v6q2 15 29 51q35 47 49 61.5t28 17.5z" />
    <glyph glyph-name="Edieresis" unicode="&#xcb;" horiz-adv-x="523" 
d="M154 506q-21 14 -38 14q-18 0 -34 -15t-28.5 -35.5t-12.5 -32.5q0 -9 5 -17q4 -6 4 -33v-42q0 -56 -2 -162q-1 -37 -1 -104v-25q1 -33 7 -42q10 -17 32 -25q10 -4 57 -5q7 0 17.5 -0.5t13.5 -0.5q15 0 17 2q3 3 24 3q80 0 160 13q26 5 36.5 16.5t10.5 37.5v8
q-1 28 -15 38q-6 5 -33 6h-6q-27 0 -84 -4t-67 -7q-13 -3 -23 -3q-14 0 -26 6l2 50l2 53q1 5 41 8q20 2 36 5.5t31 4.5q39 6 56 15q14 9 14 34q0 11 -3 21q-6 19 -22 22h-4.5t-9.5 0.5t-12 0.5q-7 0 -24 -0.5t-26 -0.5l-67 -1l-3 5q-5 8 -5 56q0 22 2 26q5 7 74 7
q82 0 107 7q28 7 31 43v5q0 23 -17 40l-103 1h-103zM277 552q0 -4 -2.5 -14.5t-2.5 -11.5q9 -1 21 -2q20 1 20 2q-5 12 -5 27v5q0 9 -1 9q-3 0 -9 -2t-10 -3l-11 -1v-9zM181 649q-12 7 -18 5q-13 0 -23 -11.5t-10 -27.5q0 -9 3 -16q5 -12 22 -12q21 0 31 15q6 9 6 22
q0 17 -11 25zM308 608q3 9 3 16q0 13 -7.5 22.5t-20.5 10.5h-4q-18 0 -25 -15q-4 -7 -4 -17q0 -17 10 -30q6 -7 18 -8h3q19 0 27 21zM335 626q0 -13 -4 -27l19 -1h9t8.5 -0.5t4.5 -0.5q4 -1 10.5 -7.5t9.5 -13.5q3 -6 3 -18q0 -16 -5 -28l-4 -11l10 -9q16 -17 16 -50v-18
l19 -2q18 -2 24 -6q18 -12 18 -45q0 -45 -25 -57q-18 -10 -65 -10h-26l6 -10q12 -21 12 -46v-11l18 -3q16 -2 23 -6q19 -14 19 -51q0 -8 -1 -12q-4 -23 -21 -33t-67 -18l-25 -3l33 1h17q50 0 65 -26q12 -20 12 -47v-9l14 -1q23 -2 31.5 -12t12.5 -34q1 -7 1 -19
q0 -52 -38 -63q-27 -8 -109 -14t-148 -6q-52 0 -63 4q-16 5 -28 18.5t-14 26.5q0 4 -0.5 5.5t-1.5 3t-3 2t-6 0.5q-25 4 -44 18.5t-26 35.5q-3 11 -3 105q0 32 3 185l2 72q0 20 -4 30q-8 16 -8 32q0 8 1 11q5 24 27 52.5t42 38.5q10 5 28 5q30 0 54 -16q14 -10 19 -6
q2 1 1 10q0 1 -0.5 3.5t-0.5 4.5q0 21 6 31q2 3 1 2l-10 -4q-16 -7 -28 -7q-23 0 -38 15q-13 13 -13 37q0 15 6 30q14 34 55 34q26 0 41 -19q10 -14 10 -33q0 -20 -9 -37l21 11q-4 9 -4 23q0 28 14 44q15 15 37 15q2 0 4 -0.5t4 -0.5q51 -5 51 -55z" />
    <glyph glyph-name="Igrave" unicode="&#xcc;" horiz-adv-x="298" 
d="M197 482q-6 20 -25 33t-43 13h-2q-15 0 -29 -8q-17 -10 -21 -33q-2 -18 -6 -174t-4 -236q0 -12 0.5 -25.5t0.5 -14.5q1 -23 9 -35q12 -16 37 -16h8q48 3 63 26q7 11 10 191q4 216 4 230q0 41 -2 49zM145 654q-23 41 -39 60.5t-34 27.5q-12 -5 -21.5 -17.5t-9.5 -25.5
q0 -21 19 -45q12 -15 30.5 -34t25.5 -23q6 -3 15 -3q23 0 29 12q1 2 1 6q0 14 -16 42zM21 726q6 14 21 27t31 13q28 0 65 -57q14 -22 29 -37q23 -22 52 -70q3 -6 8.5 -14.5t7 -11t4.5 -8t3.5 -7.5l1.5 -6t1 -7.5v-8.5q0 -12 -5 -17t-17 -9l-11 -4q8 -18 9 -23q2 -13 4 -16
t9 -6q16 -5 30.5 -20.5t16.5 -31.5q1 -6 1 -74q0 -260 -6 -358q-2 -42 -16 -56q-10 -10 -32 -16.5t-43 -6.5q-11 0 -15 1q-18 4 -29.5 16.5t-13.5 30.5q-2 11 -4 12h-4q-26 0 -42 7q-16 8 -28 32q-5 11 -6 57v17q0 84 4 247t7 176q11 52 69 54l15 1q-10 14 -22 19
q-16 5 -36 23q-13 12 -30.5 33.5t-22.5 31.5q-11 24 -11 42q0 15 5 25z" />
    <glyph glyph-name="Iacute" unicode="&#xcd;" horiz-adv-x="273" 
d="M153 501q-18 22 -54 25h-7q-49 0 -52 -48v-19q0 -66 4 -225.5t7 -194.5q2 -26 8 -35q11 -18 36 -18h7q66 5 71 50v12q0 203 -7 369q-2 70 -13 84zM155 718q-11 11 -26 3q-13 -7 -42.5 -43t-38.5 -55q-6 -12 -6 -18q0 -8 11 -14q8 -5 20 -5q17 0 50 29q27 24 37.5 39.5
t10.5 33.5q0 14 -16 30zM122 746q12 5 19 5q13 0 30 -14q25 -22 25 -49q0 -12 -4 -26q14 6 21 6q8 0 19 -8q23 -20 23 -45q0 -13 -6 -27q-19 -38 -73 -77l5 -10q3 -6 5 -21q1 -8 3 -10t9 -4q27 -9 42 -37q6 -11 8.5 -57.5t6.5 -210.5q2 -124 2 -146q0 -61 -3 -70
q-7 -20 -30.5 -31.5t-57.5 -11.5q-20 0 -27 4q-11 6 -20 17.5t-9 21.5q0 12 -3 14t-18 3q-29 1 -47 22q-15 18 -17 72q-9 166 -9 395q0 35 1 39q4 29 24 46t53 17q9 0 14 10l6 11l-12 -6q-14 -7 -26 -7q-25 0 -41.5 12t-16.5 30v6q2 17 10.5 31.5t34.5 47.5q37 48 59 58z
" />
    <glyph glyph-name="Icircumflex" unicode="&#xce;" horiz-adv-x="372" 
d="M174 532q-12 4 -25 4q-22 0 -37.5 -11t-17.5 -28v-7q0 -39 7 -194.5t12 -221.5q3 -37 6 -51q9 -29 48 -29q21 0 41 9.5t27 23.5q3 6 3 28q0 25 -6 160q-10 200 -13.5 240.5t-12.5 52.5q-13 18 -32 24zM181 719q-13 5 -32 5q-11 0 -15 -1q-12 -2 -20 -9.5t-28 -35.5
q-8 -11 -26 -35t-18 -34q0 -7 8 -13q9 -6 21 -6q3 0 11 2q12 5 44 44q22 28 26 28q7 0 28 -26q23 -29 33 -37t25 -8q24 0 31 13q3 6 -2 18q-9 18 -41 53.5t-45 41.5zM127 747q16 2 23 2q28 0 49 -12q13 -8 44.5 -42t41.5 -51q5 -8 20 -25q41 -43 49 -67q2 -4 2 -12
q0 -17 -19 -26q-12 -6 -31 -6q-8 0 -16 2q-17 5 -45 42q-12 17 -20 17q-6 0 -15 -10l-8 -11l11 -10q21 -19 26 -44q3 -12 3 -16q0 -2 9 -4q30 -9 44 -38q7 -14 15 -156q8 -157 11 -251q1 -21 1 -47q0 -28 -12 -44q-10 -12 -34 -20.5t-46 -8.5q-15 0 -25 5q-7 4 -15.5 13
t-10.5 15q-3 8 -4 17l-1 12q-5 -1 -14 -1q-59 0 -67 56q-8 54 -19 330q-4 76 -4 118q0 30 3.5 41t15.5 24q19 22 37 48q27 38 27 40l-5 -5q-31 -37 -45 -47t-33 -10q-16 0 -31.5 9.5t-20.5 20.5q-2 4 -2 12q0 18 38 70q30 42 43 54.5t30 15.5z" />
    <glyph glyph-name="Idieresis" unicode="&#xcf;" horiz-adv-x="323" 
d="M136 531q-17 5 -28 5q-39 0 -49 -35q-5 -18 -5 -70q0 -11 -4 -103q-11 -231 -11 -276q0 -34 15 -48q10 -9 35 -9q32 0 55 14q16 10 18 45q4 44 6.5 99t4.5 127t4 109q2 62 2 69q0 34 -11 49q-11 16 -32 24zM209 664q-6 5 -17 5q-16 0 -24 -11q-6 -9 -6 -25q0 -15 6 -24
q10 -12 25 -12q12 0 21 12.5t9 27.5q0 16 -14 27zM94 676q-7 4 -16 4q-26 0 -34 -23q-3 -7 -3 -16q0 -27 27 -27q16 0 26 10t11 26q1 19 -11 26zM220 580q-18 -6 -23 -6q-7 0 -9 -8q-1 -6 -8 -17l-7 -9l8 -8q17 -19 21 -44q1 -12 9 -14q13 -4 26.5 -15.5t19.5 -25.5
q6 -12 6 -51q0 -5 -4 -123q-5 -152 -5 -153q-4 -136 -12 -156q-14 -38 -81 -38q-28 0 -36 4q-25 17 -28 43l-1 12h-13q-48 0 -64 42q-3 7 -3 58q0 97 11 297q4 66 4 90q0 50 9 67q7 13 23 23.5t29 10.5q3 0 4 0.5t1.5 3t1.5 9.5q0 11 9 31l-12 -6q-12 -6 -25 -6
q-26 0 -40 13t-14 36q0 7 1 11q6 42 40 51q5 2 21 2t20 -2q12 -4 21.5 -19t9.5 -33q0 -12 -6 -26l-5 -11l9 5l9 4v12q0 26 16 43t39 17q14 0 28 -7q28 -14 28 -50q0 -10 -3 -19q-3 -8 -1 -9q1 0 3 1q3 1 17 1q19 0 31 -11.5t12 -32.5q0 -30 -19 -45q-8 -7 -27 -7
q-16 0 -22 5q-19 12 -19 43v17z" />
    <glyph glyph-name="Eth" unicode="&#xd0;" horiz-adv-x="605" 
d="M318 327q0 -1 -3 -56l-3 -55q0 -4 11 -6t16 4q21 26 21 69q0 11 -1 16q-3 21 -8.5 26.5t-23.5 5.5q-9 0 -9 -4zM236 409q7 7 21 7q20 0 47 -12t44 -27q36 -33 36 -94q0 -35 -14 -66q-5 -12 -23 -30t-31 -26q-11 -6 -46 -19.5t-40 -13.5q-10 0 -10 22v10q1 20 4.5 25
t16.5 6q41 4 41 43q0 30 -34 35q-15 3 -18 7q-2 4 -2 11q0 11 3 57q4 64 5 65zM248 547q-30 4 -43 4q-47 0 -78 -18q-38 -20 -38 -50q0 -3 2 -13q4 -13 20 -28l16 -15l-1 -23q0 -3 -1 -35.5t-2.5 -60t-3.5 -30.5q-2 -5 -20 -6q-42 -4 -53 -25q-5 -9 -5 -20q0 -29 57 -36
q9 -1 12 -2t5 -4.5t2 -10.5q0 -10 -1 -17q-4 -45 -18 -66q-14 -22 -14 -40q0 -17 12 -31q21 -24 88 -25h21q109 0 173 34q38 21 52 38q76 86 76 205q0 12 -2 38q-7 72 -30 114q-27 48 -89.5 79.5t-136.5 43.5zM183 575q6 1 18 1q51 0 116 -19.5t108 -47.5q49 -32 73 -77
q4 -9 21 -26q42 -39 59 -104q11 -44 11 -106q0 -29 -3 -53q-9 -69 -45 -119q-42 -60 -92 -84t-143 -29q-15 -1 -42 -1q-60 0 -86 12q-28 15 -35 45q-1 6 -14 8q-30 6 -50 26t-20 50q0 8 1 13q4 22 16 39t15 51q1 13 -3 14q-44 9 -59 25q-13 14 -13 35q0 25 18 45
q17 18 62 24l2 12q0 3 0.5 12t1 23.5t0.5 24.5l1 47l-12 14q-15 16 -19 25t-4 28q0 21 6 32q12 23 43.5 40t67.5 20z" />
    <glyph glyph-name="Ntilde" unicode="&#xd1;" horiz-adv-x="578" 
d="M459 519q-8 18 -49 18q-2 0 -6 -0.5t-5 -0.5q-30 -4 -42 -27q-3 -6 -3 -51q0 -24 2 -80q4 -96 4 -111q0 -23 -2 -27q-3 -4 -10 -3t-11 5q-6 8 -65 94q-108 157 -126 173q-20 17 -42 17h-9q-55 -4 -55 -58q0 -27 17 -50l8 -11l1 -84q4 -179 4 -185q1 -102 4 -109
q8 -20 27 -29q9 -5 33 -5q22 0 30 4q18 10 25 21l6 9l-1 39q0 59 -6 139q0 4 -0.5 11t-0.5 9q0 27 15 27q9 0 39 -44q101 -147 131 -177q24 -24 52 -24h7q32 1 41 18q4 8 4 161q0 125 -4 213q-6 103 -13 118zM251 680q-30 28 -55 28q-17 0 -41 -15q-18 -12 -30.5 -32.5
t-12.5 -37.5q0 -9 4 -14q10 -13 26 -13h3q16 1 29 26q12 22 20 22q6 0 20 -11q44 -38 79 -41h9q31 0 52.5 17.5t26.5 47.5q1 3 1 10q0 15 -9.5 23.5t-22.5 8.5h-5q-9 -1 -16 -8t-7 -15q0 -19 -10 -22q-8 -2 -12 -2q-20 0 -49 28zM466 591q0 -17 -8 -37l10 -9q16 -14 20 -40
q3 -21 4.5 -24t9.5 -4q25 -4 37 -16q11 -13 17 -118q6 -110 6 -285v-33q-1 -66 -6 -76q-10 -22 -53 -25h-8q-38 0 -76 44q-16 18 -29 23q-30 12 -85 86q-30 39 -31 39v-2q0 -3 2.5 -53t3.5 -80v-12q0 -20 -18 -39q-21 -21 -51 -21q-6 0 -22 2q-30 4 -43 19q-16 18 -16 34
q0 4 -14 6q-48 8 -63 47q-7 19 -9 237l-2 140l-8 12q-18 28 -18 59q0 23 4 36q7 23 29 37t50 14q26 0 48 -12q23 -13 56 -60q22 -29 24 -31q5 -3 31 -39t50.5 -69.5t26.5 -33.5v1q0 1 -0.5 10.5t-1.5 28t-2 33.5q-2 37 -2 101v33l-13 8q-21 10 -42 30l-8 8q-4 -5 -9.5 -17
t-12.5 -19q-13 -13 -29 -13q-7 0 -10 1q-16 3 -26 15t-10 28q0 9 5 22q2 4 -1 2l-3 -2q-7 -5 -28 -5q-10 0 -18 2q-36 10 -36 49v5q2 30 25 59.5t54 40.5q9 4 20 4q2 0 6.5 -0.5t7.5 -0.5q21 -1 33.5 -6.5t31.5 -23.5q24 -22 28 -22h1q2 5 4 11q10 25 30 31q12 3 22 3
q26 0 41 -17t15 -42q0 -13 -2 -19q-2 -4 4 -5h12q28 0 41 -22q5 -11 4 -28z" />
    <glyph glyph-name="Ograve" unicode="&#xd2;" horiz-adv-x="605" 
d="M360 309l-2 10l-10 1h-2q-21 0 -45 -17t-39 -41q-19 -32 -20 -77l-1 -32l22 1q73 3 96 88q4 13 4 36q0 19 -3 31zM256 401q10 2 30 2q38 -1 66 -29q35 -35 35 -97q0 -47 -20 -83t-53 -53q-24 -12 -56 -12q-30 0 -50 10q-17 8 -30 28.5t-17 44.5q-4 28 -4 41q0 57 27 96.5
t72 51.5zM307 531q-26 4 -27 4q-41 0 -64 -7q-58 -15 -103 -65.5t-62 -120.5q-11 -42 -11 -103q0 -85 27 -131q7 -13 23.5 -33.5t18.5 -20.5q1 0 18 -13q35 -28 70 -35q37 -8 65 -8q81 0 142 49q36 29 62 82t35 115q3 22 3 45q0 83 -31 133q-25 42 -69 70.5t-97 38.5z
M224 737q-8 5 -13 5q-4 0 -13 -7.5t-14 -15.5q-4 -7 -4 -17q0 -15 7 -28q8 -15 29.5 -40.5t33.5 -32.5q9 -6 21 -6q23 0 29 14q1 1 1 5q0 13 -19 45q-36 62 -58 78zM156 701q0 38 36 60q7 4 22 4q11 0 15 -2q25 -11 62 -71q8 -14 10 -14q3 0 17.5 -16t24.5 -31
q41 -63 41 -90q0 -7 2 -8.5t11 -5.5q26 -12 55 -40t44 -55q4 -8 22 -26q32 -32 48.5 -68.5t20.5 -93.5q0 -4 0.5 -11t0.5 -10q0 -89 -35 -165q-53 -114 -165 -139q-22 -4 -61 -4q-30 0 -41 2q-69 8 -125 67q-11 12 -34 26t-32 23q-68 66 -77 149q-2 20 -2 52q0 56 4 86
q9 62 45 119t85 88q20 12 50 22t49 10q18 0 18 5q0 4 -12 7q-20 5 -53 42q-28 32 -37 49t-9 39z" />
    <glyph glyph-name="Oacute" unicode="&#xd3;" horiz-adv-x="601" 
d="M353 319q-3 3 -8 3q-9 0 -25 -6q-28 -10 -49 -38t-27 -65q-1 -4 -1 -16q0 -35 4 -43q2 -2 12 -2q17 0 27 3q55 15 72 76q4 13 4 37q0 42 -9 51zM261 404q4 1 14 1q14 0 26 -3q30 -8 53 -33t30 -60q4 -16 4 -37q0 -68 -35 -105q-37 -39 -92 -39q-41 0 -66 25
q-36 34 -36 108q0 32 9 59q10 32 36.5 55.5t56.5 28.5zM371 511q-50 22 -113 22q-9 0 -27 -2q-78 -10 -132 -78q-34 -43 -50 -107q-6 -23 -6 -74q0 -101 27 -156q17 -37 54 -68t78 -44q20 -6 54 -6q62 0 99 15q67 25 107 96t40 162q0 103 -40 162q-34 51 -91 78zM205 617
q15 -17 34 -17q13 0 27 10q39 25 59 52q14 20 14 35q0 16 -15 31q-8 8 -14 8q-18 0 -61 -51q-35 -41 -40 -57zM297 759q8 2 12 2q22 0 38.5 -22.5t16.5 -46.5q0 -5 -2 -13l-2 -7q16 6 23 6q10 0 18 -7q22 -19 22 -47q0 -5 -2 -15q-7 -26 -38 -52l-19 -16l15 -6
q34 -15 65.5 -43.5t46.5 -57.5q1 -3 23 -27q71 -74 71 -199q-2 -228 -167 -283q-38 -12 -96 -12q-23 0 -36 3q-66 15 -118 67q-16 16 -32 26q-34 20 -62.5 56.5t-39.5 73.5q-18 57 -18 144q0 17 2 35q15 99 66 158q33 38 79.5 60.5t92.5 22.5q7 0 9 1t4 8q4 11 11 20l-12 -6
q-13 -7 -29 -7q-31 0 -50 22q-7 9 -6 25q1 24 29 59q54 68 85 78z" />
    <glyph glyph-name="Ocircumflex" unicode="&#xd4;" horiz-adv-x="602" 
d="M358 309l-3 10l-11 1h-2q-21 0 -45 -17.5t-39 -44.5q-16 -28 -17 -68v-15q0 -18 2 -20q3 -3 11 -3q28 0 54 14q36 21 49 74q4 20 4 40q0 18 -3 29zM265 403q5 1 14 1q46 0 76.5 -36t30.5 -91q0 -58 -30 -98.5t-77 -48.5q-6 -1 -20 -1q-27 0 -42 6q-15 5 -29.5 20
t-20.5 32q-10 26 -10 72q0 30 5 45q11 38 39 66.5t64 32.5zM312 529q-32 5 -53 5q-81 0 -144 -66q-54 -55 -71 -142q-4 -21 -4 -77q0 -73 16 -116q16 -44 56 -80t85 -47q28 -7 66 -7q40 0 70 9q107 34 148 161q18 53 19 108v15q0 97 -52 160q-50 60 -136 77zM318 569l-21 20
l-17 -29q34 -4 48 -9l10 -3zM245 733q-9 3 -21 3q-29 0 -43 -14q-6 -7 -32 -51t-29 -53t0 -13q9 -12 27 -12q6 0 12 3q13 7 40 48q19 30 27 30t35 -28q28 -29 36 -32q3 -1 11 -1q33 0 38 17q0 1 0.5 2.5t0.5 2.5q0 10 -35 45q-46 46 -67 53zM145 569q-20 0 -35.5 11
t-15.5 31t40 86q22 38 35.5 48.5t42.5 14.5q5 1 14 1q33 0 80 -40q24 -21 44.5 -45t20.5 -31q0 -2 26 -30q35 -36 35 -52q0 -19 -26 -30l-12 -5l7 -4q54 -28 90 -88q6 -12 25 -29q69 -66 69 -187q0 -48 -12 -97q-19 -79 -58.5 -127.5t-107.5 -72.5l-20 -7h-54q-47 0 -60 2
t-39 14q-39 18 -70 49q-18 18 -32 26q-31 17 -59 51.5t-43 72.5q-14 35 -14 123q0 69 5 88q24 94 79 148q32 32 64 46q11 5 13 13t16 33l14 27q-1 -1 -3 -4q-28 -36 -59 -36z" />
    <glyph glyph-name="Otilde" unicode="&#xd5;" horiz-adv-x="601" 
d="M355 311q-2 7 -11 7q-40 -1 -70.5 -38.5t-30.5 -84.5q0 -6 3 -33l2 -13l11 -1h5q27 0 51 15t35 39q12 27 12 61q0 27 -7 48zM254 400h26q24 -1 39 -8q32 -16 50.5 -50t18.5 -77q0 -7 -2 -25q-10 -75 -67 -103q-28 -14 -58 -14q-22 0 -41 8q-28 12 -44.5 48t-16.5 80
q0 27 8 56q10 31 33.5 54t53.5 31zM367 508q-43 21 -99 21q-72 0 -123 -34q-98 -67 -104 -209v-12q0 -94 34 -167q20 -42 68 -75t95 -38q2 0 7.5 -0.5t8.5 -0.5q52 0 99 15q25 8 54.5 31t45.5 47q18 28 30 64q18 57 18 117q0 77 -30 142t-104 99zM392 702q-12 11 -28 8
q-23 -5 -23 -28v-6q0 -17 -20 -17q-21 0 -47 21q-29 23 -53 23q-29 0 -53 -24q-30 -30 -30 -65q0 -8 3 -13q9 -14 27 -14q25 0 31 27q2 7 7 16q7 10 14 10t19 -9q45 -33 83 -33q26 0 48 15q34 23 34 59q0 18 -12 30zM200 569q-19 -7 -32 -7q-25 0 -39.5 15t-14.5 38
q0 9 1 14q7 42 38.5 71t68.5 29q9 0 13 -1q22 -4 51 -26q25 -19 30 -19q1 0 1 7q0 13 10.5 25.5t23.5 17.5q4 2 17 2q19 0 28 -5q32 -17 32 -54v-7l-2 -17h16h4q22 0 34 -18q6 -8 7 -28v-5q0 -58 -58 -81q-6 -2 -14 -6q-4 -1 8 -10q43 -30 65 -72q6 -10 12 -16
q81 -70 85 -202v-19q0 -93 -35.5 -161t-100.5 -101q-29 -15 -78 -21q-24 -3 -43 -3q-46 0 -93 23q-37 18 -62 44q-13 15 -31 25q-35 21 -64 56.5t-40 71.5q-22 68 -22 153q0 36 6 62q30 139 150 194l22 10l3 10z" />
    <glyph glyph-name="Odieresis" unicode="&#xd6;" horiz-adv-x="605" 
d="M361 305l-2 11h-11q-34 0 -66 -32q-21 -21 -33 -56q-6 -17 -6 -46v-31l13 -1h4q47 0 75.5 36.5t28.5 87.5q0 13 -3 31zM191 353q39 47 94 47q39 0 68 -29q34 -34 34 -98q0 -70 -43 -113q-33 -33 -84 -33h-7q-41 1 -64 24q-30 30 -30 95v10q3 62 32 97zM312 527
q-27 5 -45 5q-56 0 -109 -35q-114 -77 -118 -246v-20q0 -93 47 -153q53 -67 129 -79q18 -3 54 -3q28 0 40 2q135 32 180 190q14 50 14 102q0 59 -17 102q-20 49 -68 86.5t-107 48.5zM360 580q1 8 0 8.5t-9 -2.5q-12 -3 -15 -3q-5 0 -6 -1.5t-1 -7.5q0 -10 -3 -16
q-4 -10 3 -10q8 0 23 -6q6 -2 13 -4l6 -1l-1 1l-1 1q-9 11 -9 36v5zM348 674q-7 4 -15 4q-17 0 -26 -14q-5 -7 -5 -20t5 -21q8 -15 25 -15q18 0 27 17q4 8 4 19q0 21 -15 30zM237 671q-7 7 -17 7q-16 0 -27 -10.5t-11 -26.5q0 -29 26 -29q16 0 27 11.5t11 25.5q0 13 -9 22z
M383 617q12 4 22 4q24 0 36 -20q6 -9 6 -27q-1 -23 -12 -37t-29 -14q-6 0 7 -8q56 -33 84 -87q3 -6 22 -25q70 -68 70 -183q0 -52 -17 -112q-21 -78 -69 -128.5t-119 -65.5q-15 -3 -42 -3q-61 0 -87 10q-51 17 -93 59q-14 14 -30 24q-44 26 -76.5 75t-37.5 98q-2 26 -2 55
q0 43 3 70q9 86 63 159q53 71 141 91l16 3l1 16q2 17 5 24l2 6q0 -1 -2 -2q-12 -11 -36 -11q-25 0 -38.5 14t-13.5 36q0 17 7 31q12 27 42 33q4 1 12 1q29 0 41 -17q11 -14 11 -37t-11 -36v-1q8 4 20 8v21q0 3 -0.5 7.5t-0.5 6.5q0 9 4 17q14 31 52 31q24 -1 39 -16.5
t15 -39.5q0 -5 -2 -15z" />
    <glyph glyph-name="multiply" unicode="&#xd7;" horiz-adv-x="474" 
d="M142 363q-14 8 -30 8q-23 0 -41 -12.5t-18 -32.5q0 -17 14.5 -40t56.5 -70q20 -22 20 -29q0 -8 -32 -37l-9 -8q-39 -35 -50.5 -49.5t-11.5 -30.5v-7q2 -27 17 -35q10 -6 24 -6q38 0 93 52q20 19 30 19q11 0 30 -31q27 -44 45 -53q10 -5 24 -5q10 0 24 4q17 7 31 23.5
t14 30.5q0 9 -8 23q-20 42 -59 91q-12 15 -12 20q0 6 22 33q54 63 54 87q0 3 -2 11q-11 34 -43 34q-33 0 -71 -47q-7 -9 -18 -20q-6 -4 -7 -4q-7 0 -33 30q-34 39 -54 51zM36 358q9 15 30 27t44 12q6 0 16 -2q39 -7 83 -59l18 -22l17 19q42 45 79 45q11 0 21 -3
q21 -5 34.5 -23t14.5 -41q0 -14 5 -14q21 0 38.5 -18t17.5 -42q0 -15 -7 -28q-15 -26 -47 -66q-4 -6 -10 -12.5t-8 -10.5l-3 -3q0 -1 18 -26q32 -46 49 -78q12 -23 12 -28q0 -17 -11.5 -35t-27.5 -27q-18 -11 -47 -11h-6q-33 4 -62 47q-11 16 -19 16q-6 0 -16 5l-12 6l-8 -8
q-51 -48 -92 -48q-52 0 -58 48l-2 12h-12q-44 0 -60 28q-9 18 -9 40q0 23 9 38q12 20 73 75l18 16l-15 17q-53 60 -65 87q-8 18 -8 36t8 31z" />
    <glyph glyph-name="Oslash" unicode="&#xd8;" horiz-adv-x="607" 
d="M368 319q4 3 10 1.5t8 -5.5q4 -8 4 -32q0 -23 -4 -43q-24 -101 -115 -111q-12 -1 -16 5q-5 7 -4 10q2 4 58.5 89t58.5 86zM260 402q6 2 14 1.5t10 -2.5q3 -3 3 -6q0 -9 -54 -89q-53 -80 -57 -82q-5 -2 -10.5 0.5t-6.5 7.5q0 1 -0.5 4t-0.5 6q0 32 5 57q7 34 36.5 64.5
t60.5 38.5zM434 557q-6 0 -13 -3q-15 -7 -33 -31q-6 -10 -12 -10q-3 0 -20 5q-9 4 -41 11q-24 4 -55 4q-29 0 -41 -4q-58 -16 -101.5 -63t-63.5 -114q-9 -29 -13 -89q-1 -12 -1 -32q0 -75 36 -135l9 -15l-8 -16q-15 -29 -15 -45q0 -11 6 -17q13 -16 36 -22q4 -1 10 -1
q13 0 33 20q13 15 19 15q3 0 17 -4q37 -13 95 -13q12 0 26 2q63 12 108.5 55.5t69.5 106.5q24 64 24 130q0 89 -40 145q-9 13 -9 21q0 4 5 16q13 26 13 44q0 14 -13 26.5t-28 12.5zM382 555q25 25 49 25h6q15 0 25 -5q40 -21 37 -61v-16q1 0 4 0.5t5 0.5q19 0 35 -16t16 -36
q0 -19 -12 -47l-6 -15l8 -11q41 -59 41 -150q0 -29 -4 -53q-36 -211 -190 -251q-18 -5 -52 -5q-56 0 -89 10l-17 5l-12 -13q-23 -22 -40 -22h-5q-17 2 -35 12.5t-23 21.5q-3 6 -3 17v9l-13 1q-18 2 -37.5 13.5t-26.5 24.5q-5 9 -5 26q0 23 12 47l6 12l-8 15q-18 31 -26 70
q-6 27 -6 69q0 78 16 131q15 48 44 89q51 76 140 100q19 5 52 5q50 0 89 -14l12 -3z" />
    <glyph glyph-name="Ugrave" unicode="&#xd9;" horiz-adv-x="555" 
d="M287 167q-1 0 -7.5 -5.5t-8.5 -5.5q-1 0 -13 -2q-4 -1 -11 -1q-37 0 -58 30q-13 20 -16.5 48t-5.5 145q-2 123 -4 141q-3 17 -10 24.5t-23 12.5q-11 3 -22 3q-26 0 -41 -10q-12 -8 -17 -36q-10 -65 -10 -210q0 -45 1 -62q5 -81 18 -121.5t45 -71.5q46 -45 109 -45
q12 0 40 4q30 5 49 25q9 12 20 12q9 0 12 -12q6 -30 52 -31h7q21 0 29.5 7t12.5 29q21 94 21 362q0 75 -2.5 97t-11.5 31q-8 8 -18 11q-11 3 -32 3q-13 0 -23 -2q-19 -5 -26 -26q-8 -29 -19 -165q-10 -118 -19 -148q-3 -9 -9.5 -20t-8.5 -11zM223 749q-12 8 -23 0
q-22 -15 -22 -36q0 -9 7 -27q7 -15 31.5 -42.5t36.5 -33.5q6 -3 15 -3q23 0 29 12q1 2 1 6q0 13 -16 41q-37 67 -59 83zM193 775q8 4 17 4q32 0 67 -57q18 -27 31 -39q17 -16 41.5 -54t29.5 -56l3 -9l22 -1q37 -2 53.5 -17t19.5 -50l2 -15l13 -2q27 -5 37 -21q7 -10 8.5 -35
t1.5 -114q0 -196 -14 -313q-8 -63 -25 -75q-10 -7 -37 -7q-25 0 -37 5q-15 5 -22 12t-12 23q-1 4 -12 -6q-26 -24 -61 -29q-16 -2 -31 -2q-40 0 -57 6q-35 12 -70 47q-17 17 -29 24q-31 16 -57 46t-38 65q-20 58 -21 176v39q0 168 15 216q7 23 23 33t48 11h6q71 0 78 -60
q2 -20 5 -21q3 -2 10 -2q24 0 36 -18q7 -12 9 -31.5t4 -95.5q4 -173 5 -174q19 5 28 33q7 24 14 115q14 177 22 195q1 3 -3 6q-14 8 -39 36q-16 18 -25 21q-21 6 -47 35q-4 4 -10 10.5t-10 11t-6 6.5q-26 28 -26 67v6q2 16 14 32t26 23z" />
    <glyph glyph-name="Uacute" unicode="&#xda;" horiz-adv-x="554" 
d="M138 545q-12 6 -33 6q-36 0 -48 -12q-11 -10 -13 -44q-4 -60 -4 -135q0 -38 1 -54q3 -104 14.5 -157.5t38.5 -86.5q39 -48 93 -59q15 -3 32 -3q62 0 92 30q13 13 21 13q7 0 10 -10q5 -20 19 -26q18 -8 37 -8q15 0 27 5q18 7 24 75q6 71 6 206q0 185 -9 224
q-4 17 -15 23.5t-36 6.5h-8q-37 -1 -45 -17q-10 -19 -17 -148q-8 -157 -16 -180q-13 -41 -57 -41q-54 0 -72 54q-8 25 -15 177q-6 120 -7 128q-4 23 -20 33zM333 725q-11 11 -13 11q-9 0 -31 -20q-41 -39 -62 -72q-11 -19 -11 -27q0 -10 14 -16q10 -5 18 -5q7 0 17 5
q16 8 43 33t33 36q7 14 7 25q0 15 -15 30zM288 584q-24 -11 -40 -11q-19 0 -30 6q-9 5 -19 15q-6 7 -6 22q0 18 8 32.5t38 50.5q41 49 65 58q4 2 19 2q10 -1 22 -10q27 -23 27 -53v-6q0 -3 -0.5 -7t-1 -6.5t-0.5 -3.5v-1l1 -1l4 2q8 4 16 4q17 0 33 -25q7 -12 7 -28
q0 -8 -1.5 -15t-4.5 -13.5t-5 -10t-7.5 -10.5t-6.5 -9q6 -2 13 -3q47 -8 53 -60q1 -8 1.5 -11.5t2 -6t4 -3.5t6.5 -1q25 -4 36 -18q9 -13 13 -61q3 -30 3 -184t-3 -190q-6 -88 -24 -103q-12 -9 -40 -9q-37 0 -54 13q-6 4 -11 16l-6 12l-9 -9q-18 -18 -49 -27q-15 -5 -53 -5
q-34 0 -47 4q-21 7 -49.5 26.5t-37.5 33.5q-4 7 -13 11q-34 16 -61.5 47.5t-39.5 68.5q-25 76 -25 255q0 57 1 88t3.5 56t9 36.5t14.5 18t23 10.5q15 5 36 5q59 0 73 -39q7 -21 7 -36q0 -5 2 -7t11 -3q35 -7 43 -40q6 -28 10 -132q5 -118 8 -137q1 -5 7 -4q14 3 22 28
q7 23 11 111q3 96 11 166q0 5 1.5 12.5t1.5 10.5q0 8 -6 8q-10 0 -20.5 10.5t-10.5 21.5q0 6 7 25z" />
    <glyph glyph-name="Ucircumflex" unicode="&#xdb;" horiz-adv-x="560" 
d="M132 541q-13 5 -28 5h-8q-9 0 -26 -5q-13 -5 -17 -8t-9 -14q-4 -9 -5 -70v-25q0 -134 12 -222q10 -72 30 -112q32 -62 97 -85q16 -5 47 -5q65 0 95 30q15 15 23 15q6 0 12 -12t8 -14q11 -14 43 -14h7q23 2 30 9t12 34q5 30 5 124q0 132 -8 252q-4 65 -9.5 86.5
t-16.5 27.5q-13 7 -36 7q-25 0 -41 -8q-13 -7 -17 -27t-6 -95q-7 -200 -9 -211q-6 -29 -23 -41q-14 -10 -40 -10q-19 0 -29 5q-21 9 -34 34q-9 19 -13.5 50.5t-13.5 144.5q-8 106 -12 126t-20 28zM296 736q-11 6 -29 6q-25 0 -36 -8q-5 -3 -35.5 -44t-36.5 -51q-4 -8 -4 -11
q0 -8 15 -16q7 -4 15 -4q18 0 53 43q17 20 21.5 24.5t9.5 4.5t9 -3.5t17 -20.5q23 -29 33.5 -37.5t24.5 -8.5q12 0 22.5 6.5t10.5 13.5q0 18 -54 76q-21 23 -36 30zM360 569q0 4 -8 11t-12 7h-2q-5 0 -23 -22q-26 -33 -44 -39q-8 -3 -14 -3q-8 0 -19 4q-25 9 -25 30
q0 9 15 31q3 5 42 61q-9 -11 -19 -23q-21 -25 -34 -33t-33 -8q-23 0 -38 12t-15 29v6q3 15 42 70q29 39 40 49t29 14q20 2 26 2q38 0 73 -35q37 -37 59 -70q8 -13 13 -18q9 -7 42 -50q16 -23 16 -34q0 -7 -5 -15q-6 -10 -4 -13q1 -3 5 -21t4 -22q0 -1 13 -3q24 -2 35 -19
q15 -23 23 -221q2 -36 2 -144q0 -97 -2 -110q-6 -55 -25 -64q-14 -8 -41 -8q-2 0 -4.5 0.5t-3.5 0.5q-41 5 -51 27l-6 12l-11 -11q-22 -22 -51 -29q-24 -6 -55 -6q-32 0 -48 6q-47 17 -80 55q-9 10 -23 18q-64 34 -92 102q-35 87 -35 318q0 97 4 111q6 29 38 40q21 7 43 7
q45 0 65 -29q13 -20 13 -47q0 -6 9 -7q26 -5 36 -17t13.5 -36.5t10.5 -115.5q10 -138 13 -141q6 0 10 1q17 5 22.5 35.5t6.5 144.5q2 141 10 168q10 31 50 42z" />
    <glyph glyph-name="Udieresis" unicode="&#xdc;" horiz-adv-x="556" 
d="M134 538q-10 3 -25 3q-34 0 -45 -11q-9 -8 -13 -29.5t-8 -89.5q-3 -41 -3 -107q0 -80 4 -120q8 -63 25 -99.5t51 -63.5q41 -32 94 -32q58 0 88 27q15 13 22 13q8 0 12 -15q8 -27 50 -30h8q22 0 30 7q23 18 30 248q2 72 2 121q0 110 -4 130q-7 32 -56 32q-34 0 -43.5 -10
t-15.5 -52q-8 -68 -11 -112q-9 -114 -15 -146.5t-21 -46.5q-14 -14 -40 -14q-25 0 -43 12q-21 13 -30 46q-7 23 -10 164t-8 154q-6 15 -25 21zM326 590q14 0 22.5 12t8.5 27q0 32 -28 32h-3q-13 0 -21.5 -10t-8.5 -25q0 -16 8.5 -26t21.5 -10zM228 612q12 10 12 27
q0 12 -7.5 20.5t-19.5 8.5q-16 0 -27 -11.5t-11 -26.5q0 -4 2 -12q4 -16 25 -16q16 0 26 10zM354 572q-21 -7 -24 -7q-6 0 -8 -11q-8 -36 -49 -36q-31 0 -38 26q-2 8 -2 13q0 13 10 35q-18 -14 -41 -14q-10 0 -20 3q-31 9 -31 47q0 26 15 44q16 21 51 21q2 1 12.5 -3
t15.5 -7q18 -12 18 -44q0 -21 -9 -34l-5 -8q9 7 17 10q4 1 5 3t1 14q0 29 14 45.5t41 16.5q39 0 52 -38q2 -6 2 -17q0 -21 -3 -25q-1 -2 2 -2.5t16 -0.5q27 0 39 -18q7 -12 7 -29q0 -2 -0.5 -4t-0.5 -3q-1 -7 0 -8t9 -6q22 -13 28 -61l2 -10l11 -2q35 -3 43 -33
q6 -24 6 -135q0 -126 -8 -256q-8 -117 -33 -132q-8 -5 -37 -5q-24 0 -35 4q-26 9 -31 29q-2 9 -4 9q-3 0 -9 -8q-17 -17 -45 -25q-20 -5 -60 -5q-19 0 -25 1q-29 6 -52 20q-41 26 -51 44q-5 8 -10 9q-24 8 -53 37q-28 28 -42.5 62t-22.5 88q-6 39 -6 144q0 38 1 54
q5 116 10 143q5 30 21.5 43t51.5 15h7q29 0 49.5 -11.5t26.5 -30.5q1 -2 2 -9.5t1 -9.5q1 -15 3 -18t11 -5q29 -5 39 -24q6 -12 8 -34.5t4 -118.5q2 -104 4 -124q1 -10 2 -12.5t4 -1.5q17 5 23.5 31.5t13.5 117.5q13 175 26 199q6 12 18 21l11 7l1 15v15z" />
    <glyph glyph-name="Yacute" unicode="&#xdd;" horiz-adv-x="541" 
d="M133 512q-13 19 -33 19q-15 0 -34 -13.5t-24 -27.5q-1 -3 -1 -10q0 -15 8 -31q5 -10 70 -104q63 -90 67 -97q2 -4 4 -56q4 -158 9 -173q11 -28 54 -31h11q46 0 59 27q5 12 5 133v38l-1 49l31 59q49 90 66 129t17 60q0 10 -3 19q-8 28 -58 28q-46 0 -53 -27
q-15 -52 -35 -103q-22 -57 -30 -57q-2 0 -6 2q-4 1 -30 39q-69 98 -93 128zM305 708q-9 7 -14 7q-20 0 -71 -67q-27 -36 -27 -51t24 -19q3 -1 8 -1q20 0 66 46q30 30 30 55q0 18 -16 30zM277 738q17 5 30 -1q9 -5 22 -19t15 -23q2 -8 2 -16q0 -15 -3 -22q-1 -3 1 -3t6 2
q12 4 15 4q9 0 19 -9q22 -19 22 -45q0 -20 -14 -40l-7 -11h7q30 0 51.5 -19t21.5 -49v-8q-1 -5 0 -6t7 -2q53 -7 53 -57q0 -17 -6 -38q-9 -32 -80 -164l-27 -51l1 -85q0 -127 -10 -143q-17 -29 -71 -29q-68 0 -76 48q-1 7 -2.5 8.5t-9.5 2.5q-60 9 -70 58q-5 20 -8 143
q-2 60 -3 66q-1 12 -68 105.5t-75 116.5q-4 11 -4 24q0 30 26 54q27 24 60 24q26 0 42 -16q3 -3 28.5 -37t30.5 -37q4 -2 38 -49l20 -27l13 34q15 38 19 52l6 18q-40 6 -47 23q-2 6 -2 9q0 16 13 40l-11 -5q-12 -6 -28 -6q-23 0 -39.5 11.5t-16.5 31.5v6q1 9 8 25t13 22
q11 11 24 28q40 52 64 61z" />
    <glyph glyph-name="Thorn" unicode="&#xde;" horiz-adv-x="464" 
d="M204 345q39 0 39 -40v-5q-1 -23 -18 -35q-7 -5 -29 -6h-12q-13 0 -16 5.5t-3 28.5v7q0 29 2 34.5t13 8.5q8 2 24 2zM122 606q-8 4 -22 4q-30 0 -45 -13t-15 -48q0 -8 2 -30q11 -87 11 -439q0 -40 5 -54q16 -38 49 -38q9 0 19 3q19 5 28 24q12 23 12 68l-1 33q13 5 26 2
q16 -3 32 -3q66 0 103 50t37 125q0 36 -9 73q-8 33 -27 59.5t-41 36.5q-25 11 -59 11q-23 0 -42 -4q-16 -2 -18 -2q-11 0 -12 8l-4 50q-3 46 -8 61.5t-21 22.5zM82 633q6 1 18 1q63 0 72 -65l2 -15l14 -3q9 -1 21 -8q6 -4 14 -19.5t8 -22.5q0 -4 2 -5t18 -3q80 -10 113 -84
q7 -13 13 -17q9 -4 22.5 -19.5t20.5 -28.5q17 -33 22 -62q6 -31 6 -62q0 -73 -31 -124t-88 -63q-14 -2 -26 -2q-28 0 -52 4l-1 -32q-2 -52 -19 -75t-53 -23q-45 0 -61 45l-5 13l-14 2q-39 4 -58 40q-9 20 -10 28q-2 16 -2 111v49q0 240 -10 330q-2 18 -2 32v7q4 62 66 71z
" />
    <glyph glyph-name="germandbls" unicode="&#xdf;" horiz-adv-x="575" 
d="M244 169l-2 -18q9 -2 19 -2l17 -1l-11 7q-11 6 -23 14zM148 543q-3 1 -10 1q-16 0 -34.5 -6.5t-25.5 -14.5q-10 -10 -12.5 -33.5t-7.5 -146.5q-9 -192 -13 -240q-4 -52 -4 -59q0 -20 16 -33t36 -13q46 0 53 63q7 49 17 249q4 59 16 78q23 35 60 38h6q22 0 29 -12
q4 -7 4 -16q0 -19 -28 -50q-39 -43 -39 -81q0 -22 13 -45q9 -16 25.5 -27.5t60.5 -32.5q45 -20 45 -37q0 -18 -22 -18q-16 0 -47 11q-24 8 -32 8t-22 -7q-14 -8 -23.5 -26t-9.5 -36q0 -6 2 -14q9 -31 78 -49q20 -5 52 -5q29 0 42 4q48 13 71.5 43.5t29.5 84.5q1 5 1 15
q0 51 -43 88q-19 15 -57 28q-28 9 -37 16t-9 19q0 10 6.5 18t28.5 27q49 42 56 73q2 12 2 17q0 27 -18 52.5t-49 41.5q-21 10 -51 17q-24 4 -56 4t-56 -4q-4 -1 -8.5 -2t-7 -1.5t-4.5 -0.5q-5 0 -11 6q-9 7 -13 8zM43 507q11 60 97 60q21 -1 29 -6q10 -6 20 -4q24 4 56 4
q83 0 125 -24q52 -28 69 -74q4 -11 14 -17q15 -10 29 -28t19 -35q5 -20 5 -38q0 -11 -1 -15q-10 -37 -47 -68q-16 -12 -16 -14t9 -9q27 -22 37 -46q7 -15 14 -21q40 -33 51 -64q6 -18 6 -42q0 -67 -26 -102q-41 -60 -134 -60q-47 0 -86 16q-41 16 -52 44q-3 9 -17 14l-14 5
q-7 -35 -23 -53q-17 -17 -42 -17q-27 0 -46 18q-20 18 -20 32q0 10 -16 11q-18 2 -35.5 14.5t-25.5 28.5q-6 12 -6 34q0 8 2 26q4 32 17 288q8 141 8 142z" />
    <glyph glyph-name="agrave" unicode="&#xe0;" horiz-adv-x="501" 
d="M194 120q6 1 17 1q21 0 29 -4q13 -7 13 -23q0 -8 -4 -12q-10 -11 -49 -13h-8q-25 0 -33 13q-4 7 -4 13q0 19 39 25zM277 336q-17 5 -44 5q-21 0 -41 -3q-20 -4 -43 -11.5t-43.5 -22t-20.5 -30.5q0 -4 2 -10q8 -19 25 -23q4 -1 9 -1q8 0 42 11q20 7 34 7q9 0 18 -3
q23 -8 30 -28q3 -7 3 -15.5t-2 -10.5t-35 -2q-111 0 -152 -50q-19 -22 -19 -59q0 -36 18 -58q16 -22 46 -33q34 -13 60 -13q33 0 78 18l19 8l17 -9q18 -9 29 -9q32 0 46 9q10 7 12.5 17.5t2.5 44.5v11v11v8t1.5 6.5t1.5 4.5t2.5 4t3 3t4.5 4.5t6 4.5q14 11 14 26
q0 21 -22 30q-11 5 -14.5 9.5t-5.5 16.5q-13 68 -37 99q-16 23 -45 33zM169 536q-11 7 -24 -5q-16 -13 -16 -32q0 -27 41 -69q34 -35 51 -35q13 0 22.5 5.5t9.5 12.5q0 20 -48 85q-19 26 -36 38zM108 476q-3 10 -3 22q0 26 16.5 45.5t38.5 19.5q19 0 38 -16q5 -5 29.5 -38.5
t35.5 -44.5q19 -19 46 -58.5t27 -62.5q0 -17 8 -29q4 -6 9 -16.5t10 -17.5t12 -12q47 -31 66 -119q1 -4 2 -10t2 -8.5t3.5 -5t6.5 -4.5q30 -13 30 -46q0 -25 -21 -38l-10 -7l-2 -43q-1 -43 -4 -50q-13 -26 -67 -26q-28 0 -43 11q-6 4 -13 1q-20 -10 -50 -17q-17 -3 -36 -3
q-47 0 -78 15q-36 17 -48 41q-6 11 -27 21q-39 19 -55 46q-15 26 -15 62q0 30 11 57q21 46 85 67l12 3l-13 2q-36 5 -47 41q-2 5 -2 17q0 17 6 27q11 19 47.5 37t67.5 22q22 2 25 3q8 1 4 5q-2 2 -7 3q-18 3 -55 42q-33 36 -42 62z" />
    <glyph glyph-name="aacute" unicode="&#xe1;" horiz-adv-x="507" 
d="M157 110q8 14 48 14q16 0 22 -2q23 -4 24 -24v-5q0 -12 -9.5 -16t-37.5 -4q-26 0 -33 4q-15 10 -15 25q0 5 1 8zM286 335q-24 6 -51 6q-77 0 -117 -31q-12 -9 -12 -23q0 -9 6 -20q9 -15 29 -15q11 0 38 5q25 5 29 5q5 0 8 -1q38 -6 45 -39q1 -4 1 -11q0 -13 -12 -13
q-6 0 -10 1q-24 4 -65 4q-23 0 -37 -2q-82 -15 -95 -77q-2 -12 -2 -23q0 -28 5 -40q12 -29 47.5 -48.5t79.5 -19.5q24 0 51 8q22 6 26 6t15 -7q17 -14 44 -14h8q30 1 38 15q3 5 7.5 34t4.5 41q0 16 13 23q26 11 26 34q0 18 -18 29q-17 10 -17 21q0 36 -14 78q-11 33 -27 50
t-44 24zM324 518q-8 9 -14 9q-3 0 -17 -7q-17 -10 -50 -45.5t-39 -50.5q-4 -11 -1 -16q9 -15 31 -15q15 0 44 21q56 41 59 70v6q0 14 -13 28zM296 550q7 3 14 3q20 0 37 -24q15 -19 15 -39q0 -7 -1 -10q-2 -12 -4 -16t0 -3q1 1 5 3q4 3 17 5q11 1 21 -8q22 -21 22 -44
q0 -36 -53 -76q-17 -13 -17 -15q0 -1 6 -9q16 -19 21 -40q2 -5 5 -7q15 -6 36 -32q17 -23 25 -56t9.5 -54t4.5 -21q17 -6 26 -24q6 -12 6 -23q0 -28 -28 -42q-5 -2 -6 -3l-3 -3t-2.5 -4.5t-0.5 -7.5q-7 -66 -12 -75q-10 -19 -46 -23q-5 -1 -15 -1q-30 0 -57 22l-12 -4
q-27 -10 -61 -10q-57 0 -97 26q-11 7 -26.5 22t-15.5 19q0 2 -14 9q-79 36 -79 112v11q6 67 59 98q9 6 27.5 12t25.5 6q9 0 4 4q-3 1 -7 2q-42 8 -42 57q0 17 6 27q14 24 55 37.5t91 13.5h29l6 8l5 8l-12 -6q-13 -7 -28 -7q-16 0 -30 7q-28 13 -28 37q0 28 44 76
q47 53 75 62z" />
    <glyph glyph-name="acircumflex" unicode="&#xe2;" horiz-adv-x="501" 
d="M190 121q18 2 26 2q35 0 35 -28q0 -9 -4.5 -13t-20.5 -8q-22 -4 -33 -4q-15 0 -23 4q-16 8 -16 22q0 19 36 25zM261 342q-14 2 -25 2q-49 0 -87 -15q-24 -10 -43 -23t-21 -22q-1 -2 -1 -7q0 -24 21 -33q6 -3 13 -3q9 0 35 9q27 9 44 9q21 0 37 -15q14 -14 14 -30
q0 -3 -2 -9q-2 -4 -33 -4q-103 0 -147 -44q-16 -15 -20 -29q-6 -18 -6 -37q0 -25 9 -44q21 -46 95 -58q5 -1 17 -1q41 0 89 21l11 5l16 -8q17 -9 35 -9q22 0 31 4q17 6 21 16.5t4 50.5v42l14 10q19 15 19 32q0 19 -23 30q-12 6 -14.5 9.5t-5.5 18.5q-11 57 -33 91t-64 41z
M311 350q-2 2 -8.5 9t-11.5 13q-8 10 -11 10q-1 0 -7 -7.5t-5 -8.5q6 -2 13 -4t30 -12zM236 524q-14 7 -28 7h-5q-26 0 -40 -14q-6 -6 -31 -46.5t-30 -51.5q-2 -4 -2 -10q0 -15 23 -18h4q13 0 23 9t31 40q19 28 27 29q7 0 27 -22q17 -18 32 -31q11 -9 25 -9q36 0 36 20
q0 4 -3 10q-7 14 -40.5 47t-48.5 40zM195 555q3 0 7.5 0.5t6.5 0.5q23 0 43 -12.5t56 -48.5q23 -23 37 -44t30 -38q21 -23 29 -34t8 -23q0 -20 -24 -29q-11 -4 -29 -4q-13 0 -17 2t-4 1l6 -10l6 -10q7 -11 9 -16q7 -14 14 -19q25 -16 43.5 -52t25.5 -76q3 -15 12 -19
q31 -14 31 -45q0 -24 -21 -39l-10 -8l-2 -44q-1 -44 -6 -52q-8 -13 -32 -19q-15 -4 -32 -4q-28 0 -44 11q-6 4 -13 1q-41 -21 -90 -21q-41 0 -72 15q-35 17 -49 41q-7 12 -15 15q-22 7 -44 26t-30 38q-9 21 -9 54q0 17 3 30q14 64 91 90l14 4l-13 1q-16 2 -22 6
q-28 15 -28 54q0 13 4 21q15 34 84 56l14 5l17 28l16 28q-5 -6 -10 -13q-27 -38 -59 -38q-11 0 -27 7q-26 12 -26 34q0 10 6 24q3 7 24 42.5t30 47.5q12 18 25 25.5t36 9.5z" />
    <glyph glyph-name="atilde" unicode="&#xe3;" horiz-adv-x="503" 
d="M192 123q1 0 9 0.5t13 0.5q38 0 38 -28q0 -10 -7.5 -14.5t-31.5 -8.5q-16 -2 -22 -2q-21 0 -32 15q-4 5 -4 11q0 21 37 26zM270 341q-12 3 -32 3q-46 0 -78 -10q-38 -12 -62 -33q-11 -10 -11 -23q0 -10 7 -20q11 -14 27 -14q10 0 36 8q27 9 43 9q21 0 36 -16
q15 -15 15 -32q0 -4 -4 -8t-30 -3h-12q-68 0 -116.5 -26.5t-48.5 -79.5q0 -20 5 -35q14 -48 84 -67q20 -4 33 -4q44 0 83 18q17 8 29 0q16 -11 40 -11q18 0 33 6.5t19 16.5q1 3 3 48l1 42q8 5 22 19q11 11 10 22q-1 21 -24 31q-16 7 -18 23q-7 40 -19 68q-24 58 -71 68z
M329 413q0 1 -1 1t-1 -1t1 -1t1 1zM333 493q-2 9 -13 18t-22 9q-7 0 -10 -2q-13 -6 -16 -27q-1 -14 -5.5 -18t-16.5 -4q-18 0 -49 25q-22 18 -42 22q-3 1 -10 1q-21 0 -42 -15.5t-33 -40.5q-9 -18 -9 -31q0 -16 16 -24q8 -4 15 -4t15 4q7 4 15 22q11 27 22 27q3 0 22 -13
q45 -34 85 -34q34 0 56 25q23 23 23 52q0 5 -1 8zM123 358q0 7 3 25q-5 0 -10 -2t-19 -2q-20 0 -29 5q-27 14 -27 45q0 44 38 82q31 31 72 31h4q29 -1 59 -27q23 -20 29 -20q2 0 4 8q2 16 17.5 28.5t34.5 12.5h3q25 -2 40.5 -19.5t14.5 -45.5l-1 -17h15q21 0 35 -15
q11 -11 11 -34q0 -36 -19 -57q-18 -20 -42 -27q-12 -4 -13 -5.5t6 -12.5q9 -13 13 -23q6 -13 12 -16q22 -11 43 -49q18 -34 27 -78l3 -18l10 -4q30 -12 30 -45q0 -8 -1 -11q-4 -16 -23 -29l-9 -6l-1 -44q-1 -42 -7 -52q-8 -13 -32 -19q-15 -4 -33 -4q-27 0 -43 11l-7 4
l-12 -5q-35 -16 -77 -16q-35 0 -44 2q-36 8 -63 29q-10 8 -22 27q-6 9 -12 11q-10 2 -26.5 12.5t-25.5 20.5q-22 22 -29 50q-4 15 -4 33q0 47 26 78q24 29 68 44l15 5l-12 1q-24 3 -38 21q-12 17 -12 37q0 27 19 43q22 19 38 24q3 1 3 13z" />
    <glyph glyph-name="adieresis" unicode="&#xe4;" horiz-adv-x="503" 
d="M193 122q14 2 20 2q28 0 36 -16q3 -8 3 -13q0 -16 -22 -20q-19 -4 -37 -4q-31 0 -37 19q-1 2 -1 6q0 21 38 26zM275 339q-13 4 -35 4q-55 0 -93 -15q-41 -18 -54 -32q-6 -6 -6 -17q0 -21 16 -31q8 -5 17 -5t35 8q29 9 41 9q9 0 18 -3q27 -9 34 -34q2 -12 -1 -17t-36 -5
q-111 0 -152 -50q-19 -24 -19 -59t19 -59q35 -44 104 -44q12 0 19 1q35 5 63 17l16 6l14 -7q17 -9 40 -9q43 0 50 23q3 12 3 47v17q0 18 2.5 23.5t12.5 12.5q13 8 15 13q4 7 4 15q0 23 -25 34q-14 7 -18 27q-8 38 -20 67q-21 50 -64 63zM308 382q0 10 -1.5 12t-7.5 -0.5
t-10 -2.5q-8 0 -10 -3t-2 -13q0 -12 3 -13h3l31 -12q0 2 -3 10t-3 22zM182 475q-8 5 -14 5q-8 0 -22 -7q-16 -8 -16 -33q0 -8 3 -15q6 -13 23 -13q22 0 32 19q5 10 5 20q0 18 -11 24zM297 480q-8 5 -18 5q-11 0 -18 -6q-10 -9 -10 -27q0 -25 15 -34q7 -4 15 -4q18 0 25 16
q5 12 5 21q0 20 -14 29zM206 413q17 7 22 7q3 0 2 4q-5 15 -5 32q0 22 15.5 38t38.5 16q11 0 22 -4q35 -11 35 -54q0 -6 -2 -18q-2 -7 -1 -8t5 0q10 2 15 2q19 0 30.5 -13.5t11.5 -34.5q0 -22 -11 -36t-30 -14q-5 0 -15 2q-4 1 -4 0q0 -2 8 -12q0 -1 1 -2q4 -5 13.5 -24
t17.5 -24q48 -28 69 -132q2 -11 11 -15q32 -14 32 -44q0 -26 -24 -42l-9 -7l-2 -42q-1 -34 -3 -43t-10 -17q-17 -16 -56 -16q-29 0 -45 11q-8 5 -13 2q-42 -20 -88 -20q-21 0 -38 4q-27 5 -52 21t-34 33q-5 9 -10 11q-7 1 -23.5 10.5t-24.5 17.5q-22 20 -30 39q-9 19 -9 50
q0 16 3 30q14 65 89 91l15 5l-10 2q-26 3 -39 22q-11 15 -11 36q0 27 20 44q40 33 88 40l15 3l1 10l2 8q2 7 3 12l1 5q-21 -11 -38 -11q-23 0 -36 14t-13 37v5q5 56 59 59q15 1 27 -6q23 -13 24 -46q1 -18 -4 -29z" />
    <glyph glyph-name="aring" unicode="&#xe5;" horiz-adv-x="507" 
d="M160 113q11 11 49 11q16 0 22 -2q6 -1 14 -9q7 -7 6 -18q-1 -12 -7 -17q-6 -4 -35 -4t-36 4q-18 10 -18 24q0 6 5 11zM265 478q-6 2 -8 2q-16 0 -16 -11q0 -5 4 -8q4 -4 10 -4q15 0 15 13q0 7 -5 8zM237 500q12 5 20 5q15 0 25.5 -9.5t12.5 -22.5v-5q0 -16 -12 -26
t-28 -10q-17 0 -28 11q-12 10 -12 26q0 22 22 31zM361 258q-14 44 -41.5 61.5t-84.5 19.5h-18q-20 0 -43 -7q-63 -18 -63 -46q0 -10 4 -17q12 -17 33 -17q6 0 30 4q15 3 29 3q26 0 41.5 -12t15.5 -34q0 -17 -13 -17q-2 0 -16 2q-26 4 -60 4t-54 -4q-48 -13 -67 -46
q-14 -23 -14 -55q0 -13 3 -25q6 -23 32 -43.5t59 -28.5q15 -4 37 -4q30 0 63 9l15 5l9 -7q23 -18 52 -18q28 0 36.5 8t14.5 42q5 28 5 38t2.5 14t12.5 9q26 13 26 33q0 19 -20 31q-14 8 -14 28q0 28 -12 70zM349 411q-4 5 -12 -5q-11 -11 -17 -15q-10 -7 -10 -10
q1 -3 10 -5.5t13 -1.5t13 8q6 5 6 16q0 7 -3 13zM325 500q-21 38 -67 38q-19 0 -43 -11q-39 -20 -39 -61q0 -22 13 -42q18 -28 59 -28h8q66 5 76 56q1 4 1 13q0 19 -8 35zM238 561q14 2 22 2q30 0 49 -12q41 -25 48 -64q1 -9 12 -14q22 -10 36 -32t14 -46q0 -8 -1 -12
q-6 -42 -45 -61l-10 -5q16 -32 18 -40q3 -8 10 -11q6 -2 18.5 -14t18.5 -21q24 -33 29 -107l1 -18l9 -6q25 -14 25 -42q0 -9 -5 -22q-7 -11 -34 -25l-4 -25q-9 -61 -18 -71q-13 -14 -53 -14q-34 0 -53 16q-7 6 -16 3q-29 -9 -60 -9q-95 0 -139 65q-5 8 -19 14q-49 25 -67 62
q-8 16 -8 43q0 44 20 76q13 20 39.5 35.5t56.5 19.5l12 1l-12 3q-36 7 -45 46q-3 11 0 23q3 15 12.5 24.5t31.5 20.5q33 17 79 18q9 0 14.5 0.5t9 1t4 1.5t0.5 2q0 2 -9.5 5t-20 6.5t-12.5 4.5q-21 12 -32 33q-10 20 -10 50q0 29 10 46q24 40 74 49z" />
    <glyph glyph-name="ae" unicode="&#xe6;" horiz-adv-x="690" 
d="M189 127q6 1 19 1q25 0 32 -4q6 -4 10 -15q2 -10 2 -12q0 -15 -34 -19q-16 -3 -27 -3q-20 0 -30 13q-6 8 -6 14q0 19 34 25zM363 270q15 25 37 25q8 0 15 -3q26 -10 26 -33q0 -8 -5 -12q-9 -8 -46 -14q-16 -2 -19 -2q-11 0 -12 8q-1 2 -1 7q0 14 5 24zM452 360
q-23 6 -43 6q-49 0 -86 -27q-11 -7 -14 -7q-2 0 -16 8q-24 14 -64 14q-29 0 -49 -6q-30 -9 -58.5 -27t-31.5 -30q-1 -3 -1 -8q0 -12 11 -23q10 -10 22 -10q11 0 38 9q21 7 39 7q26 0 42 -19q11 -13 11 -26q0 -7 -5 -12q-4 -3 -29 -2h-17q-54 0 -95 -16.5t-55 -44.5
q-11 -24 -11 -47q0 -60 56 -88q31 -15 81 -15q69 0 120 24q18 9 21 9q1 0 21 -8q34 -14 79 -15h12q56 0 103 17.5t54 41.5q2 10 2 16q0 16 -5 24q-4 7 -14 13.5t-15 6.5q-6 0 -24 -9q-40 -18 -86 -18q-39 0 -55 17q-11 12 -8 24q3 10 43 18q117 23 127 43q3 6 3 19
q0 32 -13 63q-26 61 -90 78zM119 225q-21 0 -37.5 18t-16.5 42q0 23 16 38q13 13 48 31q47 25 102 25q36 0 62 -12l16 -7l11 6q39 24 94 24q18 0 34 -3q86 -19 115 -89q4 -12 13 -17q52 -35 62 -108q2 -16 2 -21q0 -33 -19 -44l-7 -4l-1 -19v-19q4 1 12 1q13 0 29 -13
q20 -16 20 -41v-5q-2 -26 -18.5 -42.5t-53.5 -29.5q-44 -15 -101 -15q-60 0 -99 17l-13 6l-9 -4q-44 -25 -118 -28h-22q-45 0 -78 15q-41 20 -51 44q-3 8 -14 12q-48 18 -68 56q-13 25 -13 61q0 33 12 57q10 20 32.5 37t47.5 25q12 5 11 6z" />
    <glyph glyph-name="ccedilla" unicode="&#xe7;" horiz-adv-x="466" 
d="M289 166q7 3 6 4q-12 0 -26 -8l-2 -2l4 1q1 0 4 1t7 2t7 2zM300 347q-21 7 -53 8h-16q-16 0 -30 -2q-112 -25 -146 -105q-14 -34 -14 -73q0 -45 17 -78q30 -57 106 -83q16 -6 17 -10q2 -4 -10 -27q-6 -10 -6 -16q0 -11 25 -18q38 -11 38 -32q0 -6 -5 -14q-9 -16 -57 -17
q-32 -1 -37 -7q-9 -12 4 -21q5 -4 27 -4q40 0 62 10q36 18 36 53q0 32 -36 52q-12 8 -13 10q-2 9 9 23q6 7 16 7q29 0 64 13q31 11 49.5 30.5t18.5 40.5q0 16 -12.5 34.5t-26.5 23.5q-8 2 -9 2q-8 0 -25 -6q-44 -14 -62 -15h-10q-44 0 -60 27q-5 7 -5 28q0 20 5 30
q10 22 32 35q11 6 33 6q23 0 46 -7q21 -7 37 -7q11 0 24 5q27 13 27 40q0 3 -2 13q-8 34 -58 51zM228 -178q56 0 56 18q0 6 -10 11q-10 6 -13 4q-26 -19 -43 -24.5t-50 -5.5t-39 2q-10 2 -18.5 13.5t-8.5 25.5q0 9 4 17q9 21 39 21h11q3 0 8 -0.5t7 -0.5q10 0 19 3l11 5
q-2 2 -17 7q-28 9 -36 21q-7 10 -7 22q0 3 0.5 7t0.5 7t-1 6.5t-3.5 6.5t-4.5 5.5t-6 5.5t-6.5 4.5t-7 4.5t-5.5 4q-92 53 -92 162q0 55 22 96q47 86 163 107q26 4 41 4q54 0 95 -22.5t46 -62.5q1 -11 8 -13q50 -20 53 -69q0 -38 -34 -55q-9 -5 -29 -5q-21 0 -21 -1t7 -8
q6 -6 14.5 -22.5t9.5 -25.5q1 -8 6 -8q10 0 24.5 -13.5t22.5 -29.5q6 -12 6 -31q0 -16 -7 -30q-14 -27 -51.5 -45.5t-76.5 -20.5q-13 -1 -15 -2.5t-4 -10.5q36 -18 44 -44q4 -16 4 -23q0 -26 -18 -44q-30 -31 -88 -31q-36 0 -46 10q-9 9 -9 21q0 11 9 20l7 7h29z" />
    <glyph glyph-name="egrave" unicode="&#xe8;" horiz-adv-x="518" 
d="M206 262q8 27 39 27q18 0 29.5 -7.5t11.5 -18.5q0 -2 -2 -8q-5 -11 -43 -16q-22 -3 -28 0q-11 7 -7 23zM287 351q-12 2 -52 2q-24 0 -27 -1q-35 -8 -59 -24q-38 -25 -56 -79q-7 -23 -23 -27q-7 -2 -15.5 -10t-11.5 -16t-3 -18q0 -32 23 -50q13 -10 20 -32t29 -43.5
t50 -33.5q48 -20 104 -20q37 0 70 9q63 19 79 59q2 5 2 14q0 15 -9 28.5t-20 19.5q-7 4 -15 4q-12 0 -46 -17l-30 -15h-21q-30 0 -47.5 8t-17.5 21q0 1 0.5 2.5t0.5 2.5q1 6 9 8t41 8q89 14 112 32q13 10 13 35q-2 72 -47 108q-23 19 -53 25zM202 545q-12 12 -22 12
q-6 0 -8 -2q-23 -16 -23 -38q0 -25 39 -68q22 -23 40 -32q7 -3 14 -3q11 0 20 6q12 8 7 24q-5 14 -30.5 52.5t-36.5 48.5zM142 563q20 20 39 20t36.5 -18t42.5 -55q11 -17 26 -29q9 -7 36 -47q34 -50 34 -72v-5q-1 -8 10 -21q22 -24 31 -50q1 -6 16 -16q58 -39 58 -126
q0 -25 -6 -34q-5 -8 -15 -13q-10 -4 -9 -13q1 -8 7 -8q12 0 25.5 -12t21.5 -28q6 -14 6 -27q0 -35 -44 -64q-42 -26 -97 -30q-8 -1 -24 -1q-55 0 -102 18.5t-70 48.5q-12 15 -21 19q-29 14 -52.5 38t-31.5 49q-6 16 -16 25q-27 27 -27 65q0 2 0.5 5.5t0.5 5.5q4 38 37 54
q8 4 11 7.5t7 16.5q18 53 57 79q41 28 87 32q22 2 22 3q1 1 -1 3t-6 5t-10 5q-34 14 -71 61q-27 33 -27 65q0 25 19 44z" />
    <glyph glyph-name="eacute" unicode="&#xe9;" horiz-adv-x="506" 
d="M235 289q3 2 15 2q13 0 19 -2q9 -2 16.5 -10.5t7.5 -15.5q0 -12 -8.5 -16t-34.5 -6h-12q-26 0 -26 17q0 18 23 31zM338 330q-32 22 -95 26h-12q-13 0 -32 -4q-71 -18 -99 -84q-6 -13 -9.5 -17t-13.5 -7q-37 -10 -37 -49q0 -26 17 -45q10 -11 17 -35q15 -57 86 -93
q46 -23 111 -23q45 0 80.5 13t49.5 39q3 7 3 16q0 30 -22 47q-11 8 -21 8q-13 0 -46 -13q-24 -10 -35 -10q-45 0 -68 21q-6 6 -6 14q0 11 8 13.5t55 5.5q93 6 110 23q11 11 11 35q0 3 -0.5 9.5t-0.5 10.5q-3 67 -51 99zM314 555q-10 8 -12 8q-20 0 -68 -64q-32 -42 -32 -59
q0 -5 2 -7q9 -11 27 -11q23 0 67 44q34 34 34 57q0 18 -18 32zM295 586q3 1 9 1q15 0 33 -19q18 -20 18 -43q0 -12 -2 -20q-2 -7 0 -7l3 2q6 5 15 5q21 0 35 -24q9 -12 9 -31q0 -14 -6 -28q-8 -16 -34 -41l-27 -27l11 -8q26 -21 40 -53q6 -14 17 -22q24 -15 39 -41
q19 -32 19 -82q0 -21 -5 -38q-6 -21 -28 -27q-9 -3 -10.5 -4.5t-1.5 -6.5q0 -7 9 -8q22 -3 36 -23q16 -22 16 -42q0 -41 -52 -67q-34 -17 -90 -17q-59 0 -105 17q-23 8 -51.5 28t-36.5 33q-3 5 -20 14q-69 37 -86 105q-3 11 -14 25q-18 21 -19 52v9q0 52 46 67q8 2 10.5 5.5
t12.5 22.5q23 46 65 68q40 20 81 20h6q24 0 24 2q0 4 7 16l6 12l-8 -5q-15 -9 -35 -9q-22 0 -38 11.5t-16 31.5q0 2 0.5 4.5t0.5 3.5q6 28 38 69q50 65 79 69z" />
    <glyph glyph-name="ecircumflex" unicode="&#xea;" horiz-adv-x="511" 
d="M228 285q5 4 20 4q24 0 36 -12q7 -7 7 -16q0 -14 -14 -17q-23 -5 -48 -5q-2 0 -5 1h-4q-10 3 -10 14q0 18 18 31zM389 215q0 61 -33 97t-91 41q-30 2 -34 2q-14 0 -38 -6q-39 -11 -59.5 -31t-37.5 -61l-7 -18l-13 -4q-35 -13 -35 -45q0 -29 18 -48q11 -12 18 -33
q12 -38 42 -62q32 -26 66 -37q36 -13 81 -13q48 0 87.5 15.5t53.5 43.5q3 6 3 14q0 28 -20 45q-11 10 -24 10q-14 0 -48 -15q-24 -11 -40 -11q-28 0 -49 9.5t-21 21.5q0 11 12 15t55 8q83 7 102 23q12 9 12 39zM279 541q-13 7 -29 7h-8h-7l-3 -1q-2 0 -8 -2q-12 -2 -49 -54
q-36 -50 -36 -59q0 -7 9.5 -13t20.5 -6q17 0 50 40q18 22 23 27t9 5h3q5 0 24 -23q23 -30 33.5 -38.5t24.5 -8.5q12 0 23 6.5t11 13.5q0 18 -55 76q-21 23 -36 30zM225 571q8 2 17 2q10 0 20 -2q35 -4 62 -33q36 -36 58 -69q10 -15 18 -23q45 -47 53 -72q1 -2 1 -8
q0 -25 -27 -32q-12 -2 -21 -2q-14 0 -22 3q-15 7 -41 40q-13 17 -19 17t-12 -6q-7 -7 -8 -9.5t0.5 -3.5t10.5 -4q29 -10 53.5 -34t33.5 -51q4 -9 10 -12q9 -5 22.5 -18.5t19.5 -24.5q20 -35 20 -84q0 -29 -9 -43q-3 -5 -14 -11.5t-15 -6.5q-2 0 -2 -5q0 -12 10 -12
q18 0 34.5 -21.5t16.5 -44.5v-6q-3 -26 -33 -49t-72 -30q-18 -3 -41 -3q-56 0 -101 15q-25 8 -51.5 25.5t-37.5 33.5q-6 10 -19 16q-63 31 -86 97q-7 18 -14 25q-17 18 -22 43q-2 14 -2 21q0 23 8 37q15 24 34 29q10 2 12 5t8 18q21 52 63 76q37 21 54 21q4 0 9 9
q0 1 24 33.5t24 35.5l-13 -15q-22 -28 -37 -38t-34 -10q-23 0 -38.5 12t-15.5 29q0 9 4.5 19t10 18.5t25.5 35.5q30 42 41.5 52.5t29.5 14.5z" />
    <glyph glyph-name="edieresis" unicode="&#xeb;" horiz-adv-x="510" 
d="M240 287q4 1 10 1q18 0 29.5 -7.5t11.5 -20.5q0 -12 -8 -15.5t-36 -5.5q-6 0 -13 -0.5t-8 -0.5q-7 0 -11 4q-5 5 -5 11q0 10 11 21.5t19 12.5zM268 351q-9 1 -27 1q-106 0 -143 -94q-8 -21 -19 -23q-17 -4 -27 -14q-11 -11 -11 -32q0 -30 20 -50q7 -7 16.5 -31.5
t10.5 -26.5q13 -22 41.5 -42.5t59.5 -30.5q38 -11 88 -11q31 0 48 4q31 7 58 26t27 42q0 21 -14.5 37.5t-30.5 16.5q-14 0 -47 -16q-22 -10 -37 -10q-29 0 -51 9.5t-22 22.5q0 10 11 13.5t55 7.5q64 5 94 19q13 7 16.5 13.5t4.5 25.5v6q0 59 -32 95.5t-89 41.5zM337 385
q-18 -6 -23 -6q-6 0 -6 -5q0 -6 30 -15v13zM327 471q-7 4 -15 4q-20 0 -28 -15q-5 -10 -5 -20q0 -14 8 -25t22 -11q7 0 14 3t12.5 14t5.5 23q0 7 -3 13q-5 9 -11 14zM216 472q-8 8 -19 8q-14 0 -26 -11.5t-12 -27.5q0 -7 3 -14q6 -13 23 -13q28 0 36 24q2 6 2 12q0 15 -7 22
zM138 465q5 16 22 28t37 12q6 0 16 -2q34 -10 34 -53q0 -22 -11 -35q-3 -3 9 3l12 5l-1 11q0 2 -0.5 4t-0.5 4q0 20 11 36q14 22 45 22q29 0 43 -21q8 -14 10 -19q2 -8 2 -16q0 -14 -3 -23q-1 -4 3 -4q2 -1 9 0h6q44 0 44 -45q0 -46 -38 -53q-1 0 -1 -1q0 -3 16 -35
q2 -7 11 -13q20 -12 36 -35t21 -48q4 -22 4 -46q0 -22 -3 -30q-5 -18 -26 -27q-9 -3 -10 -11q-1 -5 0 -6.5t6 -1.5q19 0 36 -21t17 -45q0 -49 -68 -75q-32 -13 -79 -13q-80 0 -135 32q-35 20 -52 42q-8 11 -20 17q-67 36 -86 98q-4 13 -15 26q-22 24 -22 63q0 32 18 51
q5 5 16 11t16 6q3 0 11 19q23 54 67 77q32 18 58 22q10 2 12 3.5t4 7.5q1 2 2 5t2 5t1 3q2 4 0 3q-1 -1 -5 -3q-13 -9 -32 -9h-6q-21 2 -34.5 15t-13.5 34q0 11 5 26z" />
    <glyph glyph-name="igrave" unicode="&#xec;" horiz-adv-x="311" 
d="M173 355q-7 4 -28 4q-9 0 -12 -1q-37 -11 -37 -67q0 -17 1 -26q2 -35 4 -136q1 -108 6 -115q10 -14 42 -15h10q42 0 49 30q2 14 2 41q0 136 -14 229q-6 48 -23 56zM78 559q-10 3 -21 -7q-16 -15 -16 -33q0 -26 44 -70q32 -33 50 -33q7 0 15 3q15 6 15 18q0 15 -23 49
q-43 65 -64 73zM49 578q11 6 21 6q15 0 30 -10q22 -16 50 -57q11 -17 30 -36q38 -40 61 -86q8 -15 9 -28l1 -14l-9 -8q-11 -9 -26 -14l2 -12q1 -9 2 -12.5t3.5 -5t7.5 -1.5q28 0 39 -24q17 -33 23 -228q1 -25 1 -57q0 -22 -1 -27q-5 -28 -17 -38t-45 -10h-12q-30 1 -38 5
q-20 10 -20 35v10t-3 5t-4.5 2t-10.5 1q-55 6 -63 41q-3 21 -3 97q0 91 -3 133q-2 36 -2 44q0 42 14 65q14 21 34 26q9 2 9 3q0 4 -6 7.5t-15.5 8t-11.5 5.5q-9 6 -30 28.5t-31 35.5q-19 28 -19 52q0 36 33 58z" />
    <glyph glyph-name="iacute" unicode="&#xed;" horiz-adv-x="304" 
d="M125 344q-10 2 -17 2q-16 0 -23 -3q-16 -7 -23.5 -25.5t-8.5 -35.5t-1 -54q0 -27 -6 -113q-6 -74 -6 -90q0 -15 4 -21q8 -12 40 -17q7 -1 18 -1q28 0 38 15q11 18 15 183v31q0 81 -6 105q-7 20 -24 24zM205 510q0 9 -10 25t-18 16q-19 0 -71 -58q-36 -40 -37 -54
q-1 -10 8 -16t22 -6t24 6q36 21 61 48q21 21 21 39zM173 574h5q19 0 34.5 -20.5t15.5 -46.5q0 -12 -4 -23q16 8 27 8q7 0 9 -2q28 -16 28 -52q0 -12 -6 -25q-10 -20 -49 -51t-55 -31q-5 0 -5.5 -0.5t0.5 -5.5q3 -10 4 -22l1 -14l14 -2q34 -6 41 -33q6 -22 6 -118
q0 -74 -2 -112q-3 -68 -10 -90t-27 -28q-14 -4 -33 -4q-10 0 -26 2q-42 7 -42 45v12l-15 2q-44 4 -60 27q-8 13 -8 32q0 27 7 108q3 34 5 107q1 66 5 77q5 19 19 34.5t30 19.5q10 2 26 2h18q4 17 17 34l-14 -7q-12 -6 -26 -6q-31 0 -49 20q-11 13 -11 25q0 31 68 99
q36 36 62 39z" />
    <glyph glyph-name="icircumflex" unicode="&#xee;" horiz-adv-x="371" 
d="M174 341q-8 4 -27 4q-9 0 -12 -1q-37 -11 -37 -66q0 -11 2 -43q3 -38 5 -135q1 -90 4 -97q6 -11 14.5 -13.5t34.5 -2.5q29 0 34 3q12 7 16.5 19t4.5 42q0 24 -1 40q-9 200 -24 235q-5 10 -14 15zM181 532q-10 5 -27 5h-8q-23 0 -37 -15q-9 -9 -36.5 -47t-29.5 -44
q-6 -15 9 -23q10 -5 17 -5q18 0 51 40q26 33 34 33q7 0 33 -34q17 -22 25.5 -28.5t19.5 -7.5h4q28 0 34 16q1 4 -4 16q-8 17 -40 52t-45 42zM92 541q21 21 52 21q10 0 16 -1q22 -2 34.5 -8.5t35.5 -30.5q16 -16 29 -31.5t30.5 -38t27.5 -35.5q38 -45 38 -63q0 -15 -14 -24
t-33 -9q-12 0 -24 5q-15 7 -41 42q-11 14 -18 14q-8 0 -18 -13l-10 -13q16 -16 22 -46q2 -18 3.5 -21t6.5 -3h4q35 0 43 -39q8 -33 14.5 -116t6.5 -144q0 -46 -4 -55q-9 -25 -48 -30q-6 -1 -18 -1q-27 0 -41 6q-23 10 -23 42v10l-21 3q-32 4 -46 18q-10 10 -12 27t-4 105
q-2 101 -4 131q-2 22 -2 31q0 49 19 73q4 4 6 12q2 6 16 27t27 39l12 18q-4 -3 -8 -8q-10 -15 -26 -30t-25 -20q-12 -6 -26 -6q-41 0 -52 32q-1 2 -1 8q0 16 9 30q38 60 67 92z" />
    <glyph glyph-name="idieresis" unicode="&#xef;" horiz-adv-x="322" 
d="M154 339q-7 4 -29 4q-16 0 -20 -2q-14 -7 -21 -21q-10 -18 -11 -88q0 -37 -7 -137q-4 -70 -4 -80q0 -9 9 -18q12 -12 51 -12q21 0 28 4q12 7 16 20t7 52t3 135q0 97 -3 109q-6 28 -19 34zM222 443q0 12 -8.5 22.5t-20.5 10.5q-7 0 -14 -4q-16 -8 -17 -31v-6q0 -18 13 -26
q5 -4 17 -4q10 0 15 3t10 14.5t5 20.5zM97 432q8 11 8 23t-7 20.5t-19 8.5q-15 0 -27 -10t-12 -26q0 -7 3 -16q6 -14 25 -14q20 0 29 14zM190 -99q-36 0 -53.5 10.5t-17.5 38.5v9l-21 3q-50 6 -59 37q-1 3 -1 20q0 26 5 94q3 33 5 112q2 85 12 104q10 21 27 30q4 2 5.5 3
t3 3t2 4.5t0.5 7.5q0 12 9 30l-9 -5q-10 -6 -24 -7h-7q-51 0 -51 50q0 31 19 47.5t52 16.5q41 -8 41 -53q0 -19 -5 -28l-6 -11l10 5l9 5l1 16q1 26 15 41t39 15h5q23 -1 36.5 -15.5t13.5 -38.5q0 -16 -2 -24q-2 -5 -1 -5.5t5 0.5q8 2 13 2q19 0 32 -11q13 -12 13 -34v-5
q-2 -23 -14 -35.5t-32 -12.5q-19 0 -30 13t-11 34l1 19q0 -1 -10 -3.5t-14 -2.5q-7 0 -7 -4t-5 -14l-5 -10q14 -21 18 -50l1 -15l12 -2q34 -4 43 -31q7 -22 7 -129q0 -148 -8 -182q-6 -26 -18 -34t-44 -8z" />
    <glyph glyph-name="eth" unicode="&#xf0;" horiz-adv-x="484" 
d="M190 231q3 1 10 1q28 0 48 -18q21 -20 21 -52q0 -27 -16 -48t-41 -21h-3q-39 3 -57 41q-10 20 -10 39q0 22 13 38t35 20zM226 376q-2 3 -4.5 3t-12.5 -5l-12 -7h18q14 0 15.5 1t-4.5 8zM210 481q-43 33 -73 33q-12 0 -16 -7q-5 -7 -5 -13q0 -14 21 -22q39 -14 44 -25
q1 -2 1 -5q0 -7 -24 -20q-20 -11 -24 -15q-5 -7 -5 -13q0 -12 10 -17q6 -2 9 -2q12 0 42 17q29 16 39 16q3 0 5 -2q39 -46 39 -57q0 -5 -5 -8q-6 -3 -30 0q-18 2 -27 2q-61 0 -104.5 -35t-59.5 -90q-6 -21 -6 -54q0 -27 5 -50q21 -83 98 -113q35 -14 69 -14q64 0 111 38
t58 97q3 18 3 37q0 109 -95 242q-17 22 -17 29q0 5 6 9.5t31 18.5q23 12 29.5 18t7.5 13q1 11 -5 16q-7 5 -12 5q-10 0 -49 -21q-40 -22 -45 -22t-26 14zM92 502q4 36 44 36q14 0 26 -4q27 -8 61 -31l14 -10l13 7q19 11 36 20q27 15 41 15q7 0 15 -3q30 -9 30 -42v-7
q-2 -14 -11 -23t-34 -22q-21 -10 -21 -14q0 -1 1 -2.5t2.5 -4t3.5 -5.5l37 20q36 20 49 20q15 0 24 -9t9 -23q0 -8 -3 -15t-9 -12t-33 -19l-28 -16l13 -18q71 -99 91 -188q5 -24 5 -65q0 -35 -3 -50.5t-13 -36.5q-17 -35 -51 -61t-74 -34q-8 -2 -36 -2q-41 0 -57 5
q-54 13 -89 53q-14 16 -34 28q-69 40 -90 124q-5 22 -5 50q0 22 4 46q11 52 39 88q32 39 65 51q10 4 2 7q-21 7 -21 39q0 8 3 16q5 15 24 26l12 7l-16 6q-36 13 -36 45v8z" />
    <glyph glyph-name="ntilde" unicode="&#xf1;" horiz-adv-x="471" 
d="M257 339q-20 5 -39 5q-36 0 -70 -16q-16 -8 -19 -8q-4 0 -16 6q-17 10 -36 10q-23 0 -32 -16q-3 -6 -3 -48q0 -48 8 -142t13 -115q7 -29 44 -29q34 0 44 24q2 6 2 28q0 5 -0.5 22t-0.5 29q0 10 -0.5 26t-0.5 21q0 44 8 57q15 21 45 21h3q31 -2 42 -43q7 -26 10 -82
q4 -64 15 -84q7 -16 34 -16q11 0 17 1q32 5 42 21q4 7 4 34q0 23 -3 85q-4 70 -7.5 94t-13.5 44q-27 55 -90 71zM227 372q-5 6 -9 1q-2 -2 2 -3l3 -1q5 -1 5.5 -0.5t-1.5 3.5zM207 496q-29 29 -55 29q-4 0 -14 -2q-26 -7 -49 -33.5t-23 -48.5q0 -7 3 -13q10 -15 28 -15h3
q16 1 28 25q12 23 21 23q7 0 21 -12q29 -25 50 -34q12 -6 35 -6q37 0 57 21q22 23 22 51q0 16 -7 23q-12 12 -26 12q-28 0 -28 -33q0 -9 -3.5 -11.5t-14.5 -2.5q-20 0 -48 27zM130 346q-6 9 -6 24t5 27q-18 -8 -35 -8q-12 0 -21 4q-31 14 -31 47q0 32 24.5 63.5t57.5 41.5
q9 3 32 3q20 -1 33.5 -7.5t35.5 -26.5q21 -19 23 -19q4 0 4 7q0 8 6.5 17.5t14.5 13.5q11 6 32 6q16 0 24 -4q31 -15 31 -52v-8q-1 -4 -2.5 -9t-1 -5.5t3 -2.5t9.5 0h4q22 0 34.5 -13.5t12.5 -35.5q0 -20 -10 -39q-7 -16 -28 -31q-4 -4 -18.5 -9t-19.5 -5t3 -11q2 -2 4 -5
q16 -23 19 -31q7 -14 16 -20q10 -6 22.5 -21t19.5 -29q12 -23 16 -48.5t8 -96.5q3 -81 3 -86q0 -38 -6 -47q-18 -26 -65 -26q-32 0 -43 12q-11 11 -18 42q-1 6 -17 7q-32 3 -44 16q-15 15 -22 51l-2 9q-1 0 -1 -48q0 -45 -1.5 -55.5t-9.5 -18.5q-15 -15 -43 -16h-8
q-29 0 -41.5 13t-16.5 46h-13q-26 0 -45 14q-22 17 -27 77q-13 163 -15 198q-1 12 -1 33q0 50 21 64q17 13 43 13q22 0 41 -10z" />
    <glyph glyph-name="ograve" unicode="&#xf2;" horiz-adv-x="478" 
d="M141 170q0 51 39 63q8 2 18 2q18 0 26 -3q20 -8 32 -30q10 -18 10 -36q0 -45 -42 -66q-12 -5 -21 -5q-24 0 -43 21.5t-19 53.5zM283 329q-36 16 -70 16h-7q-71 0 -120 -52q-33 -34 -43 -84q-3 -13 -3 -29q0 -61 28 -112q22 -39 58.5 -60.5t80.5 -21.5q22 0 44 6
q127 35 127 169q0 25 -4 48q-3 18 -3 43q0 45 -29 65q-7 5 -24 4h-8q-7 0 -27 8zM182 534q-12 8 -16 8t-14 -9t-13 -16t-3 -16q0 -24 36 -61q40 -41 57 -41q33 0 33 20t-32.5 62t-47.5 53zM111 501q0 24 13.5 41t31.5 23q3 1 9 1q32 0 80 -65q9 -13 18 -24t19.5 -23
t17.5 -21q43 -56 46 -79q1 -11 9 -15q13 -8 25.5 -27.5t14.5 -36.5q1 -10 7 -10q26 0 45 -40q8 -18 9 -56q0 -18 2.5 -38.5t2.5 -35.5v-15q-1 -33 -7 -52q-25 -74 -87 -105q-39 -19 -81 -20h-9q-50 0 -89 23q-10 6 -27.5 21.5t-20.5 21.5q-2 4 -13 10q-49 23 -76 67
q-35 56 -35 134q0 23 4 39q13 63 64 106.5t113 44.5h8q15 0 15 2t-8 5q-21 9 -52 39q-49 48 -49 85z" />
    <glyph glyph-name="oacute" unicode="&#xf3;" horiz-adv-x="495" 
d="M178 234q7 3 20 3q21 0 35 -7q32 -17 32 -58v-7q-2 -28 -20.5 -46.5t-46.5 -19.5h-5q-22 0 -36 17q-16 19 -16 49q0 24 10 43t27 26zM256 339q-25 7 -54 7q-10 0 -13 -1q-93 -20 -127 -90q-21 -42 -21 -97q0 -43 14 -77q10 -22 31 -44t43 -33q29 -15 77 -15q35 0 52 6
q80 26 109 114q1 3 9 38.5t13 49.5q5 11 5 29q0 30 -15 44q-5 5 -18 9q-21 5 -36 22q-22 24 -69 38zM306 524q-9 9 -12 9q-14 0 -49 -33q-60 -60 -60 -82q0 -6 4 -9q11 -10 28 -10q11 0 18 4q32 17 60 45q25 25 25 45q0 16 -14 31zM340 467q19 8 25 8q9 0 18 -9
q21 -21 21 -43q0 -17 -5 -27q-11 -21 -48 -50q-4 -3 -9 -7t-8 -6l-2 -2q0 -3 14.5 -15.5t18.5 -12.5q21 0 35.5 -19.5t18.5 -45.5q1 -7 2.5 -10t5 -4.5t12.5 -3.5q40 -7 40 -67q0 -19 -10 -43q-7 -18 -8 -29q-5 -55 -35 -99q-54 -78 -146 -78q-34 0 -85 17q-36 13 -63 51
q-3 3 -21 13q-30 16 -55 47.5t-34 64.5q-6 24 -6 55q0 33 6 63q12 58 51.5 98t96.5 53q17 4 44 4q14 0 20 -1l13 -2q5 8 10 19l-13 -6q-12 -6 -27 -6q-30 0 -48 21q-10 11 -10 24q0 24 46 76q40 45 64 56q13 7 25 7q26 0 45 -37q4 -8 4 -26q0 -17 -3 -28z" />
    <glyph glyph-name="ocircumflex" unicode="&#xf4;" horiz-adv-x="478" 
d="M141 165q0 56 46 63q5 1 15 1q17 0 25 -4q18 -8 28.5 -26t10.5 -39q0 -30 -23 -53q-19 -19 -41 -19q-34 0 -54 40q-7 15 -7 37zM286 321q-42 18 -83 18q-8 0 -24 -2q-37 -6 -72.5 -33t-51.5 -61q-15 -33 -15 -71q0 -41 16 -81.5t39 -63.5q47 -47 111 -47q13 0 19 1
q58 7 97.5 42.5t51.5 89.5q4 19 4 38q0 14 -3 42.5t-3 44.5q0 26 -2.5 36t-13.5 24q-13 17 -31 17h-7h-9q-9 0 -23 6zM258 364q-7 7 -9 7t-5 -5t5 -6q12 -4 13 -2.5t-4 6.5zM166 403q0 2 -2 0q-1 -1 -1 -2v-1l1 1q2 1 2 2zM204 513q-14 6 -29 6q-28 0 -42 -12q-6 -5 -32 -49
t-30 -55q-2 -6 -2 -8q0 -15 23 -18h6q12 0 22.5 10.5t30.5 41.5q18 30 29 30q1 0 29 -28q27 -27 35 -31q8 -3 16 -3q14 0 26 6.5t12 15.5q0 11 -26 37q-50 48 -68 57zM150 541q13 3 26 3q24 0 43 -11q21 -13 58 -48q39 -39 43 -53q3 -9 27 -33q35 -35 35 -51q0 -4 -1 -6
q-2 -8 -13 -19l8 -11q20 -27 20 -47v-3.5t1.5 -2l3 -1t5.5 -0.5q30 -5 46 -48q4 -11 4 -38q0 -18 3 -44.5t3 -42.5v-12q-1 -30 -9 -53q-26 -78 -99 -109q-36 -15 -76 -15q-49 0 -89 23q-9 5 -37.5 31t-37.5 31q-71 41 -91 132q-7 29 -7 60q0 79 56 135q34 34 59 41
q3 1 9 10.5t12 21t7 12.5l2 4l-11 -14q-23 -31 -55 -31q-18 0 -35 11q-16 10 -16 31q0 15 42 87q20 35 31 45.5t33 14.5z" />
    <glyph glyph-name="otilde" unicode="&#xf5;" horiz-adv-x="483" 
d="M182 229q3 1 11 1q21 0 33 -5q19 -9 32 -33q6 -10 6 -32q0 -16 -5 -28q-10 -23 -36 -37q-12 -6 -24 -6q-24 0 -42 21t-18 51v7q4 51 43 61zM257 333q-21 7 -52 7q-18 0 -36 -4q-41 -11 -74.5 -40.5t-45.5 -66.5q-9 -27 -9 -66q0 -41 11 -74q17 -45 52 -73.5t83 -34.5
q6 -1 19 -1q45 0 77 17q96 49 94 174q0 15 2.5 37.5t2.5 30.5q0 23 -13 42q-12 18 -34 18q-13 0 -28 9q-32 20 -49 25zM261 357q-6 9 -8 6q-1 -1 0.5 -2.5t4.5 -2.5zM213 506q-9 5 -29 5q-13 0 -18 -2q-37 -13 -58 -53q-8 -16 -8 -26q0 -15 15 -24q9 -5 18 -4q11 1 16.5 5.5
t12.5 19.5q13 23 23 23q4 0 16 -12q31 -26 53 -37q14 -7 35 -7q33 0 55 18t27 46q0 2 0.5 5t0.5 4q0 13 -10 23q-11 11 -23 11q-25 0 -28 -27q-2 -11 -6 -15t-14 -4q-21 0 -49 27q-21 19 -29 24zM165 535q10 3 19 3q8 0 24 -4q23 -6 52 -34q22 -20 23 -20t5 11q11 34 51 34
q21 0 37 -13q19 -16 19 -42q0 -18 -3 -30q12 2 17 2q21 0 34 -12.5t13 -35.5q0 -30 -18.5 -52t-49.5 -30l-9 -3q20 -23 26 -55q1 -9 2.5 -11.5t3.5 -1.5h3q13 0 26 -11q26 -24 26 -65q0 -14 -2 -20q-4 -14 -4 -39q0 -165 -133 -204q-19 -5 -51 -5q-34 0 -49 5q-45 13 -81 50
q-19 19 -29 24q-32 15 -57 46q-31 39 -40 89q-4 17 -4 58q0 33 3 45q21 97 118 136l20 8l1 10q2 8 6 18q-18 -8 -37 -8q-12 0 -21 4q-31 16 -31 48q0 4 2 16q8 31 33 56t55 33z" />
    <glyph glyph-name="odieresis" unicode="&#xf6;" horiz-adv-x="486" 
d="M203 230q27 -1 43.5 -19t16.5 -50q0 -18 -5 -29q-8 -17 -26.5 -29.5t-35.5 -12.5q-24 0 -40.5 20.5t-16.5 49.5q0 6 2 18q7 41 40 51q3 1 22 1zM256 333q-14 5 -51 5q-25 0 -32 -2q-41 -11 -73 -37t-46 -60t-14 -76q0 -61 24 -103q11 -21 35.5 -41.5t49.5 -29.5
q21 -8 53 -8q45 0 81 17q89 43 94 169q0 13 3.5 36t3.5 33q0 28 -16 45q-9 10 -24 11q-17 1 -35 14q-24 17 -53 27zM317 377q-18 -6 -21 -6q-6 0 -7 -1t-3 -9l-2 -12q20 -10 35 -20l15 -9l-7 8q-10 10 -10 35v14zM320 443q-8 23 -31 23q-17 0 -26 -17q-3 -6 -3 -16
q0 -19 6 -26q8 -11 25 -11h5q10 1 17.5 12.5t7.5 24.5q0 7 -1 10zM202 451q-3 23 -26 23q-15 0 -26.5 -11t-11.5 -26q0 -9 4 -16q6 -12 23 -12q20 0 30 13q8 11 7 29zM129 478q17 21 47 21q14 0 28 -8q23 -14 23 -47q0 -18 -8 -30l-5 -7l10 5l10 4l1 19q3 55 55 55
q18 0 29 -7q25 -15 25 -48q0 -17 -5 -29q12 2 19 2q27 0 38 -15q8 -11 8 -30q0 -28 -17 -43q-8 -6 -10 -6q-6 0 1 -7q2 -1 5 -4q10 -9 18 -27.5t8 -33.5q0 -5 2 -6t11 -2q24 -3 37 -29q11 -20 11 -41q0 -15 -4 -28q-5 -19 -5 -42q0 -74 -39.5 -127.5t-104.5 -66.5
q-17 -4 -40 -4q-88 0 -135 60q-9 11 -20 17q-25 10 -49.5 35.5t-38.5 53.5q-18 36 -18 101q0 38 7 63q13 44 45.5 78t76.5 49q36 12 50 12q1 2 1 5q0 5 8 24q2 4 0 3q-1 -1 -5 -3q-13 -10 -33 -10q-10 0 -20 3q-32 9 -32 49q0 25 15 42z" />
    <glyph glyph-name="divide" unicode="&#xf7;" horiz-adv-x="491" 
d="M225 142q-12 5 -24 5q-19 0 -30 -9q-13 -9 -13 -32q0 -10 3 -20q7 -21 27 -30q15 -8 31 -8q26 0 35 23q3 9 3 18q0 17 -9 32t-23 21zM299 286q-34 4 -109 5h-45q-51 0 -67 -3.5t-28 -15.5q-10 -10 -10 -20q0 -18 32 -29q27 -10 97.5 -17t129.5 -7q49 0 62 5q30 11 30 38
q0 14 -8 22q-12 13 -84 22zM241 429q-11 4 -25 4q-27 0 -39 -16q-12 -15 -12 -32t13 -30q15 -14 41 -14q50 0 55 40v5q0 31 -33 43zM142 386q0 32 20.5 52t52.5 20q17 0 35 -6q44 -15 47 -60l2 -16q59 -13 59 -60v-14l17 -5q43 -13 40 -59l-1 -15l15 -4q31 -8 40 -25
q6 -11 5 -28q-1 -26 -20 -37q-22 -14 -72 -14q-51 0 -70 1l-34 2l4 -20q1 -10 6 -10q16 0 37 -21q18 -18 18 -47q0 -19 -9 -34t-25 -19q-11 -3 -20 -3q-28 0 -50 17t-22 39q0 4 -8 4q-14 0 -33.5 10.5t-29.5 23.5q-12 16 -12 47q0 13 3 24l3 10l-12 5q-29 13 -29 36
q0 7 1 11l-17 4q-51 10 -63 37q-4 7 -4 18q0 26 22 46q14 13 35 16.5t77 3.5q45 0 45 2h-1q-52 14 -52 68z" />
    <glyph glyph-name="oslash" unicode="&#xf8;" horiz-adv-x="527" 
d="M266 140q44 42 51 42q11 0 11 -13q0 -19 -14 -43t-31 -35q-23 -13 -45 -13q-8 0 -13 3q-3 1 -3 10q0 7 44 49zM216 265q11 3 17 3q14 0 14 -9q0 -10 -12 -20q-68 -64 -75 -64q-10 0 -10 12t9 30q18 37 57 48zM403 357q-7 4 -14 4q-12 0 -40 -19q-17 -11 -19 -11
q-3 0 -17 6q-33 15 -69 15q-48 0 -87 -24q-51 -30 -70 -84q-14 -37 -14 -85q0 -24 5 -44q4 -18 3 -20q-4 -8 -16 -20q-25 -26 -25 -43q0 -6 3 -12q5 -10 18.5 -21t24.5 -11q14 0 38 21q14 11 20 11q5 0 12 -4q35 -21 89 -21q10 0 15 1q62 8 99 51q52 60 52 137q0 30 -9 57
q-6 18 -6 20q0 4 12 18q20 23 20 37q0 11 -7.5 23.5t-17.5 17.5zM340 366q35 21 49 21q12 0 25 -8q38 -25 38 -62v-14h8q13 0 28.5 -11t20.5 -24q3 -6 3 -17t-4 -25q-3 -9 -15 -24l-12 -14l5 -14q8 -25 8 -60q0 -65 -31 -117q-22 -35 -48 -54q-41 -31 -102 -31q-42 0 -81 15
l-19 8l-12 -10q-27 -21 -45 -21q-12 0 -23 7q-14 8 -25.5 23t-11.5 24v1q1 1 1 2q1 2 -1 2.5t-11 0.5q-26 0 -50 26q-13 13 -16 20.5t-3 21.5q0 30 27 57l13 14l-3 10q-4 20 -4 48q0 25 3 41q13 86 66 129q53 45 120 45q9 0 29 -2q27 -4 44 -9l18 -6z" />
    <glyph glyph-name="ugrave" unicode="&#xf9;" horiz-adv-x="472" 
d="M345 314q-13 27 -48 27q-5 0 -19 -2q-19 -3 -28 -14q-8 -11 -8 -108q0 -64 -2 -74q-2 -9 -10 -17t-17 -10q-10 -2 -17 -2q-19 0 -26 5q-11 8 -15.5 25t-6.5 65q-5 88 -11 103q-10 25 -39 25q-10 0 -16 -1q-29 -4 -36 -16q-4 -8 -5 -95q-1 -26 -1 -63q0 -52 10 -82
q23 -68 80 -90q17 -7 40 -7q42 0 67 18q12 8 16 8q3 0 21 -8q26 -11 53 -11q35 0 44 19q3 6 3 17q0 16 -7 99q-13 169 -22 189zM174 531q-9 7 -12 7q-4 0 -14 -9t-13 -15q-4 -8 -4 -20q0 -13 5 -23t27.5 -36.5t33.5 -34.5q12 -9 22 -9q2 0 12 2q19 4 19 18q0 10 -10 29
q-37 72 -66 91zM145 556q10 5 18 5q17 0 36 -18q22 -20 44 -56q7 -11 15 -16q3 -2 18 -20q29 -35 48 -76q8 -15 15 -18q26 -12 35 -57q2 -13 3.5 -15.5t5.5 -2.5q6 0 18 -5q18 -7 26 -24.5t12 -61.5q17 -168 17 -223v-20q0 -15 -5 -24q-11 -16 -49 -17h-9q-35 0 -58 12
q-11 5 -16 2q-35 -23 -77 -23q-27 0 -52 11q-18 8 -36 22.5t-24 26.5q-2 5 -21 14q-71 35 -89 125q-4 17 -4 66q0 28 1 42q0 5 0.5 16.5t0.5 17.5q0 7 -0.5 16.5t-0.5 12.5v16q0 34 9.5 51t32.5 22q13 3 35 3q14 0 26 -2q22 -5 33 -24q15 -23 15 -48q0 -6 7 -6q21 0 35 -16
l8 -9l1 30q1 31 6 43t5 15q0 4 -8.5 14t-11.5 10q-9 0 -30 15q-22 17 -51 54q-10 14 -14 22q-9 18 -9 37q0 42 39 61z" />
    <glyph glyph-name="uacute" unicode="&#xfa;" horiz-adv-x="465" 
d="M132 342q-12 5 -31 5q-24 0 -33 -6q-13 -8 -15 -46q-2 -33 -7 -76q-5 -52 -5 -76q0 -38 9 -65q15 -42 47.5 -67t71.5 -25q6 0 20 2q23 4 39 15q6 4 10 4q3 0 27 -11q21 -10 41 -13q7 -1 18 -1q32 0 38 24q2 6 2 119q0 121 -2 141q-2 41 -14 54q-14 14 -46 14
q-19 0 -27 -4q-13 -8 -17.5 -25.5t-9.5 -86.5q-6 -69 -7 -76q-2 -7 -10.5 -15t-15.5 -10q-12 -2 -18 -2q-33 0 -40 27q-3 9 -3 84q0 89 -9 104q-4 8 -13 12zM274 530q-10 8 -12 8q-18 0 -67 -64q-33 -44 -33 -58q0 -7 10 -13t22 -6q4 0 12 2q15 6 52 41q34 34 34 58
q0 17 -18 32zM241 557q12 5 19 5q32 0 51 -40q4 -9 4 -25q0 -17 -4 -25q19 7 23 7q8 0 16 -6q26 -20 26 -47q0 -30 -29 -59q-13 -13 -9 -13q5 0 15.5 -6.5t15.5 -12.5q13 -15 16 -44l2 -14l14 -3q27 -7 37 -27q7 -15 9 -45.5t2 -136.5v-134l-7 -12q-7 -13 -16.5 -17
t-29.5 -4q-46 0 -74 18q-11 7 -19 1q-20 -14 -65 -14q-16 0 -30 3q-46 11 -76 50q-10 12 -23 19q-93 43 -93 176q0 35 6 77q5 30 6 57q3 40 9.5 56.5t23.5 24.5q8 4 36 4t39 -4q35 -13 41 -60l3 -18h7q19 0 33 -12l8 -7l1 10q3 21 4 25l3 15l-9 8q-8 8 -7 20l13 37
q-2 0 -10 -5q-11 -7 -29 -7q-36 0 -52 25q-4 5 -4 17q0 13 5 26q8 19 38 57q37 49 60 60z" />
    <glyph glyph-name="ucircumflex" unicode="&#xfb;" horiz-adv-x="465" 
d="M177 332q3 -15 3 -24q0 -6 1 -7t8 -2q21 -4 31 -11l9 -7q1 5 2.5 14.5t2.5 15.5q2 15 4 20q1 3 -1 3q-2 -3 -13 -6.5t-18 -3.5q-9 0 -19 4zM135 351q-8 5 -33 6h-12q-12 0 -19 -4q-15 -9 -17 -47q-1 -15 -5 -44.5t-6 -56t-2 -51.5q0 -51 18 -87q26 -52 80 -67
q13 -3 29 -3q34 0 56 12q10 7 15 7q4 0 26 -11q30 -15 61 -15q24 0 33 16l5 10l1 136q0 114 -1.5 138t-10.5 36q-10 13 -35 17q-5 1 -15 1q-30 0 -40 -16q-7 -14 -14 -100q-6 -67 -8 -73q-9 -30 -42 -30h-5q-24 2 -32.5 16.5t-8.5 52.5q0 21 1 34q1 17 1 54v17q-2 43 -20 52
zM305 378q-6 7 -14 7q-7 0 -15 -9q-1 -2 -4 -5l-5 -8l2 1q10 5 32 5q10 0 10 1zM246 536q-15 6 -32 6q-24 0 -35 -11q-8 -8 -37 -47t-33 -47q-3 -5 -3 -9q0 -13 22 -19q3 -1 9 -1q18 0 55 45q24 28 30 28q5 0 22 -22q33 -42 42 -46q8 -4 18 -4q11 0 21.5 5.5t10.5 14.5
q0 21 -57 80q-22 22 -33 27zM135 384q-21 0 -36.5 11.5t-15.5 31.5v7q1 13 24 44q36 50 51.5 66t32.5 20q12 3 24 3q38 0 60 -19q13 -10 40 -41t38 -49q5 -6 24 -28.5t30 -37.5q15 -20 15 -36q0 -13 -12 -21.5t-25 -8.5q-4 0 -2 -6t4 -20l2 -14l10 -2q32 -8 41 -28
q9 -21 9 -110v-71q-1 -139 -5 -146q-7 -14 -17 -18.5t-32 -4.5q-39 0 -84 25l-11 -6q-26 -14 -62 -14q-29 0 -60 16t-48 40q-8 12 -20 17q-94 42 -94 173q0 35 6 75l4 40t5.5 50.5t4.5 26.5q7 17 26 28q10 5 20 5q2 0 8.5 -0.5t11.5 -0.5q9 0 16.5 -1t12 -1.5t10 -3t7 -3.5
t8 -5t8.5 -5q3 9 32 50q24 32 24 34t-6 -6q-31 -38 -49 -48q-16 -8 -30 -8z" />
    <glyph glyph-name="udieresis" unicode="&#xfc;" horiz-adv-x="463" 
d="M153 328q-4 18 -15.5 24.5t-35.5 6.5q-22 1 -29 -4q-9 -7 -12.5 -16t-6.5 -37q-15 -146 -15 -161q0 -26 4 -39q11 -44 44 -74.5t78 -30.5q11 0 16 1q21 2 45 14l11 4l10 -5q30 -16 49 -20q16 -3 27 -3q32 0 36 31q3 24 3 149q0 110 -1.5 129.5t-12.5 30.5q-9 9 -24 12
q-14 3 -24 3q-28 0 -37 -18q-7 -15 -15 -99q-5 -52 -8 -67.5t-12 -23.5q-11 -10 -31 -10h-5q-23 2 -31.5 15.5t-8.5 48.5q0 20 1 32q2 26 2 68q0 32 -2 39zM287 504q-12 8 -25 4q-21 -8 -21 -34q0 -31 25 -36q1 0 3 -0.5t3 -0.5q13 0 21 11.5t8 28.5q0 18 -14 27zM171 508
q-10 4 -15 4q-16 0 -26 -12q-8 -8 -8 -25v-7q2 -23 23 -23q7 0 19 5q20 9 20 34q0 18 -13 24zM299 419q-18 -6 -22 -6q-8 0 -9 -8q-7 -40 -47 -44h-6q-30 0 -36 33q-2 10 -2 13q0 9 5 19q3 6 2 6q-22 -11 -36 -11q-34 0 -46 26q-4 8 -4 24q0 33 16 49q12 12 34 15q4 1 11 1
q23 0 37 -18q12 -15 12 -37q0 -14 -6 -26q-3 -8 -2 -8q5 3 17 5v22q0 58 53 58q30 0 44 -19q11 -17 11 -37q0 -12 -3 -28q7 2 20 2q29 0 39 -22q5 -12 5 -23q0 -34 -21 -46l-8 -5l8 -7q22 -22 22 -57q0 -7 10 -8q28 -5 39 -22q7 -12 9 -29t2 -74q-2 -210 -5 -222
q-5 -15 -17 -25q-7 -5 -28 -5h-7q-44 0 -73 19l-10 7l-11 -6q-27 -13 -57 -13q-34 0 -64 16t-47 40q-7 9 -26 19q-46 23 -68 67q-12 25 -15 42t-3 59q0 38 6.5 83.5t7.5 61.5q4 40 10.5 55.5t22.5 23.5q10 5 20 5q2 0 8.5 -0.5t10.5 -0.5q29 -1 41 -7q18 -8 26 -20t11 -36
l3 -19l11 -1q18 -1 36 -19q1 11 4 29q5 56 60 57q13 3 13 4q-8 10 -8 33v15z" />
    <glyph glyph-name="yacute" unicode="&#xfd;" horiz-adv-x="485" 
d="M115 343q-10 5 -17 5q-11 0 -27 -11q-31 -21 -31 -57q0 -5 2 -19q2 -15 32 -73q26 -52 56 -108q27 -51 27 -59q0 -10 -17 -47q-59 -133 -59 -157q0 -25 17.5 -42t37.5 -17q12 0 21 6q17 10 32 39q8 15 57.5 123.5t51.5 116.5q0 2 3.5 9t9 19.5t9.5 21.5q57 125 62 159
q2 10 2 26q0 27 -17 41t-44 14q-15 0 -24 -5q-16 -7 -24 -35q-17 -55 -37 -104q-9 -24 -14 -27q-3 -3 -6 -3q-8 0 -48 83q-33 69 -41 83t-14 18zM324 518q-2 1 -4.5 3t-4.5 3l-2 1q-21 0 -71 -67q-29 -38 -29 -54q0 -12 19 -18q8 -2 11 -2q22 0 65 43q29 29 33 51
q0 1 0.5 2.5t0.5 2.5q0 17 -18 35zM384 339q25 -25 25 -56q0 -5 2 -6.5t12 -4.5q45 -13 45 -68v-11q-2 -42 -61 -171q-9 -19 -38 -85t-56.5 -126.5t-44.5 -93.5q-14 -29 -37 -40q-8 -4 -22 -4q-15 0 -27 5q-26 13 -37 36q-5 10 -5 16q0 3 -12 4q-19 2 -37 14.5t-27 31.5
q-6 12 -6 37q0 24 6.5 43.5t35.5 86.5q6 14 14.5 33t12.5 28t4 10q0 5 -39 80q-55 105 -65.5 129.5t-10.5 48.5q0 26 10 48q14 26 46 42q12 6 26 6q27 0 42 -15q6 -6 20 -36q11 -22 14.5 -26t9.5 -6q11 -3 17 -9t15 -24q11 -22 12 -22t7 20t14.5 45t15.5 34q7 11 7 14
q0 1 7 15l6 11l-11 -7q-13 -7 -28 -7q-5 0 -19 2q-39 11 -39 41q0 26 37 75q48 62 75 71q10 2 12 2q15 0 32 -17q23 -21 23 -49q0 -5 -2 -15q0 -7 1 -7q14 6 25 4q13 -4 24 -20.5t11 -34.5q0 -24 -28 -56z" />
    <glyph glyph-name="thorn" unicode="&#xfe;" horiz-adv-x="469" 
d="M208 336q40 -3 40 -40v-5q-2 -23 -13.5 -32.5t-36.5 -9.5h-4q-18 0 -21 4.5t-3 28.5v8q0 36 1 37q9 9 37 9zM123 652q-7 3 -18 3q-19 0 -38 -7.5t-25 -18.5q-3 -6 -3 -15q0 -14 4 -39q11 -76 12 -367q0 -186 3 -213q6 -33 20 -47q13 -13 33 -13q17 0 37 12q15 9 19.5 21
t4.5 42q0 25 -1 42t-1 38q0 20 10 20q2 0 16 -2q20 -2 27 -2q100 0 133 97q12 36 12 79q0 85 -37 133q-36 46 -98 46q-22 0 -44 -4q-14 -2 -17 -2q-11 0 -12 7v8q-1 9 -2 23t-1 28q-4 88 -10 104q-7 20 -24 27zM22 645q9 14 33 24t49 10q23 0 39 -10q27 -18 32 -54
q2 -18 8 -18q20 0 33 -13q17 -17 20 -56q3 -33 4 -42l12 -1q53 -6 85 -38q26 -26 36 -53q4 -10 8 -11q7 -3 22 -19.5t23 -30.5q27 -51 27 -121q0 -40 -10 -74q-16 -56 -53 -86t-89 -30q-17 0 -33 3l-15 3l1 -16q2 -18 2 -63q0 -47 -6 -58q-23 -40 -68 -40q-14 0 -29 6
q-22 10 -30 42l-4 12h-9q-47 0 -65 43q-9 22 -11 50.5t-2 156.5q0 325 -13 416q-3 19 -3 36q0 23 6 32z" />
    <glyph glyph-name="ydieresis" unicode="&#xff;" horiz-adv-x="483" 
d="M118 364q-9 6 -18 6q-18 0 -36 -17.5t-21 -29.5q-2 -12 -2 -24q0 -17 3 -28q5 -19 83 -179q22 -44 22 -51q0 -9 -15 -38q-53 -105 -64 -139q-4 -12 -4 -25q0 -22 12.5 -37.5t30.5 -21.5q10 -2 12 -2q15 0 36 21q19 20 147 287q61 127 71 155q9 27 9 51q0 16 -5 26
q-6 13 -22 21t-34 8h-5q-32 -3 -43 -38q-10 -31 -37 -95q-16 -38 -24 -38h-2l-2 1q-5 1 -44.5 91t-47.5 96zM293 502q-7 4 -14 4q-12 0 -21 -9.5t-9 -23.5q0 -18 9 -28.5t23 -10.5q13 0 21 11.5t8 25.5q0 23 -17 31zM179 505q-7 4 -15 4q-14 0 -25 -11.5t-11 -27.5
q0 -6 1 -9q4 -18 25 -18t32 16q6 9 6 20q0 19 -13 26zM307 415q-18 -6 -23 -6q-6 0 -7 -1.5t-2 -9.5q-3 -21 -20 -32q-13 -8 -30 -8q-14 0 -23 6q-15 11 -15 34q0 16 7 32l-10 -5q-13 -7 -29 -7q-21 0 -35 12q-16 15 -16 39q0 43 38 60q13 5 23 5q32 0 45 -25q5 -7 6 -26v-8
q0 -13 -10 -32q17 7 18 7t1 17v7q0 20 11 35q14 20 44 20t45 -22q11 -17 11 -33q0 -5 -2 -15l-4 -15q10 3 20 3q20 0 32.5 -11.5t12.5 -33.5q0 -23 -17 -44l10 -10q19 -20 20 -46q1 -15 6 -15q11 0 25.5 -9.5t21.5 -21.5q6 -10 6 -38q0 -33 -8 -56.5t-50 -109.5
q-37 -76 -38 -79q-2 -6 -55.5 -113t-61.5 -120q-28 -46 -61 -46q-12 0 -27 6q-16 8 -23 15q-6 6 -12.5 18t-6.5 17q0 3 -14 5q-26 4 -45 23q-24 24 -24 58q0 21 11 51q12 31 47 103l25 51l-44 93q-49 100 -53 110q-11 28 -11 55q0 25 9 44q8 18 30 34.5t45 16.5h4q6 0 11 -1
t9.5 -3t7 -2.5t6 -4.5t5 -5.5t4.5 -7t4 -7t4.5 -9.5t4.5 -10q13 -28 14 -29q2 -3 10 -4q20 -5 33 -35l11 -23l4 10q21 64 34 84t37 23q7 1 8 1.5t-1 5.5q-3 9 -3 22v16z" />
    <glyph glyph-name="dotlessi" unicode="&#x131;" horiz-adv-x="263" 
d="M107 351q-12 2 -16 2q-42 0 -50 -48q-1 -6 -1 -16q0 -22 7 -86q4 -36 5 -92q2 -72 3.5 -87t8.5 -21q11 -10 38 -10h9q36 1 46 20q4 7 4 43q0 43 -7 121.5t-15 118.5q-5 31 -11.5 41.5t-20.5 13.5zM72 376h25q19 0 31 -6q25 -13 35 -64l2 -12l13 -1q17 -1 26.5 -11
t14.5 -32q17 -80 26 -227q2 -38 2 -47q0 -29 -5.5 -41.5t-19.5 -18.5q-19 -8 -50 -8q-27 0 -39 6q-17 9 -19 32q-2 18 -6 20q-2 1 -15 2q-30 3 -45 15q-12 10 -15 32t-7 120q-2 69 -5 94q-5 57 -5 63q0 10 1 16q6 56 55 68z" />
    <glyph glyph-name="Lslash" unicode="&#x141;" horiz-adv-x="608" 
d="M194 528q-8 4 -28 4q-15 0 -19 -2q-19 -8 -26 -21q-4 -10 -4 -60q0 -13 2 -105l2 -71l-21 -14q-60 -40 -60 -60q0 -11 23 -23q10 -5 33 -5q21 0 26 -5q3 -4 3 -32q0 -112 26 -132q10 -8 29 -10q1 0 8 -0.5t13 -0.5q45 0 129.5 4t108.5 8q37 5 52 18.5t15 40.5q0 16 -6 27
q-9 16 -27 22t-61 6q-45 0 -75 -2q-51 -3 -62 -3q-10 0 -13 3q-5 6 -9 61q-3 42 -3 50q0 6 2 10q4 5 22 15q17 10 38 31t26 32q6 10 6 21t-8 22t-16 11q-18 0 -49 -12q-15 -6 -21 -6q-7 0 -9.5 10t-5.5 45q-9 84 -15 97q-6 16 -26 26zM99 521q20 37 76 37q23 -1 42.5 -15.5
t26.5 -35.5q5 -19 6 -22q1 -9 11 -12q22 -5 37 -27q9 -14 13 -39l2 -15h9q28 0 42 -32q4 -7 4 -27q0 -13 -3 -21q-2 -4 4 -4l17 -1h6q14 0 18.5 -2.5t12.5 -16.5q6 -10 6 -23q0 -15 -7 -29t-28 -35t-41 -33q-14 -8 -16.5 -11t-2.5 -9v-8l64 1q60 0 78 -5q22 -8 26 -11
q13 -7 21 -24t8 -34v-10l14 -4q47 -13 47 -59q0 -5 -2 -19q-6 -29 -28 -42t-73 -17q-108 -9 -203 -9q-30 0 -42 2q-26 5 -36.5 16.5t-16.5 40.5l-15 3q-27 4 -40 13q-26 19 -32 87q-1 9 -3 29t-2 35v13h-10q-21 0 -42 10.5t-28 23.5q-4 10 -4 18q0 11 5 21q4 10 22 26.5
t36 28.5l19 14l-1 14q-2 16 -2 112q0 98 5 107z" />
    <glyph glyph-name="lslash" unicode="&#x142;" horiz-adv-x="421" 
d="M112 82v-24q0 -40 10 -52t51 -12q22 0 30.5 4.5t13.5 19.5q3 8 10 166l2 52q12 12 48 36q27 18 35 25t8 15q0 12 -8.5 21t-18.5 9h-3q-8 -2 -23 -12q-19 -11 -23 -11q-3 0 -6 3q-4 2 -4 39.5t-2 81.5t-8 59q-7 16 -28 22q-12 3 -26 3q-16 0 -23 -4q-19 -11 -24 -114
q-7 -145 -7 -153q0 -22 -2 -28q-2 -7 -21 -20q-44 -32 -50 -46q-3 -8 -3 -15q0 -11 5.5 -19t14.5 -8q1 0 2.5 0.5t2.5 0.5q5 2 18 11q17 14 25 6q4 -4 4 -56zM151 550q12 2 20 2q27 0 47 -10q21 -12 28 -26q9 -18 9 -41q0 -6 8 -7q31 -6 42.5 -29.5t11.5 -67.5q0 -11 5 -13
q23 -13 23 -44q0 -10 -5 -22l-22 -27q1 -1 16 8q19 12 30 12q1 0 3.5 -0.5t4.5 -0.5q9 -2 18.5 -9.5t11.5 -16.5q3 -9 3 -18q0 -10 -5 -18q-6 -10 -45 -35l-41 -27l-2 -36q-6 -166 -11 -180q-7 -23 -22 -30q-12 -5 -39 -5q-20 0 -31 3q-36 10 -39 44l-1 12l-14 1
q-44 3 -62 37q-5 10 -6 54l-1 43q-5 -2 -11 -4q-7 -3 -15 -3q-18 0 -31 14.5t-13 36.5q0 29 24 52q18 18 48 36q3 1 5 54t5.5 120t9.5 93q10 42 43 48z" />
    <glyph glyph-name="OE" unicode="&#x152;" horiz-adv-x="828" 
d="M322 174q2 1 2 75v73l-14 -12q-53 -47 -53 -110v-10q0 -18 2 -20t16 -2q37 0 47 6zM280 420q13 4 42 4q20 0 23 -3q5 -5 5 -90v-66q-1 -107 -6 -111q-4 -4 -27 -7.5t-40 -3.5q-19 0 -33 6q-34 15 -53 47t-19 72v8q3 54 35 93q33 41 73 51zM325 533q-17 6 -39 6
q-76 0 -135 -40q-48 -32 -80 -102t-32 -142v-16q8 -153 142 -220q43 -22 100 -22q37 0 81 11q13 4 20 4q2 0 12 -2q12 -3 40 -3q45 0 114 6q148 13 164 24q16 12 16 45q0 40 -20 49q-6 3 -22 3q-20 0 -113 -8q-88 -8 -89 -8q-8 0 -10 4q-2 6 -2 53v16q0 31 4.5 36.5
t29.5 7.5q92 5 127 21q11 4 15 13q4 8 4 21q0 26 -12 37q-7 7 -19.5 8.5t-69.5 1.5q-69 0 -73 5q-6 6 -6 72v7q4 10 122 14q69 3 77 11q13 13 13 41q0 31 -16 38q-26 12 -148 12q-77 0 -153 -6q-12 -1 -24 -1q-6 0 -18 3zM251 560q10 2 33 2q29 0 42 -4q12 -3 25 -3
q4 0 92 5q10 1 85 1q89 0 123.5 -5.5t45.5 -21.5q11 -17 12 -40l1 -19l20 -4q39 -7 39 -53v-7q-2 -35 -21 -48q-17 -10 -66 -13l-26 -1q20 -28 21 -53l1 -17l14 -1q44 -4 44 -59q0 -20 -6 -31t-17 -16t-45 -12l15 -1q35 0 48 -12q4 -3 13 -19q7 -12 8 -33l1 -19h13
q43 0 46 -59v-8q0 -31 -15 -47q-10 -11 -23 -15t-60 -10q-114 -14 -205 -14q-35 0 -47 3q-2 1 -5 1q-4 0 -28 -6q-21 -6 -63 -7h-19q-62 0 -119 31q-38 21 -63 46q-11 12 -28 23q-62 39 -91.5 93.5t-29.5 142.5q0 52 11 95q15 60 45.5 108t70.5 72q44 26 108 35z" />
    <glyph glyph-name="oe" unicode="&#x153;" horiz-adv-x="734" 
d="M253 175q0 8 -13 -4q-5 -4 -12.5 -17.5t-7.5 -18.5q0 -8 16 9q3 3 4 5q13 17 13 26zM179 262q11 4 24 4q19 0 36.5 -8.5t23.5 -19.5q14 -27 15 -44q1 -4 1 -11q0 -49 -46 -72q-12 -6 -32 -6q-28 0 -41 8q-28 19 -28 62q0 29 13 54.5t34 32.5zM472 285q10 2 15 2
q32 0 35 -33q1 -11 -5 -15t-39 -5h-14q-29 0 -29 12q0 10 12 23t25 16zM289 344q-34 18 -84 18q-35 0 -59 -10q-75 -31 -99 -131q-7 -27 -7 -52q0 -53 32 -99q9 -12 25.5 -26.5t21.5 -14.5l12 -6q40 -20 83 -20q22 0 39 4q41 8 77 32q13 8 25 -1q20 -16 59 -30
q42 -15 94 -15q32 0 49 5q57 16 72 47q4 8 4 19q0 22 -16 39q-12 14 -26 14q-8 0 -40 -10q-29 -10 -49 -10q-32 0 -51 11q-15 8 -15 22q0 9 9 12q7 2 44 4q102 6 119 23q10 10 10 38q0 16 -5 43q-7 37 -35.5 66.5t-66.5 38.5q-17 4 -42 4q-19 0 -26 -2q-35 -8 -75 -45
q-20 -18 -23 -18q-4 0 -8.5 3.5t-4.5 7.5t-15.5 18t-27.5 21zM177 386q4 1 23 1q36 0 51 -3q57 -12 88 -45q2 -2 4 -4.5t3 -3.5l2 -1q2 0 14 10q28 25 57 36q15 6 50 6q51 0 82 -15q47 -24 72 -73q6 -11 22 -26q53 -42 56 -122v-13q0 -25 -6.5 -37.5t-23.5 -17.5
q-9 -3 -11 -5t-1 -7q1 -7 7 -7q17 0 35 -21.5t18 -46.5q0 -12 -6 -24q-8 -15 -29 -30t-44 -22q-29 -8 -61 -8q-87 0 -145 39l-20 12l-14 -8q-48 -29 -117 -29q-30 0 -45 3.5t-41 16.5q-33 16 -58 43q-13 14 -30 22q-15 7 -35 26q-59 57 -59 134q0 23 4 43q11 71 49 116
q42 48 109 61z" />
    <glyph glyph-name="Scaron" unicode="&#x160;" horiz-adv-x="490" 
d="M240 543q-21 4 -45 4q-85 0 -127 -65q-28 -43 -28 -95q0 -47 23 -83q14 -21 34.5 -33t63.5 -24q64 -19 87 -36q24 -19 24 -47q0 -18 -13 -32q-18 -19 -44 -19q-28 0 -57 20q-33 22 -49 22q-24 0 -40 -15.5t-16 -37.5q0 -14 7 -27q15 -32 48 -52q47 -28 108 -28q29 0 58 8
q71 22 100 90q16 37 16 77q0 21 -4 34q-14 58 -47 82.5t-104 43.5q-49 12 -65.5 23t-16.5 33q0 37 48 42q5 1 14 1q23 0 52 -13q19 -9 33 -9t27 12q19 17 19 46q0 12 -5 22q-23 43 -101 56zM274 611q1 -1 4 2.5t6 7.5l2 4q-1 0 -7 -6.5t-5 -7.5zM135 734q-7 4 -16 4
q-15 0 -25 -10q-4 -4 -4 -8q0 -9 40 -63q26 -34 37 -42.5t30 -8.5h8q22 1 34 9q15 10 42.5 43t35.5 50q6 11 2 17q-6 14 -30 14q-13 0 -22 -6q-12 -8 -49 -57q-8 -10 -13 -10q-7 0 -25 22q-34 41 -45 46zM196 572q-10 10 -18 10q-17 0 -36 19q-9 9 -37.5 48.5t-33.5 48.5
q-5 10 -5 21q0 9 4 19q9 17 34 23q10 2 15 2q29 0 59 -34q25 -28 27 -28l16 20q21 27 39 37q7 4 27 4q48 0 57 -34q1 -3 1 -8q0 -24 -21 -49l9 4q9 5 25 5q19 0 33.5 -9.5t14.5 -23.5q0 -7 -4 -14q-20 -38 -63 -81q-4 -4 -7 -7.5t-4.5 -5.5t-0.5 -2q3 0 13 -10
q26 -24 29 -49q1 -9 14 -16q40 -21 47 -59q1 -4 1 -12q0 -23 -14 -42t-36 -25q-3 -1 -10 -1q-16 0 -42 11q-20 8 -35 10l-15 1l22 -8q35 -15 56.5 -33.5t37.5 -50.5q7 -15 9 -15q3 0 19 -16t22 -25q29 -45 29 -102v-12q-4 -53 -29.5 -93.5t-67.5 -59.5q-37 -18 -91 -18
q-36 0 -59 5q-63 15 -98 63q-8 8 -17 12q-32 15 -57.5 47t-25.5 65v5q2 29 22.5 48t52.5 21h6q29 0 58 -21q26 -19 42 -19q5 0 15 2q7 2 14.5 8.5t5.5 8.5t-29 9q-68 20 -91 55q-7 12 -24 20q-72 34 -83 122q-2 18 -2 26q0 66 41 119q45 58 119 63z" />
    <glyph glyph-name="scaron" unicode="&#x161;" horiz-adv-x="459" 
d="M260 362q-17 5 -58 6h-13q-53 0 -85 -18q-25 -13 -41.5 -34.5t-20.5 -45.5q-1 -6 -1 -17q0 -41 26 -64q14 -11 30 -17t61 -16q45 -9 59.5 -17.5t14.5 -24.5q0 -23 -42 -23q-14 0 -37 11l-22 11h-23q-23 0 -37 -7q-26 -14 -26 -34q0 -16 15 -33q16 -17 45 -30
q36 -14 83 -14q58 0 100 20q15 7 31.5 23t24.5 31q15 27 15 52q0 51 -48 80q-22 14 -88 27q-41 8 -53 14q-10 6 -10 16q0 9 9 18q11 11 36 11q19 0 40 -6q45 -12 50 -12q1 0 2.5 0.5t2.5 0.5q5 1 12 8q15 15 15 31q0 37 -67 53zM313 543q-10 13 -28 13q-19 0 -52 -41
q-26 -32 -33 -32l-1 1h-2q-3 1 -23 27q-24 29 -33 36t-24 7q-32 0 -32 -20q0 -16 44 -65q25 -28 39.5 -37.5t33.5 -9.5h9q21 1 35 15q7 7 35.5 46t31.5 46q4 7 0 14zM253 572q12 9 31 9q21 0 38 -12t17 -29q0 -12 -6 -24t-29 -44q-31 -43 -31 -44t2.5 2l7.5 9t12 15
q22 27 34.5 36t28.5 9t29.5 -9.5t13.5 -23.5q0 -8 -6 -18q-19 -30 -56 -77q-10 -14 -6 -17q15 -13 17 -41q1 -7 1.5 -9.5t1.5 -3.5t5 -2q24 -7 38.5 -24t14.5 -36q0 -11 -4 -19q-4 -11 -16.5 -22.5t-19.5 -11.5h-6l6 -13q2 -4 3.5 -7.5t2 -5.5t1.5 -4t2 -3.5t3 -3.5t4.5 -4
t6.5 -5q49 -32 49 -91q0 -30 -17 -61q-13 -23 -37 -41q-42 -31 -120 -34h-17q-66 0 -103 23q-11 7 -23.5 19.5t-15.5 19.5t-22 15q-33 16 -51 40q-17 23 -17 45q0 20 17 39q20 20 45 24q2 1 7.5 1t7.5 1q18 2 0 6q-26 6 -48.5 27.5t-29.5 46.5q-3 12 -3 28q0 29 8 53
q5 16 22 35.5t34 30.5q12 8 37 15.5t41 9.5q24 4 25 6q-10 5 -13 6q-23 9 -57 47q-36 40 -47 62q-6 12 -6 23q0 36 53 44h8q30 0 63 -41l18 -22l9 12q27 35 42 44z" />
    <glyph glyph-name="Ydieresis" unicode="&#x178;" horiz-adv-x="541" 
d="M116 549q-8 3 -15 3q-10 0 -28 -9q-33 -18 -33 -43q0 -1 0.5 -3.5t0.5 -3.5q3 -16 69 -131l58 -102l-1 -21q-3 -33 -4 -57q-5 -95 -5 -127q0 -20 1 -23q5 -21 33 -31q16 -6 36 -6q26 0 40 9q14 10 18 28q5 20 18 184l2 21l24 38q65 99 87.5 141t22.5 64v7q-3 21 -22 31
q-20 10 -43 10q-13 0 -19 -2q-13 -3 -19 -9.5t-12 -23.5q-5 -16 -35.5 -77t-34.5 -63t-6 -2q-7 0 -27 35q-88 151 -94 156q-2 2 -12 7zM351 647q0 13 -10 23t-22 10q-5 0 -7 -1q-22 -6 -22 -34v-5q3 -29 27 -32h3q13 0 22 10.5t9 28.5zM221 678q-7 4 -15 4q-22 0 -32 -19
q-5 -9 -5 -20q0 -16 10 -23q5 -4 18 -4q9 0 15 3q21 11 21 35q0 16 -12 24zM349 590q-12 -6 -23 -6q-6 0 -7.5 -1t-1.5 -6q0 -14 -10 -26.5t-23 -16.5q-11 -3 -20 -3q-28 0 -36 27q-1 4 -1 13q0 14 5 26q2 5 1 5l-9 -5t-27 -5q-49 0 -52 45v6q0 45 36 58q13 5 29 5
q8 0 16 -2q12 -3 21.5 -19.5t9.5 -34.5q0 -14 -5 -23l-6 -12q16 8 18 8q3 0 3 23t6 33q16 24 46 24q43 0 54 -36q2 -5 2 -17q0 -17 -4 -31l7 1q10 2 15 2q19 0 30.5 -12.5t11.5 -34.5q0 -17 -3 -23q-3 -8 -3 -10t4 -4q32 -14 32 -55v-16q60 -7 60 -56q0 -29 -16 -61
t-83 -135l-36 -56l-3 -45q-7 -112 -16 -154q-6 -30 -29 -41q-14 -7 -42 -7q-76 0 -83 48l-1 9l-15 3q-53 10 -64 50q-3 12 -3 35q0 36 7 170l1 27l-51 90q-68 117 -72 132q-3 10 -3 23q0 17 4 26q7 16 28.5 31.5t40.5 18.5q1 0 5 0.5t6 0.5q17 0 31 -7q16 -8 43 -51
q15 -25 22 -29q14 -6 41 -51l20 -33l16 32q5 10 15 34t18 40.5t14 23.5q8 9 19 12l12 3q-3 12 -3 29z" />
    <glyph glyph-name="Zcaron" unicode="&#x17d;" horiz-adv-x="535" 
d="M398 550q-12 2 -49 2q-27 0 -37 -1q-190 -15 -226 -24q-14 -3 -23 -13q-16 -19 -16 -45q0 -40 28 -49q2 -1 19 -1q12 0 53 1t60 1q35 0 40 -3q4 -4 4 -8q0 -6 -64 -104q-113 -175 -128.5 -201t-16.5 -42v-7q0 -48 37 -60q7 -3 45 -3q71 0 177 7.5t115 13.5q17 12 17 46
q0 33 -20 47l-9 6q-31 1 -95 1t-95 1q-8 11 -7 15q0 1 38 67q108 187 127 217.5t33 38.5q22 14 22 50q0 41 -29 47zM319 618q-1 2 -2 -3q2 2 2 3zM330 736q-8 2 -12 2q-17 0 -49 -44q-25 -34 -33 -34q-7 0 -30 26q-22 25 -31 31.5t-21 6.5q-19 0 -32 -11q-9 -8 1 -25
q7 -12 41 -45t44 -38q16 -8 34 -8q25 0 37 12q9 8 37.5 54t29.5 53q2 14 -16 20zM294 756q12 5 24 5q32 0 48 -21q5 -6 5 -20q0 -18 -24 -56l-23 -37q6 6 11 14q27 38 56 38q16 0 28.5 -9t12.5 -21q0 -14 -22 -48q-13 -20 -13 -24q0 -3 12 -5q20 -4 31.5 -21.5t11.5 -43.5
q0 -10 2 -12.5t11 -2.5q43 0 46 -53v-8q0 -42 -31 -64q-9 -7 -20 -23t-56 -94l-63 -109l31 -2q30 -2 41 -4q17 -5 30.5 -23.5t14.5 -39.5q1 -15 7 -16q6 -2 12 -2q16 0 31 -24q11 -17 11 -42q0 -8 -1 -12q-3 -19 -13.5 -34.5t-19.5 -15.5q-2 0 -24 -2q-150 -15 -262 -15h-13
q-41 1 -51 7q-13 8 -23.5 23t-10.5 26q0 3 -14 4q-51 5 -68 63q-3 9 -3 23q0 23 6 36q6 15 102 163q50 77 50 79q0 1 -17 1q-21 0 -39 18q-11 13 -15 42h-17q-30 0 -47 21.5t-17 51.5q0 12 3 26q13 50 56 59q13 2 69.5 8.5t67.5 6.5q5 0 -7 8l-8 4q-21 11 -51 39
q-59 56 -59 83q0 20 15 33t40 14h7q29 0 65 -40l15 -16q7 8 14 19q25 35 45 45z" />
    <glyph glyph-name="zcaron" unicode="&#x17e;" horiz-adv-x="487" 
d="M241 345q-80 2 -102 2h-13q-36 0 -51 -9q-18 -12 -18 -35q0 -10 4 -17q7 -13 20.5 -17.5t56.5 -7.5q35 -2 42 -4q12 -2 8 -16q-1 -5 -99 -117q-31 -35 -40 -48.5t-9 -29.5t13 -29.5t28 -17.5t83.5 -7.5t119.5 -3.5q32 0 44 2q31 7 31 41v5q-3 28 -24 39q-12 6 -54 7
q-47 2 -51 3q-11 2 -11 13q0 5 33 47q36 46 54 70q21 28 25 30q7 4 18 5q23 4 33 19q5 8 5 18q0 21 -15 36q-13 14 -34.5 17.5t-96.5 4.5zM155 546q-10 2 -14 2q-19 0 -28 -11q-5 -7 -4 -12q4 -17 48 -68q24 -27 37 -35t34 -8q22 0 31.5 7t39.5 45q39 50 39 60q0 15 -25 19
h-5q-18 0 -51 -39q-24 -29 -32 -30h-3q-5 0 -21 22q-31 43 -46 48zM87 545q4 12 20 19.5t36 7.5q19 0 32 -8.5t32 -32.5l17 -23q38 43 57 54q13 7 29 7q22 0 38 -12.5t16 -30.5q0 -16 -41 -70q-28 -35 -28 -36l13 13l7 8q40 47 64 47q5 0 19 -4q26 -10 26 -29q0 -3 -2 -9
q-5 -14 -41 -60l-19 -24l9 -5q16 -8 27.5 -25.5t13.5 -36.5q1 -13 5 -13q13 0 29 -13t21 -27q5 -17 5 -27q0 -38 -48 -49q-15 -3 -19 -9q-10 -15 -27 -36l-23 -29l8 -7q19 -18 21 -48l1 -15h8q28 0 45 -31q5 -9 5 -30q0 -20 -6 -30q-11 -19 -31 -25q-5 -2 -52 -2
q-108 0 -177 7q-67 5 -77 50l-2 11l-11 1q-32 4 -51.5 25t-19.5 49q0 19 8 35q10 21 83 101l16 18q-5 9 -8 24q-1 9 -2 10.5t-7 2.5q-45 6 -59 23q-14 15 -14 41v6q1 26 18 43q13 13 28.5 16.5t56.5 3.5h27l59 -1l-9 10q-9 11 -10 11q-4 0 -17.5 7.5t-19.5 12.5
q-30 28 -59 67q-23 30 -23 51q0 9 3 16z" />
    <glyph glyph-name="circumflex" unicode="&#x2c6;" horiz-adv-x="368" 
d="M178 545q-14 6 -29 6q-25 0 -39 -12q-6 -6 -36 -47.5t-33 -47.5q-3 -9 -3 -10q0 -10 21 -16q4 -1 10 -1q17 0 51 41q23 29 26 30q1 1 4 1q7 0 26 -23q31 -38 42 -44q6 -3 18 -3q13 0 19 3q13 4 13 17q0 9 -7 19q-14 21 -42.5 51.5t-40.5 35.5zM122 573q5 1 31 1
q31 0 54 -18q10 -7 36 -36.5t35 -43.5q10 -16 19 -25q33 -35 50 -64q7 -14 7 -20t-5 -14q-12 -19 -46 -19q-9 0 -17 3q-16 6 -43 42q-8 11 -12 13.5t-15 2.5q-8 -10 -18 -22q-23 -29 -41 -37q-8 -4 -19 -4q-16 0 -29 9.5t-13 22.5q0 11 32 57l23 34l-1 -2q-2 -2 -6 -7t-8 -9
q-36 -43 -64 -45h-6q-21 0 -36.5 12.5t-15.5 29.5q0 18 39 72q29 40 41 52t28 15z" />
    <glyph glyph-name="caron" unicode="&#x2c7;" horiz-adv-x="368" 
d="M247 551q-11 3 -21 -2q-15 -6 -48 -48q-17 -22 -23 -22q-7 0 -23 22q-33 43 -48 48q-4 1 -12 1q-33 0 -33 -20q0 -4 1 -7q6 -16 40 -54.5t48 -44.5q15 -5 30 -5q11 0 16 1q14 2 23.5 11.5t37.5 47.5q32 44 32 54q0 14 -20 18zM312 494q16 0 28.5 -8.5t12.5 -23.5
q0 -14 -42 -71q-28 -39 -39.5 -47t-36.5 -10h-7q-27 0 -46 13q-6 4 -22 20.5t-21 23.5q-5 5 -12 7q-24 6 -57 44q-56 61 -56 89q0 30 35 41q9 3 21 3q16 0 23 -3q20 -6 45 -39q16 -19 17 -19q2 0 18 20q30 35 51 41q10 2 14 2q21 0 38 -12t17 -31q0 -12 -6.5 -24t-29.5 -43
q-31 -41 -31 -43q8 9 24 28q21 26 33 34t29 8z" />
    <glyph glyph-name="quoteleft" unicode="&#x2018;" horiz-adv-x="261" 
d="M143 551q-6 3 -16 -2q-11 -6 -39 -38t-40 -53q-10 -19 -10 -27q0 -3 2 -7q11 -16 34 -16q32 0 65 56q23 40 23 55q0 1 -0.5 3t-0.5 3q-4 18 -18 26zM102 387q-17 -5 -27 -5q-12 0 -27 7q-33 17 -33 43q0 19 14 41q23 36 59 76q25 27 51 27q30 0 44 -37q3 -9 3 -19
q0 -15 -9 -39l8 5q12 9 23 9q14 0 25 -14q13 -16 13 -34q0 -14 -7 -29q-14 -32 -33.5 -58t-34.5 -33q-9 -4 -22 -4q-26 0 -43 16q-9 8 -9 19q0 14 5 29z" />
    <glyph glyph-name="quoteright" unicode="&#x2019;" horiz-adv-x="266" 
d="M151 545q-8 8 -12 8q-13 0 -37 -26q-12 -13 -32 -39t-25 -36q-7 -16 -7 -20q0 -9 12 -15q7 -4 19 -4q9 0 17 3q14 6 41.5 33.5t34.5 41.5q5 10 5 22q0 17 -16 32zM111 401q-26 -14 -41 -14q-37 0 -53 29q-3 6 -3 14q0 14 8 32q18 35 67 87q29 29 50 29q7 0 17 -5
q37 -23 37 -61q0 -9 -3 -18v-6l1 1q10 6 19 6q12 0 25 -14q16 -17 16 -41q0 -18 -7 -31t-29 -35q-46 -46 -74 -46h-4q-40 2 -40 32q0 13 7 27z" />
    <glyph glyph-name="quotesinglbase" unicode="&#x201a;" horiz-adv-x="260" 
d="M156 94q-12 20 -27 20q-5 0 -12 -5q-17 -13 -45 -52q-33 -45 -33 -65q0 -10 7 -15q9 -6 23 -6q7 0 10 1q20 7 53 45q28 31 29 55q1 13 -5 22zM119 138q8 2 12 2q14 0 33 -16q22 -19 22 -49q0 -12 -3 -24q13 5 20 5q13 0 27 -14q16 -16 16 -40q0 -29 -35 -68
q-43 -48 -72 -48q-6 0 -9 1q-34 5 -34 31q0 11 8 31q3 9 2 9q-13 -12 -38 -12q-28 0 -43 15q-12 12 -12 27q0 7 1 11q4 23 32 64q47 68 73 75z" />
    <glyph glyph-name="quotedblleft" unicode="&#x201c;" horiz-adv-x="416" 
d="M172 480q0 2 -2 0q-1 -1 -1 -2h1zM146 545q-6 3 -13 3q-18 0 -40 -22q-55 -52 -55 -83q0 -10 4 -17t13 -15.5t14 -8.5q19 0 63 66q30 45 30 59q0 12 -16 18zM317 536q0 19 -28 19q-14 0 -23 -6q-8 -5 -31 -28.5t-30 -33.5q-12 -18 -12 -35q0 -20 19 -35q8 -5 12 -5
q5 0 17 9q21 18 49 60q27 40 27 55zM251 395q-19 -8 -28 -8q-7 0 -9.5 -1.5t-11.5 -14.5q-9 -14 -25 -30.5t-28 -20.5q-12 -3 -19 0q-31 14 -34 49q-2 15 -3 15q-15 -6 -25 -6q-13 0 -26 10q-28 21 -28 57q0 21 11 39.5t40 47.5q28 28 40 33q12 6 28 6q22 0 38 -11.5
t16 -31.5l-9 -36q4 5 8 12q5 9 34 38q33 33 57 37q1 0 5 0.5t5 0.5q29 0 46 -20l8 -10l-1 -16q-1 -18 -8 -31l-7 -15l9 5q10 5 22 5q18 0 31.5 -9t13.5 -24q0 -19 -22 -53q-56 -85 -85 -85q-8 0 -18 7q-26 18 -26 50q0 2 0.5 5.5t0.5 5.5z" />
    <glyph glyph-name="quotedblright" unicode="&#x201d;" horiz-adv-x="421" 
d="M320 524q-2 5 -11.5 15t-14.5 10q-22 0 -71 -66q-29 -39 -29 -53q0 -8 8 -14q9 -6 24 -6q7 0 10 1q15 4 43.5 31.5t36.5 43.5q6 12 6 26q0 4 -2 12zM151 542q-9 7 -13 7q-20 0 -71 -68q-28 -37 -28 -54q0 -11 19 -17q8 -2 11 -2q21 0 64 42q35 34 35 59q0 19 -17 33z
M125 572q8 2 11 2q24 0 45 -29q11 -17 11 -32q0 -2 -0.5 -5.5t-0.5 -6.5q0 -14 2 -14q3 1 24 28q48 60 75 60q8 0 14 -3q8 -3 19 -14.5t16 -20.5q6 -12 6 -29q0 -9 -1 -13q-3 -8 -0.5 -9t8.5 2l9 3q12 1 22 -8q21 -18 21 -46q0 -18 -7 -31q-8 -16 -35.5 -42t-45.5 -35
q-7 -4 -23 -4q-11 0 -20 3q-7 2 -17 12q-6 8 -6 17q0 11 8 29l7 12l-10 -5q-11 -7 -19 -8q-10 -2 -31 -22q-19 -19 -35 -29t-30 -10q-19 0 -32.5 9t-13.5 22q0 21 17 45l-10 -7q-15 -9 -33 -9q-22 0 -38.5 13t-16.5 33q0 7 1 11q5 22 42 69q40 52 67 62z" />
    <glyph glyph-name="quotedblbase" unicode="&#x201e;" horiz-adv-x="415" 
d="M141 109q-8 5 -11.5 5.5t-12.5 -5.5q-15 -10 -49 -58q-28 -38 -31 -57q-1 -10 4 -14q8 -10 28 -10q14 0 41 26q52 49 52 79q0 20 -21 34zM297 118q-7 5 -12 5q-18 0 -60 -60q-31 -45 -32 -61q-1 -9 2.5 -13.5t14.5 -7.5q10 -2 13 -2q16 0 50 35q33 34 39 50q4 14 4 19
q0 19 -19 35zM265 144q12 5 19 5q6 0 16 -4q40 -19 40 -59q0 -18 -1 -21l-1 -4l5 2q6 3 12 3q10 0 21 -8q25 -18 25 -45q0 -26 -21 -53q-10 -13 -33.5 -35t-30.5 -26q-10 -5 -22 -5q-25 0 -38 15q-6 7 -6 18q0 13 7 29l7 13l-10 -6q-3 -2 -15.5 -6t-18.5 -12
q-8 -11 -28.5 -30t-28.5 -23q-11 -6 -24 -6q-26 0 -40 16q-4 5 -4 15q0 17 7 29l5 12h-1q-1 -1 -3.5 -2.5t-4.5 -2.5q-8 -5 -25 -6q-60 0 -60 42q0 16 8 33q19 37 56 83q28 34 54 34h5q11 -2 25.5 -15t20.5 -26q4 -8 3 -27q0 -18 1 -18q3 0 21 27q38 55 58 64z" />
    <glyph glyph-name="guilsinglleft" unicode="&#x2039;" horiz-adv-x="411" 
d="M289 430q-9 6 -20 6q-8 0 -13 -2q-21 -7 -104.5 -52t-97.5 -57q-14 -11 -14 -44v-7q1 -22 8.5 -33t32.5 -30q41 -31 92 -60t80 -38q5 -2 14 -2q25 0 36 24q5 12 5 22q0 17 -15 31q-15 13 -95 57q-29 15 -33.5 18.5t-5.5 9.5q0 9 3 11q22 17 88 54q60 35 60 56
q0 8 -7 19.5t-14 16.5zM248 458q8 2 21 2q40 0 59 -40q7 -13 7 -26v-14q41 -5 56 -39q4 -8 4 -17q0 -17 -18.5 -34.5t-60.5 -41.5q-9 -5 -20 -12t-14 -9q3 -2 11.5 -7.5t14.5 -10.5q21 -18 24 -44l2 -10l18 -12q35 -21 39 -39q2 -6 2 -16q0 -12 -5 -25q-14 -36 -48 -36
q-8 0 -12 1q-32 6 -105.5 48.5t-106.5 74.5q-25 22 -38 31q-1 1 -10 7.5t-10.5 7.5t-8.5 6.5t-8.5 7.5t-7 7.5t-7 9t-4.5 10t-4 12t-2 12.5t-1 15q0 52 34 75q27 18 106.5 60.5t92.5 45.5z" />
    <glyph glyph-name="guilsinglright" unicode="&#x203a;" horiz-adv-x="409" 
d="M190 285v-17l-44 -24q-89 -48 -101 -66q-4 -5 -4 -19q0 -12 4 -20q11 -25 38 -25q9 0 18 3q30 10 85 41.5t90 59.5q22 17 27.5 28.5t5.5 36.5q0 21 -4.5 31t-17.5 19q-14 9 -72.5 41.5t-85.5 45.5q-34 17 -45 17h-4q-19 0 -31 -16q-11 -14 -11 -25q0 -4 2 -8
q3 -7 12.5 -16t24 -19t27 -17.5t29.5 -17t23 -13.5zM63 461q4 2 15 2q13 0 19 -2q24 -5 136 -68q72 -40 83 -52q13 -13 17 -38q1 -7 3 -10t12 -8q30 -16 39 -36q6 -15 6 -39q0 -26 -8 -42q-4 -10 -9.5 -15t-22.5 -18q-65 -49 -124 -78q-58 -29 -78 -29q-5 0 -15 2
q-14 4 -25.5 20t-11.5 33v7l-11 -2q-2 0 -4 -0.5t-4 -0.5q-28 0 -46 21.5t-18 49.5t21 49q20 18 78 49l25 14q-9 5 -22.5 18t-14.5 17q-3 6 -11 9q-22 11 -43 28t-28 29q-6 11 -6 25q0 13 5 25q15 31 43 40z" />
    <glyph glyph-name="fraction" unicode="&#x2044;" horiz-adv-x="458" 
d="M330 544q-8 4 -17 4q-11 0 -16 -4q-23 -14 -53 -69q-21 -37 -85.5 -170t-92.5 -195q-26 -54 -26 -77q0 -19 16 -30q19 -13 39 -13q17 0 39 32q14 21 101.5 200.5t107.5 227.5q14 32 14 51q0 12 -6 24q-6 13 -21 19zM299 572q3 1 11 1q32 0 52 -22q18 -18 19 -44l1 -16
q45 -6 55 -34q5 -13 5 -26q0 -20 -13 -52q-25 -59 -110.5 -235t-103.5 -202q-20 -31 -38 -35q-3 -1 -10 -1q-28 0 -56 20q-13 8 -13 31v9h-8q-14 0 -34.5 9t-29.5 20q-12 14 -12 35q0 16 6 34q9 32 102.5 224t116.5 227q33 50 60 57z" />
    </font>
</defs>
</svg>
