<?xml version="1.0" standalone="no"?>
<!DOCTYPE svg PUBLIC "-//W3C//DTD SVG 1.1//EN" "http://www.w3.org/Graphics/SVG/1.1/DTD/svg11.dtd" >
<svg xmlns="http://www.w3.org/2000/svg" xmlns:xlink="http://www.w3.org/1999/xlink" version="1.1">
<metadata>
Created by FontForge 20201107 at Mon Apr  6 00:05:04 2020
 By Jimmy Wärting
Dear Sunshine DEMO(c)Almarkhatype 2019. All Rights Reserved
</metadata>
<defs>
<font id="DearSunshine" horiz-adv-x="752" >
  <font-face 
    font-family="Dear Sunshine"
    font-weight="400"
    font-stretch="normal"
    units-per-em="2048"
    panose-1="2 0 5 0 0 0 0 0 0 0"
    ascent="1638"
    descent="-410"
    x-height="1421"
    cap-height="1446"
    bbox="-33 -300 1250 1754"
    underline-thickness="150"
    underline-position="-292"
    unicode-range="U+001D-222B"
  />
<missing-glyph horiz-adv-x="1024" 
 />
    <glyph glyph-name=".notdef" horiz-adv-x="1024" 
 />
    <glyph glyph-name=".null" horiz-adv-x="0" 
 />
    <glyph glyph-name=".null" horiz-adv-x="0" 
 />
    <glyph glyph-name="nonmarkingreturn" horiz-adv-x="508" 
 />
    <glyph glyph-name="space" unicode=" " horiz-adv-x="288" 
 />
    <glyph glyph-name="space" unicode="&#xa0;" horiz-adv-x="288" 
 />
    <glyph glyph-name="exclam" unicode="!" horiz-adv-x="414" 
d="M172 283q-18 0 -27 1.5t-15 4.5q-20 7 -30.5 33.5t-14.5 96t-6 205.5q-1 60 -2 131q-2 104 -4 176q-1 59 -2 141t-1 143v150q2 2 3 4q9 16 19 21q7 4 28 7t47.5 5t45.5 2q17 0 25 -0.5t13.5 -2.5t12.5 -5q25 -11 31 -47q1 -8 2 -54.5t2 -111.5q2 -204 15 -505
q7 -153 7 -231q0 -89 -10 -105q-31 -59 -139 -59zM228 -40q-10 0 -19.5 0.5t-14.5 1.5q-36 10 -61 34q-19 20 -31 51t-12 59q0 41 20 78t49 48q10 3 25 4.5t30 1.5h12q12 0 20 -2q56 -11 82 -61q10 -18 13.5 -33t3.5 -36q0 -90 -74 -135q-12 -6 -20.5 -8t-22.5 -3z" />
    <glyph glyph-name="quotedbl" unicode="&#x22;" horiz-adv-x="534" 
d="M126 1200h-2q-13 0 -25.5 6.5t-20.5 17.5q-2 6 -4.5 16t-3.5 19q0 28 9.5 79t21 98t20.5 68q19 35 55 39h5q19 0 37 -10q14 -9 21 -14.5t9.5 -10.5t4.5 -15l3 -14v-3q0 -8 -4 -24.5t-14 -53.5q-2 -9 -5 -19q-8 -33 -13 -50.5t-8.5 -27t-6.5 -19.5q-2 -3 -3 -7
q-22 -51 -54 -67q-7 -3 -13 -5zM335 1200h-2q-13 0 -25.5 6.5t-20.5 17.5q-2 6 -4.5 16t-3.5 19q0 28 9.5 79t21 98t20.5 68q19 35 55 39h5q19 0 37 -10q14 -9 21 -14.5t9.5 -10.5t4.5 -15l3 -14v-3q0 -8 -4 -24.5t-14 -53.5q-2 -9 -5 -19q-8 -33 -13 -50.5t-8.5 -27
t-6.5 -19.5q-2 -3 -3 -7q-22 -51 -54 -67q-7 -3 -13 -5z" />
    <glyph glyph-name="numbersign" unicode="#" horiz-adv-x="938" 
d="M356 -18q-10 0 -19 5q-6 3 -9.5 10.5t-5 25.5t-3.5 55q-1 30 -2.5 68t-2.5 66q0 28 -1 46.5t-2 18.5q-2 0 -25 -3.5t-51.5 -8t-51 -8.5t-26.5 -5l-12 -2q-27 0 -31 32q0 29 30 37q6 1 30.5 6t55 11t54 10.5t24.5 4.5t1 8.5v20.5q0 13 -1.5 45t-2.5 68q0 21 -1 96
t-1.5 165.5t-1 159l-0.5 68.5l-173 -5l-27 1q-14 3 -22.5 12.5t-8.5 21.5q0 8 3 15q4 7 8.5 11t14 5.5t27.5 2.5q31 1 77.5 4t76.5 5l23 2q-8 117 -8 309q0 64 1 78q8 18 27 18q13 0 19.5 -5.5t9 -22t3.5 -50.5q2 -23 4 -69t3 -93q2 -46 4 -84t2 -51l1 -25l137 8q3 96 4 162
q1 63 2 103.5t2 63.5t3.5 34.5t5.5 16t8 6.5q4 2 8.5 4.5t7.5 4.5q4 2 13 3.5t18 3.5q18 2 32 2h10q53 0 69 -40l8 -18q3 -137 6.5 -234.5t4.5 -103.5l19 -1l40 1q51 0 70.5 -3t26.5 -13q5 -5 6.5 -9.5t1.5 -14.5t-1.5 -15t-7.5 -11l-9 -10h-69q-28 0 -48.5 -0.5t-22.5 -1.5
v-6l2 -55q1 -13 2 -69.5t1.5 -133t1.5 -147.5q0 -59 0.5 -99t0.5 -46q1 -12 2 -19t2 -9.5t2 -2.5l2 1q3 1 20 2t40 2l36 1q13 0 18.5 -1t8.5 -3q18 -12 18 -31q0 -10 -6 -20q-3 -7 -9.5 -11t-20.5 -6t-41 -3q-20 -1 -35.5 -2t-20.5 -2l-8 -2l2 -169q0 -48 -2.5 -73t-9.5 -42
q-11 -33 -37 -48q-5 -3 -11 -4.5t-16.5 -2t-31.5 -0.5q-22 0 -32.5 0.5t-16 2t-12.5 5.5q-28 14 -37 54q-9 44 -16 178l-4 69l-62 -9l-62 -11q1 -30 2 -55q1 -46 3 -89t6 -110l1 -10q0 -7 -1.5 -11.5t-4.5 -10.5q-3 -5 -6.5 -9.5t-7.5 -6.5q-7 -4 -15 -4zM377 363q3 1 5 1
q3 1 9 2t19 3.5t38 5.5l52 9l1 104l1 507q-21 -1 -39 -2q-17 -1 -52 -3q-7 -1 -13 -1q-12 -1 -19.5 -2t-8.5 -2v-13q0 -32 1 -121.5t2 -191.5t2 -180t1 -93z" />
    <glyph glyph-name="dollar" unicode="$" horiz-adv-x="541" 
d="M259 -13q-2 0 -4 0.5t-5 2.5q-1 0 -3 1q-7 4 -11 8.5t-5.5 14t-1.5 28.5v39q0 41 2 58h-1.5t-2.5 1q-13 1 -25.5 6t-33.5 16q-30 15 -46 31.5t-28 42.5q-15 37 -15 71q0 61 48 100q8 6 12.5 8t10.5 2q18 0 23 -13q4 -6 4 -12q0 -13 -20 -30q-23 -18 -25 -47v-8
q0 -19 8 -42.5t20 -34.5q5 -5 17 -12t25 -13.5t21 -9.5q7 -2 19.5 -3t25.5 -1q10 0 17.5 0.5t9.5 2.5q4 4 8.5 15.5t6.5 25.5l2 18l-2 25q-4 49 -13 85.5t-28 81.5q-5 13 -17 37.5t-24.5 48t-19.5 35.5q-12 22 -32.5 62.5t-38.5 79.5t-26 59l-11 30q-32 99 -32 188
q0 22 2 41q17 125 91 217q40 47 86 60v70q0 27 0.5 43t0.5 24t1 12t3 7q12 16 27 16h2q9 0 17 -8l9 -8l1 -79q0 -51 -1 -77q29 -7 56 -26t42 -43q15 -23 21.5 -46t7.5 -54v-10q0 -59 -21 -117q-6 -19 -20 -48t-25 -46q-16 -24 -32 -24q-9 0 -17 7q-7 7 -7 15q0 10 10 22
q8 9 20.5 34.5t18.5 46.5q11 31 15.5 55.5t4.5 52.5q0 16 -0.5 24t-1.5 14t-4 14q-14 43 -53 66q-21 14 -45 14q-31 0 -57 -28q-19 -19 -27 -41.5t-8 -57.5q0 -84 55 -194q17 -33 44.5 -83t49.5 -88q91 -153 118 -265q17 -69 17 -125q0 -78 -32 -136q-9 -18 -16 -28t-19 -21
q-34 -34 -86 -45q-7 -1 -25 -3q0 -7 1 -15v-37q0 -28 -0.5 -44t-1 -24.5t-1.5 -12t-4 -6.5q-2 -3 -6.5 -6t-9.5 -5z" />
    <glyph glyph-name="percent" unicode="%" horiz-adv-x="741" 
d="M197 -61l-20 1q-10 2 -24 6t-26.5 7.5t-16.5 5.5q-3 2 -6.5 3t-6.5 1q-7 1 -14 5.5t-10 9.5q-2 4 -2 12q0 21 14 77l22 96q4 20 10 46t11 46q5 19 10.5 42t9.5 40q1 1 1 3q10 40 22 86q19 77 36 144l28 115q26 103 69.5 257.5t91.5 317.5q13 44 25 86.5t17 62.5q3 9 5 17
q4 13 6.5 22.5t3.5 11.5q4 7 19.5 11.5t36.5 6.5h14q19 0 44 -1.5t44.5 -4t25.5 -5.5q14 -9 14 -23l-15 -76q-10 -51 -20 -90t-29 -105q-69 -249 -234 -930q-15 -67 -29 -121.5t-19 -72.5q-15 -54 -30.5 -77t-40.5 -30q-5 -1 -15.5 -2t-21.5 -1zM199 1187h-12q-25 0 -36 5
q-21 8 -38.5 28t-23.5 42q-3 15 -3 36t3 36q24 73 90 95q12 4 27 4q5 0 10 -1q40 -1 65 -29q32 -37 32 -82q0 -39 -22 -75t-62 -53q-9 -3 -15 -4.5t-15 -1.5zM560 -37q-23 0 -45 8q-29 13 -45 37q-11 17 -15 32t-4 37q1 25 5.5 41.5t16.5 34.5q38 53 96 53q13 0 20 -1.5
t18 -6.5q50 -22 65 -78l2 -20q0 -16 -3 -35t-8 -31q-12 -25 -34 -43.5t-47 -25.5q-10 -2 -22 -2z" />
    <glyph glyph-name="ampersand" unicode="&#x26;" horiz-adv-x="723" 
d="M253 20q-26 0 -38.5 1t-22.5 4q-51 17 -83.5 57.5t-32.5 94.5q0 59 43 131t119 147q-55 85 -87 153t-55 164q-27 108 -27 196q0 127 55 220q74 121 183 176q31 15 53.5 20t58.5 5q28 0 40.5 -1.5t28.5 -7.5q24 -9 48 -25.5t40 -35.5q33 -44 53 -111t20 -134
q0 -115 -48 -231.5t-126 -226.5q-8 -12 -13.5 -21t-5.5 -12q10 -12 24 -43t17 -59q0 -22 -13 -42.5t-41 -55.5q-10 -13 -23 -30l21 -21q23 -23 30 -25q3 0 16.5 25.5t29.5 57.5q12 25 22 44t14 23q8 8 19 8q12 0 25.5 -10t13.5 -27q0 -14 -12 -40t-36 -75q-13 -25 -28 -58
l71 -44q27 -16 36.5 -26t9.5 -22q-1 -15 -9.5 -25t-21.5 -10q-15 0 -88 43q-11 7 -20 11t-12 4q-38 -57 -78 -95.5t-99 -58.5q-18 -7 -31.5 -9t-39.5 -3zM418 669q2 3 4 5q3 3 6.5 8t10.5 16t20 32q114 195 114 345q-9 177 -88 222q-30 16 -51 16q-38 0 -53 -58
q-44 -114 -43 -264q0 -88 15 -156.5t56 -146.5zM345 128q5 0 29.5 22.5t47.5 56.5q7 11 12 18.5t5 8.5q-1 0 -5 3.5t-10 8.5q-8 7 -17 14.5t-16.5 13t-10.5 5.5q-4 -6 -12.5 -29.5t-13.5 -46.5q-5 -19 -8 -39t-3 -29q0 -7 2 -7z" />
    <glyph glyph-name="quotesingle" unicode="'" horiz-adv-x="325" 
d="M126 1200h-2q-13 0 -25.5 6.5t-20.5 17.5q-2 6 -4.5 16t-3.5 19q0 28 9.5 79t21 98t20.5 68q19 35 55 39h5q19 0 37 -10q14 -9 21 -14.5t9.5 -10.5t4.5 -15l3 -14v-3q0 -8 -4 -24.5t-14 -53.5q-2 -9 -5 -19q-8 -33 -13 -50.5t-8.5 -27t-6.5 -19.5q-2 -3 -3 -7
q-22 -51 -54 -67q-7 -3 -13 -5z" />
    <glyph glyph-name="parenleft" unicode="(" horiz-adv-x="504" 
d="M353 -120q-18 0 -46 33q-93 102 -151 258q-31 87 -50 160t-31 158q-2 18 -3.5 54t-1.5 78q0 82 5 142q31 282 101 447q8 17 14.5 33t8.5 23q9 19 25.5 50.5t29.5 52.5q61 85 121 128q17 10 31 10q16 0 25 -15q4 -6 4 -12q0 -8 -7 -23t-23 -46q-23 -47 -38 -86.5
t-34 -106.5q-74 -252 -78 -647v-63q0 -116 9 -191q3 -25 8.5 -59.5t11.5 -65.5t9 -44q13 -43 36 -98.5t42 -90.5q7 -13 9.5 -20.5t2.5 -19.5t-1 -17t-6 -9q-3 -4 -6 -6.5t-6 -3.5q-6 -3 -11 -3z" />
    <glyph glyph-name="parenright" unicode=")" horiz-adv-x="504" 
d="M152 -120q-6 0 -12 3q-2 1 -5.5 3.5t-6.5 6.5q-4 4 -5.5 9t-1.5 17q1 12 3 19.5t9 20.5q19 35 42 90.5t36 98.5q4 13 10 44t11.5 65.5t7.5 59.5q10 75 10 191l-1 63q-3 395 -78 647q-18 67 -33 106.5t-39 86.5q-16 31 -22.5 46t-6.5 23q0 6 3 12q9 15 26 15q13 0 30 -10
q62 -43 121 -128q14 -21 31 -52.5t24 -50.5q3 -7 9.5 -23t13.5 -33q70 -165 101 -447q6 -60 6 -142q0 -42 -1.5 -78t-4.5 -54q-12 -85 -30.5 -158t-50.5 -160q-57 -156 -150 -258q-16 -18 -26.5 -25.5t-19.5 -7.5z" />
    <glyph glyph-name="asterisk" unicode="*" horiz-adv-x="575" 
d="M181 1180q-34 1 -70 4q-21 12 -21 50v7q0 6 0.5 9.5t2.5 6.5q11 8 46 11q33 3 74 3v8q0 43 7 97q11 13 50 13h6q7 0 10.5 -0.5t5.5 -1.5q9 -6 11.5 -26.5t2.5 -47.5q1 -21 0 -43l24 -1q41 -1 65 -1h18l3 -2q2 -2 4 -3t3 -4q2 -4 3 -16.5t1 -24.5v-8v-1q-1 -6 -1 -9t-1 -5
l-2 -4q-5 -10 -20 -12q-26 -1 -49 -1h-10q19 -21 37 -43q16 -19 25 -29l8 -8v-2q0 -2 -0.5 -4t-1.5 -4q-3 -4 -11.5 -13t-17.5 -16l-5 -6q-1 0 -2 -1q-4 -3 -6.5 -5t-4 -3t-4.5 -2q-9 -5 -16 0l-21 21q-17 16 -32 33q-15 16 -31 36q-2 -2 -4 -5q-19 -26 -41 -52
q-15 -18 -24 -29l-6 -9q-1 0 -2 -1h-4.5t-4.5 1q-4 2 -14 9t-19 14l-7 5h-1l-6.5 6.5t-4 3.5t-2.5 4q-6 8 -3 16q9 12 17 24q13 19 27 37q9 12 19 24z" />
    <glyph glyph-name="plus" unicode="+" horiz-adv-x="889" 
d="M550 717l54 -2q90 -3 143 -3q27 0 41 1q3 -2 5 -4q6 -4 10 -7t7 -9q3 -9 5.5 -36.5t2.5 -53.5v-21q-1 -13 -2 -20t-2.5 -11t-4.5 -10q-12 -22 -43 -26q-58 -1 -110 -2q-57 -1 -112 -2q-1 -28 -3 -57q-4 -90 -5 -142q0 -28 1 -42q-11 -17 -20 -22q-19 -6 -76 -6h-23
q-33 0 -43 5q-31 6 -36 48v219q-103 4 -223 13q-46 26 -46 111v14q1 15 2 23t4 14q25 18 103 25q73 6 166 6q5 109 15 225q26 44 104 44q45 0 59 -7q27 -38 27 -230v-35z" />
    <glyph glyph-name="comma" unicode="," horiz-adv-x="358" 
d="M86 -134l-16 2q-20 7 -20 29q0 18 7 44q11 35 11 74q0 35 -18 70q-10 23 -10 44q0 47 40 75.5t87 28.5q40 0 74 -24t45 -76l2 -19q0 -48 -32.5 -106t-79.5 -100t-90 -42z" />
    <glyph glyph-name="hyphen" unicode="-" horiz-adv-x="889" 
d="M482 511q-159 0 -366 16q-46 26 -46 111v14q1 15 2 23t4 14q25 18 102.5 24.5t176.5 6.5q125 0 249 -5q90 -3 143 -3q27 0 41 1l6 -4q6 -4 10 -7t6 -9q4 -9 6.5 -36.5t2.5 -53.5l-1 -18v-3q-1 -13 -1.5 -20t-2 -11t-5.5 -10q-11 -22 -43 -26q-58 -1 -110 -2
q-88 -2 -174 -2z" />
    <glyph glyph-name="hyphen" unicode="&#xad;" horiz-adv-x="889" 
d="M482 511q-159 0 -366 16q-46 26 -46 111v14q1 15 2 23t4 14q25 18 102.5 24.5t176.5 6.5q125 0 249 -5q90 -3 143 -3q27 0 41 1l6 -4q6 -4 10 -7t6 -9q4 -9 6.5 -36.5t2.5 -53.5l-1 -18v-3q-1 -13 -1.5 -20t-2 -11t-5.5 -10q-11 -22 -43 -26q-58 -1 -110 -2
q-88 -2 -174 -2z" />
    <glyph glyph-name="period" unicode="." horiz-adv-x="368" 
d="M161 -38q-14 0 -29 4q-42 12 -66.5 45t-24.5 77v11q8 69 45 102.5t82 33.5q40 0 76 -26t50 -76q4 -13 4 -26q0 -39 -23 -77t-59 -55q-28 -13 -55 -13z" />
    <glyph glyph-name="slash" unicode="/" horiz-adv-x="741" 
d="M197 -61l-20 1q-10 2 -24 6t-26.5 7.5t-16.5 5.5q-3 2 -6.5 3t-6.5 1q-7 1 -14 5.5t-10 9.5q-2 4 -2 12q0 21 14 77l22 96q4 20 10 46t11 46q5 19 10.5 42t9.5 40q1 1 1 3q10 40 22 86q19 77 36 144l28 115q26 103 69.5 257.5t91.5 317.5q13 44 25 86.5t17 62.5q3 9 5 17
q4 13 6.5 22.5t3.5 11.5q4 7 19.5 11.5t36.5 6.5h14q19 0 44 -1.5t44.5 -4t25.5 -5.5q14 -9 14 -23l-15 -76q-10 -51 -20 -90t-29 -105q-69 -249 -234 -930q-15 -67 -29 -121.5t-19 -72.5q-15 -54 -30.5 -77t-40.5 -30q-5 -1 -15.5 -2t-21.5 -1z" />
    <glyph glyph-name="zero" unicode="0" horiz-adv-x="844" 
d="M359 17q-13 0 -20 1l-23 5q-119 31 -189 181q-50 123 -56 330v33q0 194 44 349q85 281 212 421q19 20 41.5 39t36.5 27q4 2 7 2.5t8 0.5q9 0 26 -3q4 -1 9 -2q41 -8 86.5 -34.5t77.5 -61.5q72 -83 116 -248q39 -157 39 -329q0 -101 -15 -193q-54 -300 -225 -459
q-18 -16 -43.5 -30.5t-47.5 -21.5q-10 -3 -36.5 -5t-47.5 -2zM320 383q1 0 1.5 1t0.5 2q0 5 21.5 66.5t49.5 140t51 140.5q30 79 69 170t66 147l51 104q-28 63 -59 99q-9 9 -20.5 18.5t-21 16t-13.5 6.5h-1q-4 -3 -21 -42.5t-37 -92t-35 -95.5l-14 -42q-92 -292 -92 -543
v-41q1 -24 2.5 -39.5zM408 94q2 0 8 1.5t13 3.5q59 19 119.5 97t101.5 190q57 162 57 352q0 154 -38 304l-6 21q-17 -32 -46 -95t-58 -134q-73 -178 -185 -498q-28 -82 -28 -102v-3q2 -11 10 -33t19 -46t20.5 -41t12.5 -17z" />
    <glyph glyph-name="one" unicode="1" horiz-adv-x="561" 
d="M169 -9q-15 0 -19 2q-8 3 -12.5 11t-4.5 17q0 7 3 14q4 6 13.5 11.5t16.5 5.5h7q0 7 1 14q1 32 2.5 58t4.5 68t10 121q2 21 4 52t4 63q1 16 2 31q6 122 10.5 198t8.5 143q6 82 11.5 208.5t8.5 217.5l1 68q-2 -3 -4 -5q-4 -4 -9.5 -11t-19.5 -24l-59 -70q-31 -41 -51 -41
q-7 0 -15 5q-13 8 -13 27q0 5 2.5 10.5t9.5 13.5q29 37 56.5 72t44.5 58q49 63 65 71q2 1 6 3.5t6 4.5q3 4 8.5 6t16.5 2.5t33 0.5h37h3q28 0 42 -0.5t21 -2t12 -4.5q21 -9 32 -30q2 -2 3 -7t1.5 -15.5t0.5 -30v-51.5q-1 -191 -28 -549q-6 -71 -11 -144t-9 -126
q-1 -20 -2 -35l-11 -168q-2 -29 -4.5 -67.5t-4 -70t-1.5 -38.5q0 -1 0.5 -2t2.5 -1.5t7 -0.5l38 2q17 0 25.5 -4.5t13.5 -15.5q2 -4 3 -7t1 -5l-2 -9q-2 -4 -4.5 -8.5t-5.5 -7.5q-3 -4 -12.5 -6.5t-32.5 -4.5t-69 -5l-123 -8q-53 -4 -72 -4z" />
    <glyph glyph-name="two" unicode="2" horiz-adv-x="664" 
d="M177 13q-30 0 -52 2q-15 2 -26.5 3.5t-13.5 2.5q-7 3 -10.5 15.5t-3.5 39.5v11q0 20 4 38t16 51t37 96l30 77l28 76q115 295 154 495q13 65 17 103t4 87t-4.5 84.5t-15.5 70.5q-9 33 -20.5 51t-30.5 27l-14 7q-40 -22 -67.5 -45t-43.5 -59q-6 -15 -7 -41v-15q0 -8 1 -12
t5 -10q7 -11 7 -21q0 -11 -10 -21l-7.5 -7.5t-7.5 -2.5l-8 1q-39 3 -43 72l-1 17q0 71 52 134q63 70 157 94q19 4 42 4q40 0 75 -10q112 -37 153 -171q22 -60 22 -157l-1 -40q-2 -146 -57 -345q-58 -214 -104 -339q-11 -29 -34 -86t-44.5 -109.5t-28.5 -68.5q-8 -17 -8 -21
q0 -2 1 -2l1 1q1 0 9 1q24 1 78 4l61 1q18 0 26.5 -1.5t13 -5t7.5 -10.5q5 -8 5 -17q0 -20 -19 -33q-3 -1 -28 -2.5t-61 -3.5q-18 -1 -38 -2q-59 -2 -91 -4q-65 -4 -106 -4z" />
    <glyph glyph-name="three" unicode="3" horiz-adv-x="713" 
d="M294 -3q-11 0 -22 1q-111 20 -153 140q-7 24 -12 56t-5 50v4q2 15 11 25t21 10q7 0 14 -4q10 -5 15 -16t8 -37q8 -82 39 -117q23 -26 54 -35l17 -5q74 39 107 135q12 40 12 85q0 71 -28 138q-31 72 -87 117q-11 8 -18.5 14t-19.5 14.5t-35 23.5q-2 1 -3 2q-78 48 -78 100
q0 14 4.5 28t17 37t37.5 64q52 85 76 158t24 150l-2 42q-7 99 -31 121q-2 3 -4 3q-5 0 -17 -9q-61 -43 -84 -90q-19 -39 -19 -65q0 -12 4 -21q3 -7 3 -14q0 -12 -8 -20.5t-21 -8.5q-40 0 -40 60v5q0 83 71 166q11 11 17.5 17t14.5 12.5t22 16.5q63 44 136 65q29 8 60 8
q29 0 52 -7q67 -23 99 -85q24 -53 24 -126q0 -49 -11 -101q-10 -44 -29 -95.5t-40 -89.5q-13 -23 -38.5 -63t-49.5 -75l-26 -37q37 -6 62.5 -16t55.5 -31q112 -81 148 -248q5 -32 5 -75q0 -44 -5 -75q-25 -115 -90 -186q-19 -20 -48.5 -42t-55.5 -36q-83 -38 -151 -38z" />
    <glyph glyph-name="four" unicode="4" horiz-adv-x="754" 
d="M539 -5l-153 3l-8 8q-4 3 -6 5.5t-3 7.5t-1 16q0 8 -1 26t-3 37l-1 42q0 74 5 196t9 177l2 15q-55 -1 -81 -2q-24 0 -42.5 -0.5t-49.5 -0.5q-53 0 -74.5 4.5t-38.5 16.5q-4 3 -8.5 8t-8.5 10q-6 12 -6 30q0 17 6 38q16 47 80 198q8 18 22 49q8 19 15 37l37 88q4 8 8 18
q15 34 28 68q5 12 14 31q22 54 49 116q23 53 33.5 79.5t14 38.5t3.5 21q1 15 9.5 22.5t19.5 7.5q12 0 22.5 -9.5t10.5 -27.5q0 -4 -2 -15.5t-6 -23.5q-8 -23 -28 -76.5t-37 -92.5l-121 -288l-23 -54q-87 -202 -87 -219v-2q1 -1 7.5 -2t14.5 -2q6 -1 23.5 -1h40.5
q43 0 90 0.5t59 2.5l10 1l26 276q39 383 41 460q1 40 6 55.5t18 21.5q4 2 7.5 3t7.5 1l18 -2q16 -2 41 -4q11 -1 20 -2q25 -1 38.5 -2.5t20.5 -3.5t13 -5q38 -15 42 -113l1 -25q0 -97 -19 -351q-29 -359 -33 -716q0 -47 -0.5 -78t-1 -48.5t-1.5 -26.5t-2 -13t-3 -6
q-2 -3 -7 -7.5t-11 -7.5q-7 -4 -21 -6t-45 -2z" />
    <glyph glyph-name="five" unicode="5" horiz-adv-x="684" 
d="M263 -21l-19 1q-125 10 -169 121q-7 19 -7 31q0 21 20 28q6 2 12 2q9 0 19 -6q4 -2 9 -11t11 -21t13 -23.5t12 -17.5q10 -11 26.5 -19.5t33.5 -12.5q12 -3 20 -3q7 0 13 4.5t16 15.5q50 50 74 126q27 83 27 151q0 49 -15 85q-12 32 -32.5 51.5t-62.5 39.5
q-67 32 -91.5 53t-32.5 54q-3 12 -4.5 40.5t-1.5 62.5q0 40 2 77.5t6 55.5q2 10 5.5 57.5t6.5 103.5q6 109 9 218q1 59 2.5 98.5t3.5 45.5q3 7 13 15.5t18 10.5l30 1l56 -1q24 -1 59 -2q63 -2 122 -3q46 -1 78.5 -2.5t37.5 -3.5q29 -12 29 -34q0 -7 -4 -14q-3 -10 -10 -13.5
t-24 -3.5l-32 1q-19 2 -47.5 3t-50.5 1h-33h-14.5t-5.5 -1.5t-2 -3.5q-1 -11 -5.5 -53t-8.5 -86q-3 -56 -7 -152q-2 -67 -5.5 -131t-7.5 -106q-3 -35 -5.5 -59.5l-2.5 -24.5l18 -8q18 -7 34 -17t37 -27q57 -44 90 -110q11 -22 18 -42t13 -46q9 -49 9 -106q0 -35 -4 -63
t-13 -61t-19 -57q-54 -115 -180 -183q-10 -5 -28 -11t-35 -10.5t-24 -4.5z" />
    <glyph glyph-name="six" unicode="6" horiz-adv-x="770" 
d="M402 3q-5 0 -11 1t-15 2q-19 2 -34 8t-43 22q-81 46 -133 138q-91 158 -95 407v30q0 226 63 441q22 70 60 142t78 122q82 96 185 104h17q55 0 98 -45q48 -47 68 -136q7 -27 7 -46q0 -32 -19 -41q-6 -3 -12 -3q-22 0 -29 37q-5 37 -19.5 72t-32.5 52l-3.5 3.5t-3.5 1.5
l-13 -4q-29 -13 -66.5 -79t-65.5 -152q-52 -169 -68 -337q-3 -46 -3 -104q0 -35 1 -62.5t3 -30.5q49 58 107 97.5t114 39.5q49 0 91 -42t66 -142q3 -11 4.5 -21.5t2 -26t0.5 -45.5q0 -54 -3 -80t-15 -66q-7 -29 -14.5 -46.5t-20.5 -42.5q-30 -56 -84 -104q-60 -52 -135 -61
q-10 -1 -16 -2t-11 -1zM519 150q34 0 60 41.5t46 118.5q11 48 11 98q0 49 -10 85q-16 52 -42.5 75t-58.5 23q-55 0 -115 -53q-20 -18 -43 -43.5t-31 -38.5l-5 -11q7 -32 12 -53.5t10 -41.5q9 -25 24.5 -58.5t28.5 -52.5q66 -89 113 -89z" />
    <glyph glyph-name="seven" unicode="7" horiz-adv-x="870" 
d="M163 17q-26 0 -38 1t-21 4q-35 14 -35 47q0 8 2 17q6 16 11 33q89 271 206 612t212 578q3 6 5 12q5 13 8.5 21.5t3.5 9.5q0 2 -12 2l-25 -1q-16 -1 -55.5 -1.5t-81.5 -0.5l-101 -1q-3 3 -5 6q-5 5 -8 9.5t-3 14.5t3 15t11 10q3 2 19 4t54.5 4t109.5 5q90 3 193 3
q57 0 101 -0.5t53 -2.5q17 -3 22.5 -10.5t5.5 -26.5q-56 -145 -142 -412q-79 -245 -168.5 -495.5t-175.5 -411.5q-7 -12 -16 -21.5t-18 -12.5q-13 -5 -47.5 -8t-67.5 -3z" />
    <glyph glyph-name="eight" unicode="8" horiz-adv-x="698" 
d="M317 -8q-10 0 -22 2t-21 4q-76 25 -129 113.5t-70 218.5q-6 53 -6 106q0 115 28 222.5t80 190.5q16 23 39.5 49.5t40.5 39.5q3 2 5 3q6 5 10 8.5t4 4.5l-1 2t-3 5t-5 6q-8 13 -17 36t-15 45q-5 29 -5 69t5 73q17 86 64 150q28 39 68 60q34 18 66 18h5q79 -6 122 -101
q11 -26 16 -50t6 -55l1 -20q0 -127 -80 -229l-18 -21q89 -75 122 -225q20 -86 20 -178q0 -100 -22 -197.5t-65 -176.5q-95 -173 -223 -173zM453 1015q2 0 6.5 6t9.5 14q46 81 46 164q0 70 -35 117l-8 9q-20 -28 -33.5 -63t-13.5 -82q0 -26 5.5 -65.5t12 -69.5t10.5 -30z
M396 105q14 0 30 19q18 17 38.5 49t34.5 66q37 84 53 190q6 46 6 110t-6 108q-30 177 -117 239q-13 10 -19 10h-1q-3 0 -5 -6q0 -3 -4 -10.5t-9 -15.5q-23 -41 -47.5 -111t-37.5 -132q-11 -55 -14.5 -89.5t-3.5 -93.5q0 -57 3.5 -86.5t14.5 -66.5q2 -7 5 -19q6 -27 16.5 -64
t26.5 -67t36 -30z" />
    <glyph glyph-name="nine" unicode="9" horiz-adv-x="770" 
d="M298 16q-56 1 -98 45q-48 48 -69 138q-6 26 -6 45q0 33 18 42q6 3 12 3q22 0 29 -37q5 -38 19.5 -73t32.5 -52q3 -2 4.5 -3.5t3.5 -1.5q4 0 12 4q29 13 66.5 79t65.5 153q52 170 68 338q1 20 2 50t1 60q0 34 -1 60t-3 29q-49 -58 -107 -98.5t-114 -40.5q-50 0 -91.5 42.5
t-66.5 141.5q-3 12 -4 22.5t-1.5 26.5t-0.5 46q0 54 3 80t14 66q8 29 15 46.5t20 42.5q31 56 84 105q60 52 135 62q10 1 16 1.5t12 0.5q5 0 10.5 -0.5t14.5 -1.5q19 -2 34.5 -8.5t42.5 -22.5q82 -45 133 -138q91 -159 96 -409v-30q0 -227 -63 -442q-22 -71 -59 -143
t-78 -122q-82 -97 -185 -105q-9 -1 -17 -1zM246 848q54 0 114 54q21 19 44 44.5t30 37.5l6 11q-11 52 -19 80l-4 16q-8 25 -24 59t-29 52q-66 89 -113 89q-34 0 -60 -41.5t-46 -118.5q-10 -48 -10 -97t10 -87q16 -52 42.5 -75.5t58.5 -23.5z" />
    <glyph glyph-name="colon" unicode=":" horiz-adv-x="395" 
d="M190 243q-14 0 -29 4q-42 12 -66.5 45t-24.5 77v11q8 69 45 102.5t82 33.5q40 0 76 -26t50 -76q4 -13 4 -26q0 -39 -23 -77t-59 -55q-28 -13 -55 -13zM190 738q-14 0 -29 4q-42 12 -66.5 45t-24.5 77v11q8 69 45 102.5t82 33.5q40 0 76 -26t50 -76q4 -13 4 -26
q0 -39 -23 -77t-59 -55q-28 -13 -55 -13z" />
    <glyph glyph-name="semicolon" unicode=";" horiz-adv-x="395" 
d="M190 738q-14 0 -29 4q-42 12 -66.5 45t-24.5 77v11q8 69 45 102.5t82 33.5q40 0 76 -26t50 -76q4 -13 4 -26q0 -39 -23 -77t-59 -55q-28 -13 -55 -13zM123 143l-15 2q-20 7 -20 29q0 19 7 45q11 34 11 73q0 35 -18 70q-10 24 -10 45q0 46 39.5 74.5t86.5 28.5
q40 0 74 -23.5t46 -76.5l2 -19q0 -47 -32.5 -105t-79.5 -100.5t-91 -42.5z" />
    <glyph glyph-name="semicolon" unicode="&#x37e;" horiz-adv-x="395" 
d="M190 738q-14 0 -29 4q-42 12 -66.5 45t-24.5 77v11q8 69 45 102.5t82 33.5q40 0 76 -26t50 -76q4 -13 4 -26q0 -39 -23 -77t-59 -55q-28 -13 -55 -13zM123 143l-15 2q-20 7 -20 29q0 19 7 45q11 34 11 73q0 35 -18 70q-10 24 -10 45q0 46 39.5 74.5t86.5 28.5
q40 0 74 -23.5t46 -76.5l2 -19q0 -47 -32.5 -105t-79.5 -100.5t-91 -42.5z" />
    <glyph glyph-name="less" unicode="&#x3c;" horiz-adv-x="571" 
d="M394 209q-7 0 -14 4q-14 11 -75 106q-42 67 -79.5 122.5t-112.5 164.5q-25 36 -34.5 52t-9.5 29q0 7 2 16q0 9 74 128l110 179q49 80 72 109.5t40 34.5q11 4 18 4q8 0 17 -5q13 -7 33 -26t37.5 -40t22.5 -33q6 -13 6 -29q0 -18 -7 -34q-19 -43 -91 -156.5t-152 -224.5
q-14 -20 -19.5 -29t-5.5 -12l1 -3l44 -67q18 -27 39 -61t37 -60q15 -25 30.5 -50t23.5 -38q8 -12 14.5 -22.5t7.5 -14.5l2 -11q0 -13 -9.5 -23t-21.5 -10z" />
    <glyph glyph-name="equal" unicode="=" horiz-adv-x="889" 
d="M482 796q-159 0 -366 15q-46 27 -46 111v14q1 15 2 23.5t4 13.5q21 16 84.5 23t148.5 8h39q124 0 249 -4q91 -4 146 -4q30 0 45 2q9 -6 14 -10.5t8 -10.5q4 -8 6.5 -36t2.5 -53l-1 -18v-3q-1 -13 -1.5 -20t-2 -11.5t-5.5 -10.5q-11 -21 -43 -25q-46 -1 -89 -2
q-100 -2 -195 -2zM487 485q-161 0 -371 16q-46 26 -46 111v14q1 15 2 23t4 14q21 15 84.5 22t148.5 8h39q124 0 249 -4q91 -4 146 -4q30 0 45 2q9 -6 14 -10.5t8 -9.5q4 -9 6.5 -36.5t2.5 -53.5l-1 -18v-3q-1 -13 -1.5 -20t-2 -11.5t-5.5 -10.5q-11 -21 -43 -25
q-45 -1 -87 -2q-98 -2 -192 -2z" />
    <glyph glyph-name="greater" unicode="&#x3e;" horiz-adv-x="571" 
d="M186 210q-8 0 -17 5q-13 7 -33 26t-37.5 40t-22.5 33q-6 13 -6 29q0 17 7 34q18 42 90.5 155.5t152.5 225.5q14 20 19 28.5t5 12.5v3q-1 1 -4 5q-11 18 -40 62q-18 26 -39.5 60t-36.5 60t-30.5 51t-23.5 37t-14.5 22.5t-7.5 14.5l-2 11q0 13 9 23t21 10q7 0 15 -4
q14 -10 75 -105q38 -62 71 -111t92 -135q13 -19 29 -41q26 -37 35 -53.5t9 -28.5l-1 -15q0 -9 -75 -129q-18 -28 -37 -59q-48 -77 -73 -119q-49 -80 -72 -109.5t-40 -34.5q-11 -4 -18 -4z" />
    <glyph glyph-name="question" unicode="?" horiz-adv-x="666" 
d="M304 307l-32 -1q-15 0 -22.5 0.5t-11.5 2t-7 3.5q-9 5 -14.5 12t-8.5 20q-9 36 -15 146t-6 203q0 84 7 114q3 11 9 20.5t22.5 24t50.5 43.5q81 62 89 178q1 13 1 27q0 57 -25 114q-10 20 -23.5 43t-31 39.5t-38.5 16.5t-45 -26q-65 -68 -70 -163l-1 -14q0 -41 18 -58
q11 -12 11 -24q0 -6 -3 -13q-10 -16 -27 -16q-11 0 -21 7q-20 13 -31 43.5t-11 71.5q0 22 4 47q16 99 88 172q63 63 140 63h5q44 0 91 -21q55 -25 104 -85t74 -132q12 -37 17 -65t5 -62q0 -27 -2 -40t-7 -33q-24 -103 -140 -202q-14 -13 -19.5 -20t-7.5 -12
q-6 -27 -10.5 -118.5t-4.5 -184.5v-90q-3 -3 -4 -6q-4 -5 -8.5 -9.5t-13.5 -8.5q-6 -3 -12.5 -4.5t-20 -2t-39.5 -0.5h-3zM291 -30q-15 0 -28 4q-43 12 -67.5 44.5t-24.5 76.5l1 12q3 39 24.5 74t50.5 49q31 15 54 15q9 0 18 -3.5t28 -12.5q65 -32 78 -88q2 -13 2 -25
q0 -40 -22.5 -78t-57.5 -55q-29 -13 -56 -13z" />
    <glyph glyph-name="at" unicode="@" horiz-adv-x="976" 
d="M492 1414v0v0q135 25 248 -42q102 -82 136 -317q5 -44 5 -122.5t-5 -124.5q-33 -217 -115 -267q-29 -16 -59 -7q-12 2 -19 6.5t-17 15.5q-28 28 -42 75q-8 26 -10.5 37t-2.5 16q0 15 -19 1q-52 -36 -96 -20q-75 38 -77 123.5t61 153.5t181 51q7 -4 7.5 -26.5t-0.5 -49.5
v-24q-1 -15 -1 -33q-3 -57 2.5 -125t37.5 -123q9 -12 16 -12t18 14q45 56 67 207q5 42 5 111t-5 112q-18 125 -54 200q-61 109 -129 111t-127 -58t-93 -137q-26 -59 -48 -141.5t-30 -153.5q-2 -25 -3 -80.5t0 -111.5t3 -84q20 -191 58 -310q16 -50 44 -95.5t68 -56t92 44.5
q33 35 52.5 73.5t35.5 99.5q5 19 8.5 29.5t7 15.5t9.5 7q14 7 27.5 2t19.5 -19q2 -5 2.5 -8.5t0 -9t-2.5 -14.5q-11 -45 -27 -88.5t-32 -69.5q-60 -92 -140 -130q-75 -33 -159 -16v0q-97 24 -178 118q-81 96 -109 288q-48 333 27 575q29 93 77 173q118 183 284 216zM600 923
v0v0q-28 0 -46.5 -27.5t-26.5 -64t-4 -64.5t21 -30q37 3 54 36l2 87q0 11 0.5 17.5t0.5 10t-0.5 5.5l-0.5 2v1.5v2t1 4.5q1 17 2 20v0.5v0.5h-1l-0.5 -0.5t-1.5 -0.5z" />
    <glyph glyph-name="A" unicode="A" horiz-adv-x="659" 
d="M198 -40q-13 0 -26 5q-14 7 -31.5 20t-27.5 26q-34 43 -43 121q-2 15 -2 43q0 100 17 311.5t42 412.5q16 126 38 248t40 189q19 68 52 84q13 5 36 5q37 -2 74 -19q6 -4 16 -12t19 -17q37 -36 54 -110q4 -21 8 -45t8.5 -67t12.5 -122l18 -186q7 -68 21.5 -189t22.5 -185
q16 -131 27.5 -251t12.5 -183v-44q-3 -2 -4 -4q-7 -7 -12 -10.5t-14 -3.5q-10 0 -19 9q-3 3 -5 6t-3 9.5t-2 18t-3 31.5v4l-11 113q-3 19 -6.5 52t-7 67.5t-6 59t-2.5 25.5l-8 1q-12 0 -38.5 -1.5t-55 -3.5t-49 -3.5t-22.5 -2.5q-1 -2 -3 -22t-4 -49q-19 -221 -45 -276
t-69 -55zM326 429l2 1q1 1 22.5 3.5t52.5 4.5q18 2 34 3q18 2 29.5 3t13.5 2q1 0 1 5q0 7 -2 23q-12 94 -31 263.5t-30 283.5q-7 69 -12 117.5t-6 51.5q-1 1 -1 2l-0.5 0.5l-0.5 0.5v-3l-12 -87q-33 -245 -52 -519q-5 -68 -7.5 -100.5t-2.5 -44.5q0 -6 0.5 -8t1.5 -2z" />
    <glyph glyph-name="B" unicode="B" horiz-adv-x="639" 
d="M198 -20h-20q-13 0 -20 0.5t-12 2.5q-24 9 -35.5 24t-14.5 42q-2 10 -3.5 40t-3.5 66q-2 34 -4 71q-2 42 -3 67q-8 158 -10 689l-1 373q0 55 78 70q48 10 97 10h11q56 -1 103 -15q46 -14 74.5 -29t52.5 -38q76 -71 79 -164v-14q0 -80 -49 -172q-50 -97 -149 -196l-32 -32
q8 -8 15 -14q6 -4 15 -12.5l27 -25.5q24 -21 52.5 -50.5t46.5 -51.5q59 -75 74 -172q4 -32 4 -71q0 -40 -4 -75q-14 -107 -56.5 -171.5t-128.5 -108.5q-79 -38 -183 -43zM301 836q4 3 7 5.5t6 5.5q5 5 18 17q36 36 70 82t54 83q44 84 44 148q0 75 -62 132q-11 10 -20 16.5
t-21 11.5q-21 9 -46 17t-40 11l-12 2q0 -2 -0.5 -3t-0.5 -2q-1 -1 -1 -2.5t-0.5 -5t-0.5 -11v-19.5v-31v-43l4 -253zM310 65l4 1l10.5 3.5t16.5 6.5q81 38 119 101q27 49 41 148q2 18 2 40q0 25 -2 50.5t-5 40.5q-11 55 -40.5 99.5t-96.5 107.5l-57 55q-2 -92 -3.5 -154.5
t-1.5 -159.5q0 -107 2.5 -195.5t6.5 -127.5q0 -9 1 -12.5t3 -3.5z" />
    <glyph glyph-name="C" unicode="C" horiz-adv-x="709" 
d="M381 -7q-14 0 -29 2q-118 23 -195 131q-56 87 -75 245q-13 128 -13 276q0 173 17 315q16 110 52 221q72 215 202 260q20 7 40 7q52 0 93 -43q53 -61 53 -167l-2 -40q-2 -24 -7.5 -58.5t-11 -63.5t-8.5 -35q-3 -7 -10.5 -11.5t-15.5 -4.5l-5 1q-7 2 -14 9t-9 14v2
q0 7 2 24.5t5 40.5q9 65 9 114q0 64 -15 96l-5 10q-4 -6 -8 -11q-7 -10 -11.5 -18.5t-10 -22t-14.5 -38.5q-21 -61 -29.5 -147t-10.5 -268q-3 -156 -3 -271q0 -208 9 -314q6 -92 16.5 -127t36.5 -46q4 -2 6.5 -3.5t4.5 -1.5q4 0 11 3q53 18 85 86q9 18 15.5 39.5t12.5 58.5
q7 40 10.5 67.5t6.5 70.5q1 14 2 26q2 31 3 48t2 25t3 11t5 5v1q11 10 24 10q18 0 29 -20q2 -3 2.5 -7.5t0.5 -13.5l-3 -69q-3 -62 -7.5 -99t-13.5 -81q-7 -35 -12.5 -54t-18.5 -45q-21 -46 -47 -73.5t-66 -45.5q-45 -20 -88 -20z" />
    <glyph glyph-name="D" unicode="D" horiz-adv-x="762" 
d="M257 0h-36.5t-18.5 1q-63 13 -82 63q-6 14 -9 43.5t-5 92.5q-1 34 -2.5 79.5t-2.5 80.5q-2 52 -4 98q-1 18 -1 30q-7 114 -11 401q-1 76 -2.5 144.5t-2.5 97.5q-2 29 -3.5 71t-1.5 77q-2 36 -3.5 62.5t-1.5 32.5l-1 9q0 7 2.5 12t8.5 11q13 17 46 17q9 0 15.5 -1t20 -5
t42.5 -13q121 -39 211 -116q101 -84 163 -208q84 -172 109 -369q2 -21 3.5 -56t1.5 -72q0 -55 -3 -91q-23 -195 -107 -319q-33 -45 -91.5 -89.5t-111.5 -63.5q-31 -10 -58 -14.5t-64 -5.5zM358 81q1 0 6.5 2t12.5 5q26 12 57.5 34t59.5 47q85 87 121 264q14 78 14 161
q0 92 -18 185q-49 236 -158 379q-26 31 -60.5 63t-67.5 55l-16 11q0 -2 -0.5 -3.5t-0.5 -2v-0.5v-0.5v-1t-0.5 -2t-0.5 -4.5v-6.5v-9.5l3 -79q2 -65 2 -217v-118q0 -132 0.5 -202t3 -126t7.5 -139q8 -131 18 -213t17 -82z" />
    <glyph glyph-name="E" unicode="E" horiz-adv-x="621" 
d="M233 3q-34 0 -51 3q-70 10 -92 89q-2 7 -3.5 15t-2 25t-1.5 49.5t-1 88.5q-1 68 -2.5 134t-2.5 99q-4 102 -6 169.5t-2 156.5l2 235l4 326q-1 16 4.5 23.5t25.5 10.5t64 5q31 2 78.5 3.5t87.5 1.5h51t29.5 -0.5t15.5 -1.5t8 -3t7 -5.5t7 -5.5q4 -8 4 -18t-5 -18
q-4 -5 -8 -8t-13.5 -4.5t-28.5 -1.5l-95 2q-11 0 -16.5 -0.5t-8 -1.5t-2.5 -2l-1 -5q0 -19 6 -90q5 -80 5 -196q0 -83 2 -215.5t5 -202.5l2 -48q40 3 61.5 4.5t32.5 1.5q8 0 11.5 -1t7.5 -3q16 -11 16 -28q0 -7 -3 -14q-4 -8 -8.5 -12t-14.5 -6t-28 -4q-15 -2 -31 -3t-23 -1
h-19q1 -15 1.5 -25.5t1.5 -27.5t2 -51q1 -12 2 -26q2 -34 5 -87.5t6 -102.5l2 -36q2 -36 4 -62.5t2 -32.5q0 -7 1 -12.5t2 -6.5h3q11 0 45.5 3.5t79.5 9.5q24 3 36.5 5t19.5 2q4 0 7 -1t7 -2q22 -13 22 -32q0 -16 -15 -26q-10 -4 -59.5 -11.5t-113.5 -13.5q-74 -7 -129 -7z
" />
    <glyph glyph-name="F" unicode="F" horiz-adv-x="567" 
d="M213 0h-68q-14 4 -24 20q-3 4 -4 9t-1 12v10q0 8 -1 29t-4 44q-5 47 -13 154t-14 206q-3 49 -5.5 158.5t-7.5 363.5q-1 81 -1 152q0 164 7 218q4 25 26 37l12 8h123q103 -1 147 -3t56 -9q25 -12 25 -35q0 -5 -2 -10q-5 -21 -28 -21h-3q-87 8 -110 8l-18 -1q0 -8 1 -16
q0 -54 1 -97t4 -121l7 -195q2 -43 4 -97.5t2 -95.5l4 -94h19q15 1 32 2t41 6q32 5 45 5q7 0 10.5 -1t6.5 -3q15 -11 15 -27q0 -19 -22 -34q-9 -5 -43.5 -10t-67.5 -7l-33 -2q7 -257 16 -405q5 -61 5 -86q0 -13 -1.5 -20.5t-4.5 -13.5q-8 -21 -35.5 -29t-97.5 -9z" />
    <glyph glyph-name="G" unicode="G" horiz-adv-x="764" 
d="M375 -1q-24 0 -41 3q-31 7 -66.5 27.5t-62.5 46.5q-55 53 -93 166q-43 141 -43 333q0 136 22 278q34 203 96 342q73 164 179 216q21 11 37.5 15t37.5 4h9q17 -1 27 -3t22 -7q80 -35 109 -128q8 -24 11 -44t3 -50l1 -22q0 -32 -7.5 -44.5t-24.5 -12.5q-6 0 -10.5 1.5
t-8.5 5.5q-3 3 -4.5 5.5t-2.5 8t-2 15.5t-2 27q-4 75 -24 111q-4 9 -12 20t-15.5 19.5t-10.5 8.5h-1q-6 -4 -23 -51.5t-36 -113t-32 -124.5q-24 -115 -38.5 -287t-14.5 -342q0 -76 2 -121.5t8 -97.5q3 -19 8 -51t10.5 -58.5t6.5 -29.5h1q3 0 11 1t18 4q29 6 46 15
q130 70 156 291q3 30 3 69q0 48 -5 85q-2 15 -6.5 37t-9 39.5t-6.5 19.5q-5 2 -33 2q-39 0 -95 -4l-66 -4q-2 1 -6 3.5t-8 6.5q-5 5 -6.5 9.5t-1.5 13.5t1.5 13.5t4.5 8.5q5 5 12 8t23 5t47 4q44 4 84 4q55 0 76 -6q15 -5 24.5 -24t21.5 -66q17 -70 17 -150q0 -112 -33 -220
q-8 -23 -23 -53t-29 -52q-65 -92 -163 -119q-33 -7 -69 -7z" />
    <glyph glyph-name="H" unicode="H" horiz-adv-x="649" 
d="M162 5q-20 0 -28 4q-24 11 -33 40q-16 54 -16 354q0 160 -3 361t-6 326q-4 84 -6 150v32l-1 31q0 36 2.5 63.5t6.5 35.5q5 16 33 22t92 6q37 0 52.5 -1t26.5 -4q32 -8 44 -29.5t16 -78.5q0 -13 1 -106.5t1 -217.5q0 -128 1 -230.5t2 -131.5l2 -63q9 1 15.5 1.5t17.5 1.5
l33 3q10 1 24 2l56 6q0 172 2.5 362.5t7.5 326t11 152.5q3 8 12.5 14.5t17.5 6.5q18 0 29 -19q1 -3 2 -7.5t1 -14.5l-2 -64q-9 -191 -11.5 -378t-2.5 -447v-125q0 -145 -2 -219t-5 -115q-2 -47 -33 -47q-18 0 -24 12q-3 2 -3 57v190q0 216 -2 241l-44 -1l-99 -7
q-1 -49 -1 -92q-1 -306 -13 -342q-4 -12 -13 -23.5t-19 -17.5q-24 -11 -93 -17q-31 -3 -49 -3z" />
    <glyph glyph-name="I" unicode="I" horiz-adv-x="375" 
d="M205 -7l-15 1q-60 10 -84 36q-16 17 -22.5 47.5t-10.5 97.5q-1 38 -1.5 198t-0.5 347q0 188 0.5 343t1.5 183q5 71 12 121t14 60q21 19 89 19l33 -1q37 -3 52 -9t23 -21q5 -6 7 -11t2 -14v-30q0 -17 -1 -50.5t-3 -65.5q-2 -39 -2.5 -157.5t-0.5 -261.5q0 -142 0.5 -271.5
t2.5 -189.5q2 -74 3 -161q1 -30 1 -54v-61t-0.5 -33t-2 -16t-4.5 -9q-8 -21 -22 -28.5t-47 -7.5z" />
    <glyph glyph-name="J" unicode="J" horiz-adv-x="651" 
d="M265 -4q-19 0 -32 4q-36 10 -71 44q-37 36 -56 85t-27 133q-3 34 -6 120.5t-3 152.5v45q3 3 5 6q6 7 12 11.5t16 4.5q8 0 16 -5q6 -3 9.5 -7.5t5 -16t2.5 -37t2 -70.5q1 -11 1 -23q2 -100 5.5 -151.5t11.5 -89.5q13 -62 43.5 -99.5t67.5 -37.5q11 0 17 1.5t12 6.5
q24 15 33 48.5t9 127.5l-1 76q-7 672 -7 826q0 48 1 90.5t2 58.5l1 22q0 8 -1 12.5t-3 8.5q-5 11 -5 21t5 20q7 16 27.5 23t72.5 12q25 2 43 2q61 0 77 -26q6 -7 9.5 -20t6 -41t4.5 -82q10 -253 10 -455q0 -239 -16 -402t-51 -237q-20 -40 -50 -74t-60 -50q-53 -28 -86 -33
q-32 -5 -52 -5z" />
    <glyph glyph-name="K" unicode="K" 
d="M155 -10q-3 0 -5.5 1t-5.5 2q-1 0 -3 1q-7 3 -11.5 6.5t-8.5 11t-11 22.5q-9 21 -14.5 48t-8.5 74t-6 130q0 40 -2 108t-5 133q-1 65 -2 131.5t-1 170.5v163q1 162 2.5 250t3 123.5t4.5 39.5q3 6 11 11t13 5q2 0 5.5 2t6.5 5q4 3 9 4.5t16.5 2.5t32.5 2l39 2
q10 0 15.5 -1t10.5 -3q34 -14 47 -56q3 -7 4 -15t1.5 -26t0.5 -55.5v-103.5q1 -220 9 -420l2 -43l254 535q24 51 41.5 87t19.5 41q13 17 31 17q8 0 16 -4q7 -4 12 -14t5 -18q0 -3 -6 -18t-16 -34q-9 -19 -28 -58t-38 -80q-151 -326 -214 -446l-42 -86q43 -20 72 -59t46 -120
q5 -24 13 -87t14 -130l10 -89q8 -56 41 -56q8 0 18 3q11 3 21 16.5t15 31.5q8 30 8 100q0 40 -3 89l-2 50q0 10 1.5 14.5t3.5 9.5q13 22 31 22q15 0 25 -18q6 -13 8.5 -62t2.5 -102q0 -64 -5 -98q-18 -95 -78 -121q-9 -4 -18.5 -5.5t-28.5 -1.5q-13 0 -20.5 0.5t-12.5 2
t-11 4.5q-42 24 -58 87q-2 9 -5.5 36.5t-7.5 61.5q-14 141 -24 203.5t-24 91.5q-9 23 -19.5 35.5t-24.5 20.5l-17 9l-1 -18q0 -31 4 -134q4 -104 4 -191q0 -126 -7 -167q-7 -30 -25 -43q-9 -7 -40.5 -16t-62.5 -14z" />
    <glyph glyph-name="L" unicode="L" horiz-adv-x="673" 
d="M411 -18q-71 0 -132.5 9t-100.5 35q-61 43 -84 128t-24 212l1 992l-1 29q0 17 6.5 29.5t27.5 20.5q27 0 54 2q25 2 47 2q42 0 69 -15t27 -67l-11 -1203q4 -40 24 -60.5t53.5 -27t76.5 -6.5q27 0 57 1q32 1 66 1h35q16 0 23.5 -11t7.5 -25t-8.5 -26.5t-25.5 -12.5
q-15 -1 -31 -2q-79 -5 -157 -5z" />
    <glyph glyph-name="M" unicode="M" horiz-adv-x="1043" 
d="M267 -7l-102 2q-23 0 -36 0.5t-20 1t-9.5 2t-4.5 3.5q-14 15 -19.5 128t-5.5 302v136q1 100 3 210t3 180l6 289q1 38 1.5 63t1 39.5t1 22t1.5 11t2 6.5q4 5 7 9t6 6q5 2 23.5 3.5t41 2.5t39.5 1h14q3 0 5 -1q6 -1 11.5 -2.5t8.5 -3.5q11 -6 20.5 -17t13.5 -23
q7 -18 21.5 -74.5t29.5 -126.5l36 -165q9 -38 18 -78t13 -65q17 -75 38 -157.5t33 -119.5q5 -13 10.5 -28t10 -25.5t5.5 -12.5h2q13 0 77 224q25 82 41 143t33 139l51 213q18 82 35 112t53 45q23 11 54 19.5t46 8.5q12 0 25.5 -5t21.5 -13q7 -6 13.5 -21t9.5 -31
q8 -43 8 -146q0 -104 -8 -240q-9 -165 -9 -327v-100q1 -104 3.5 -208t5.5 -176.5t7 -84.5q4 -7 4 -13q0 -21 -33 -31q-7 -2 -26.5 -3t-42.5 -1q-31 0 -58.5 1.5t-35.5 4.5q-26 10 -37 48q-11 34 -15 204.5t-8 539.5q0 13 -1 27l-2 158q-2 -10 -4 -18q-4 -14 -7 -27t-7 -31
q-22 -91 -76 -273q-13 -45 -28.5 -90.5t-22.5 -59.5q-33 -62 -70 -62q-15 0 -31 12q-31 25 -73 172q-10 40 -26.5 105t-24.5 101l-6 29v-9q-1 -4 -1.5 -10t-1 -19t-1 -36t-1.5 -60q0 -42 -1 -92.5t-3 -82.5q0 -13 -0.5 -48t-0.5 -81q-1 -66 -2 -131.5t-2 -103.5
q0 -60 -1 -94t-2 -50t-4 -22.5t-9 -11.5q-6 -8 -13 -10.5t-22 -2.5z" />
    <glyph glyph-name="N" unicode="N" horiz-adv-x="762" 
d="M230 5h-18q-15 0 -31.5 1t-27.5 3q-61 10 -76 49q0 2 -1 10.5t-1.5 30.5t-0.5 63t-0.5 107t-0.5 163v231q0 22 -1 44q0 264 -0.5 452.5t-1.5 201.5v8q0 30 30 32q4 0 16 2t24 5l28 4t22 2h10q7 0 12 -1.5t10 -5.5q15 -8 26.5 -29.5t26.5 -69t37 -133.5l59 -219
q6 -22 10 -35q2 -6 2 -8l17 -61q17 -59 52 -178t67 -226.5t39 -131.5l31 -93q4 -8 6 -13.5l2 -5.5q1 0 2 11.5t1 27.5l7 132q10 169 14.5 340t5.5 409q1 19 1 36q0 63 0.5 103t1.5 62.5t2.5 33t4.5 14t8 5.5l1 1q8 4 15 4t14 -5q2 -1 3 -1q4 -3 7 -7t4.5 -14.5t2 -32.5
t0.5 -62l-1 -153q-2 -448 -19 -722l-9 -170q-3 -61 -5.5 -97t-5.5 -54.5t-8 -25.5t-13 -11l-10 -4t-8 -2q-6 0 -14.5 6t-13.5 13q-4 9 -21 56.5t-42 119.5l-13 39q-13 38 -62 203l-67 228l-67 236q-16 61 -28 103q-8 29 -10 36q-3 13 -4 13l1 -93q2 -32 4 -94.5t3 -125.5
l6 -198q2 -32 4 -84q1 -26 2 -48q1 -35 3 -87t4 -98q4 -76 4 -123q0 -66 -7 -79q-9 -25 -33 -35q-6 -3 -13 -4t-19 -1z" />
    <glyph glyph-name="O" unicode="O" 
d="M325 -1q-15 0 -25 2q-15 3 -33.5 12.5t-31.5 18.5q-48 38 -87 135q-77 187 -77 453v32q2 199 56 414q28 114 68 197q6 10 9.5 18t4.5 11q3 6 16 26.5t27 40.5t20 26q22 20 58 33t68 13h6q11 0 18 -2q82 -15 145 -92q54 -60 85 -182q30 -111 30 -260q0 -161 -34 -368
q-39 -252 -107 -376q-61 -118 -150 -144q-12 -4 -30.5 -6t-35.5 -2zM362 69l5 1q4 1 10.5 3t11.5 4q65 24 118 140q65 139 102 453q8 60 11 100t3 93l1 40q0 116 -18 193q-9 46 -25 90t-32 72q-15 25 -41 50.5t-46 35.5q-5 3 -8 3q-5 -1 -10.5 -7t-15.5 -20
q-42 -70 -79 -205.5t-53 -282.5q-9 -80 -12 -134.5t-3 -134.5q1 -196 28 -355q9 -50 17.5 -77t22.5 -49q5 -7 7 -10t6 -3z" />
    <glyph glyph-name="P" unicode="P" horiz-adv-x="725" 
d="M176 -16l-16 1q-4 1 -11.5 3.5t-15.5 6.5q-10 5 -15.5 9.5t-10.5 13.5q-4 6 -7 14.5t-5 15.5q-3 22 -8.5 63.5t-8.5 70.5q-3 51 -5 258t-2 424q0 156 1 276t3 149q4 31 4 61l-1 23q0 9 6 23t12 20q7 5 16 6q9 0 18 -4q3 -1 8.5 -2t18 -2t36.5 -3t64 -5h3q139 -11 237 -71
q136 -84 155 -276q3 -23 3 -56q0 -63 -8 -124q-21 -138 -92 -240q-59 -88 -134 -138q-19 -14 -35 -23.5t-37 -18.5l-24 -11q0 -32 -1.5 -100t-3 -133.5t-3.5 -98.5q-3 -61 -18 -87t-55 -37q-11 -4 -31 -6t-37 -2zM330 523q1 0 8 3.5t16 8.5q139 85 201 251q32 82 32 208
q0 47 -3 72t-13 59q-24 98 -103 150q-26 17 -66 34t-69 24h-2.5t-2.5 1q-3 0 -3 -2l1 -5q1 -4 3 -29t3 -60q3 -56 3 -134q0 -103 -5 -236q-1 -35 -1.5 -92t-0.5 -113q0 -57 0.5 -98.5t1.5 -41.5z" />
    <glyph glyph-name="Q" unicode="Q" horiz-adv-x="845" 
d="M662 -221q-16 0 -33 4q-58 15 -91 66q-33 56 -36 186q-28 -17 -61 -25q-13 -4 -34.5 -6t-41.5 -2q-18 0 -30 2q-16 3 -38 12t-37 18q-55 38 -101 134q-90 184 -90 444v34q3 196 65 409q33 112 80 193l16 29q3 6 18 26t31.5 40t22.5 26q25 20 67.5 32.5t79.5 12.5h7
q12 0 21 -2q95 -16 169 -90q63 -61 98 -180q35 -110 35 -258q0 -158 -39 -362q-46 -248 -124 -370q-22 -34 -46 -61v-47q1 -49 2.5 -70.5t4.5 -35.5q11 -48 31 -69q9 -10 18 -14.5t22 -6.5q7 -1 14 -1q36 0 57 44q9 17 13.5 40t5.5 60q2 44 5 52q10 15 27 15q14 0 25 -10
q5 -4 7 -7.5t2.5 -10t0.5 -21.5l1 -11q0 -25 -3 -51t-8 -44q-5 -21 -17.5 -45t-26.5 -39q-36 -40 -89 -40zM572 211q3 3 4 6q75 136 119 447q8 60 11.5 99t3.5 91l1 39q0 115 -21 191q-10 45 -28 88.5t-38 71.5q-18 25 -47.5 50t-53.5 35q-4 2 -9 2q-6 0 -12.5 -6.5
t-17.5 -20.5q-49 -70 -91.5 -203t-62.5 -278q-9 -79 -12.5 -132.5t-3.5 -132.5q0 -97 7 -181q31 11 72 20t64 9q44 0 68 -20q26 -20 37 -53.5t11 -99.5zM407 71l6 1q5 1 12.5 3t13.5 4q35 12 64 39v9q3 70 3 110q0 36 -2.5 53.5t-9.5 28.5q-12 23 -39 23q-11 0 -45 -6.5
t-59 -13.5q-12 -3 -23 -5q7 -55 18 -109q10 -49 20 -75.5t26 -48.5l2 -2q4 -6 6.5 -8.5t6.5 -2.5z" />
    <glyph glyph-name="R" unicode="R" horiz-adv-x="766" 
d="M238 0h-19q-27 0 -38 3q-15 4 -25 9t-19 12q-13 11 -20 32t-13 63q-10 71 -18.5 258.5t-14.5 434.5q-1 95 -1 213q0 131 1.5 244t4.5 126q8 16 28 16h15l19 1q6 1 20.5 2.5t32.5 3.5h3h6q14 2 25 2q21 0 33 -2.5t21 -9.5q5 -3 10.5 -5t9.5 -2q8 0 28 -2.5t39.5 -6.5
t29.5 -7q31 -11 70 -33.5t67 -45.5q27 -24 57.5 -64t48.5 -73q15 -31 29 -67.5t22 -68.5q16 -64 16 -134q0 -74 -18 -146q-11 -45 -31.5 -88.5t-43.5 -73.5q-39 -51 -84 -81q-25 -17 -58 -30.5t-59 -19.5q-3 -1 -6 -1q-6 -1 -9 -2t-3 -3q0 -3 7 -13q2 -3 3 -5q24 -34 38 -84
q6 -21 13 -57.5t9 -61.5q12 -116 30 -133q7 -7 10.5 -9t11.5 -2q13 0 21.5 7t17.5 25q10 18 13.5 41.5t4.5 76.5l2 62l8 8q4 6 8.5 8t15.5 2q38 0 35 -67l-2 -44q-2 -40 -6 -62.5t-12 -40.5q-13 -35 -37 -57q-11 -11 -20.5 -16t-23.5 -8q-12 -3 -24 -3q-70 0 -100 83
q-5 19 -9 39t-9 65q-14 123 -38 173q-16 37 -35 43q-8 4 -12 4q-5 0 -6 -7.5t-1 -27.5q0 -46 5 -130.5t11 -140.5q4 -34 4 -54q0 -26 -7 -38q-4 -9 -8.5 -13t-14.5 -9q-7 -3 -12.5 -5t-15.5 -2.5t-31 -0.5zM304 516h4q23 2 39 3.5t36 4.5q195 38 246 273q11 57 11 105
q0 27 -4 54q-34 221 -187 327q-63 45 -132 53l-11 2z" />
    <glyph glyph-name="S" unicode="S" horiz-adv-x="649" 
d="M306 5q-22 0 -34 1q-16 3 -32.5 9t-42.5 18q-38 19 -58.5 39t-35.5 52q-19 45 -19 86q0 74 61 122q11 7 16.5 9.5t12.5 2.5q23 0 30 -16q5 -8 5 -15q0 -16 -26 -36q-29 -22 -32 -57v-9q0 -24 10.5 -52.5t24.5 -42.5q7 -6 22 -14.5t31.5 -16.5t26.5 -11t26.5 -4t33.5 -1
q12 0 21.5 0.5t11.5 2.5q5 4 10.5 19t7.5 31l2 22l-2 31q-4 59 -15.5 104t-36.5 99q-7 16 -21.5 45.5t-30 58.5t-25.5 44q-16 26 -41.5 75t-49 97t-32.5 72l-14 36q-41 123 -41 232q0 25 2 47q23 153 116 263q71 79 150 79l22 -2q39 -6 77.5 -31t60.5 -57q19 -28 27 -56
t9 -65l1 -18q0 -67 -26 -136q-8 -23 -26 -58.5t-32 -55.5q-22 -31 -42 -31q-10 0 -20 9q-9 9 -9 19q0 12 13 27q10 11 25.5 42t23.5 56q15 39 20 68.5t5 63.5q0 19 -0.5 29t-2 17t-5.5 17q-17 51 -66 80q-16 10 -29 13.5t-29 3.5q-39 0 -72 -34q-24 -23 -34.5 -50.5
t-10.5 -70.5q0 -102 70 -236q22 -40 57 -101t63 -107q115 -184 149 -322q22 -85 22 -155q0 -93 -40 -163q-12 -22 -21 -34.5t-24 -25.5q-44 -40 -108 -54q-11 -2 -34.5 -3t-45.5 -1z" />
    <glyph glyph-name="T" unicode="T" horiz-adv-x="780" 
d="M463 0h-36q-4 1 -12.5 4t-16.5 7q-30 13 -47 46t-25.5 107t-12.5 210l-5 151q-5 110 -8.5 314.5t-3.5 361.5v115l1 21q-9 0 -17 -1q-18 0 -40.5 -1t-67.5 -5q-22 -3 -41 -4t-29 -1h-6q-13 2 -20 10t-7 18q0 14 13 26q4 3 17 5.5t41 6.5q114 15 213 22q55 3 126 6.5
t130.5 6t72.5 2.5h2q4 -1 8.5 -3.5t7.5 -6.5q5 -5 6.5 -9.5t1.5 -12.5q0 -6 -1 -11.5t-3 -8.5q-3 -5 -8 -8t-15.5 -5t-31.5 -3.5t-57 -3.5l-90 -5v-7l7 -257q8 -311 22 -515q1 -15 3 -32q2 -29 4 -57.5t3 -48.5q3 -44 4.5 -118.5t1.5 -136.5q0 -59 -2 -83q-5 -97 -82 -96z
" />
    <glyph glyph-name="U" unicode="U" horiz-adv-x="700" 
d="M357 0q-33 0 -64 6q-111 24 -172 130q-15 23 -24 69.5t-14 159t-7.5 333.5t-4.5 593v34q0 34 1.5 51.5t6 25t12.5 11.5t30.5 6t48.5 2q24 0 46.5 -2t34.5 -5q52 -9 58 -123q5 -69 5 -177q0 -91 -4 -190q-5 -125 -5 -279q0 -107 2.5 -175t8.5 -203q3 -40 4 -82
q2 -35 3 -56q1 -23 2 -39t2 -18t7.5 -3t15.5 -1q11 0 24 1.5t22 4.5q98 30 136 133q17 46 24 115.5t7 189.5q0 82 -3 230t-7 258l-4 202l-1 98q0 17 0.5 25t1.5 11.5t3 6.5q12 15 28 15t27 -14q2 -2 3 -8.5t1.5 -23t1.5 -47.5t2 -82q1 -50 3 -107q1 -96 3 -159
q9 -291 9 -417q0 -63 -2 -104.5t-7 -82.5q-12 -129 -62 -201q-12 -18 -33 -38t-40 -33q-18 -12 -39.5 -21.5t-41.5 -14.5t-49 -5z" />
    <glyph glyph-name="V" unicode="V" horiz-adv-x="794" 
d="M342 13q-24 0 -50 3q-74 5 -89 60q-15 41 -36 224q-12 100 -19 189.5t-17 278.5q-6 109 -11 172.5t-14 146.5l-18 175q-8 87 -14 106q-3 7 -4 11.5t-1 8.5q0 3 1 6.5t3 9.5q5 18 14 25t32 7q15 0 38 -2q37 -4 57.5 -9t35.5 -12q26 -13 39.5 -42t25.5 -100q8 -50 14.5 -91
t14 -102.5t20.5 -172.5q8 -67 17 -142.5t16 -124.5q13 -100 21.5 -166.5t16.5 -139.5q14 -132 17 -142q2 3 13 54.5t25 121.5q7 38 13.5 72.5t10.5 50.5q6 32 29.5 161.5t47.5 265.5l33 187q5 33 13 82.5t15 91.5l18 106q4 10 13 16t19 6q8 0 15 -4q7 -5 12 -14t5 -17
q0 -7 -11 -74.5t-27 -170.5q-10 -58 -26.5 -152.5t-54.5 -308.5q-16 -87 -35 -186.5t-34.5 -178t-20.5 -102.5q-30 -120 -61 -151q-36 -33 -122 -33z" />
    <glyph glyph-name="W" unicode="W" horiz-adv-x="1190" 
d="M387 2q-22 0 -49 5q-89 11 -116 87q-15 40 -28 105q-7 41 -22 168t-30 265q-8 71 -19 158.5t-19 143.5q-5 39 -13 108.5t-12 109.5q-8 114 -8 186q0 41 3 51q5 11 17 22.5t21 14.5q14 3 45 5.5t54 2.5h14q48 -4 72 -18t33 -44q10 -34 24 -143t26 -259q3 -39 12 -141
q4 -39 7 -78q11 -110 21 -237q3 -44 6 -79q8 -100 11 -140l1 -11q1 0 2 3.5t2.5 13t4.5 27t7 44.5l2 16q45 290 61 527q3 35 4.5 56t3 31.5t3 16t3.5 9.5q6 9 15 15t16 6q10 0 19.5 -6t14.5 -15q10 -14 29.5 -89t63.5 -263l10 -45q12 -53 22 -104q14 -68 24 -113
q8 -38 13 -62.5t8 -38.5t4 -19t2 -5v4q0 8 19 171q11 91 45 463q2 17 3 35q22 250 40 342q11 59 41 73q5 2 12 3.5t21 2t42 0.5q59 0 82.5 -2.5t29.5 -9.5q7 -8 10.5 -16.5t3.5 -21.5q0 -15 -4 -39q-8 -56 -22 -164.5t-26 -213.5q-43 -377 -74 -577q-2 -13 -4 -30
q-8 -55 -15 -105q-8 -54 -14.5 -83.5t-16 -43t-25.5 -21.5q-8 -5 -13 -6.5t-13 -1.5l-19 1q-34 2 -63 12.5t-46 25.5q-11 10 -22.5 40t-26.5 94.5t-39 178.5l-27 129q-6 28 -17 78t-23 103t-21 90.5t-10 39.5l-1 -6t-1 -15q-1 -8 -2 -18q-12 -133 -41.5 -342t-52.5 -328
q-11 -60 -25.5 -88t-38.5 -37q-10 -4 -31 -4z" />
    <glyph glyph-name="X" unicode="X" horiz-adv-x="717" 
d="M500 22l-13 1q-57 3 -88 77q-7 18 -25.5 77.5t-39 128.5t-33.5 115q-12 47 -14 47l-1 -1l-92 -254l-25 -67q-16 -44 -31 -79t-21 -40q-2 -2 -7 -3.5t-11 -1.5q-7 0 -11 1.5t-9 7.5q-8 7 -8 21q0 19 19 67q9 22 16 43t11 31l12 37q8 22 34 94q17 48 35 99t32 89.5t17 47.5
q4 11 7 20t3 11q0 3 -7.5 35t-19.5 76q-49 195 -75.5 307t-42.5 197q-3 17 -5 27t-3.5 15t-3 7t-4.5 3q-3 2 -7 5l-8 6q-4 5 -5.5 9.5t-1.5 14.5q0 17 6.5 27t23.5 19q44 25 107 25q16 0 24.5 -0.5t13.5 -2t10 -4.5q20 -11 38.5 -55.5t46.5 -148.5q43 -160 49 -176l3 -6
l17 44q47 128 88 233q10 26 21 53q14 36 20 55q14 35 22.5 53t16.5 23.5t19 5.5q7 0 11 -2t9 -8q10 -8 10 -22q0 -21 -25 -78l-29 -75q-2 -7 -7.5 -21.5t-12.5 -29.5q-6 -16 -13.5 -35t-12.5 -33l-27 -71q-12 -35 -23 -64q-52 -138 -52 -144q0 -1 2 -9t5 -17l23 -80
q9 -27 15 -47t14 -46t22 -70l25 -82q5 -13 12 -34q9 -29 18 -55q31 -91 53.5 -171t27.5 -116l2 -22q0 -52 -53 -67q-19 -7 -45.5 -12t-48.5 -5z" />
    <glyph glyph-name="Y" unicode="Y" horiz-adv-x="721" 
d="M353 0q-4 0 -7 2t-9 8l-11 12v431q-38 3 -64.5 8t-55.5 19q-43 20 -70 52q-27 31 -41 77.5t-20 128.5q-2 25 -3.5 61t-1.5 105.5v200.5v302l9 10q1 0 1 1q4 3 7 5t8.5 2.5t17.5 0.5q11 0 30.5 1t37.5 3q25 2 45 2q44 0 61 -11q16 -10 23 -36t7 -89l-2 -85
q-5 -163 -5 -317q0 -229 10 -337l4 -37q54 4 95.5 16.5t72.5 42.5q57 52 79 173q7 33 10 64.5t3 90.5l-1 78q-1 95 -3.5 167t-7.5 151l-1 41q0 19 2.5 26.5t9.5 12.5q8 5 18 5t18.5 -4.5t12.5 -12.5q11 -35 18 -362l1 -92q0 -98 -8 -146q-31 -207 -149 -275
q-19 -11 -44 -20.5t-43 -13.5l-16 -3q0 -4 -0.5 -6t-0.5 -3q-1 -1 -1 -2.5v-5.5t-0.5 -11.5t-0.5 -20.5l2 -70q1 -28 1.5 -99.5t0.5 -125.5v-52l-1 -44l-5 -5q-6 -7 -10.5 -9.5t-14.5 -3.5z" />
    <glyph glyph-name="Z" unicode="Z" horiz-adv-x="872" 
d="M648 0l-131 2q-22 0 -67 1t-94 2.5t-85.5 2.5t-42.5 1l-127 11q-30 3 -30 30v2q0 4 2.5 15.5t5.5 22t5 14.5q2 1 12.5 32t35.5 106q9 29 19 58t16 45q16 47 27 75q15 45 24 69q11 31 50 129q32 81 65.5 169t53.5 146l45 132q8 22 14 41q7 23 10 30q3 10 11 33.5t17 48
t14 38.5l8 22q9 26 15 44t6 20q-2 0 -30 1t-66 2t-65 1l-78 -1q-37 0 -65 1.5t-37 3.5q-20 7 -20 28q0 20 10.5 25t52.5 5q18 0 43.5 1t45.5 2l210 -1l93 7q3 0 6 1q18 1 42.5 3t45.5 3l55 4q6 -4 10 -8q8 -5 12.5 -9.5t7.5 -12.5q2 -6 2 -11q0 -3 -1 -7.5t-3 -11.5
q-8 -29 -46 -141q-13 -36 -33 -91t-41 -111l-38 -101q-4 -11 -27 -68.5t-52 -130.5q-24 -59 -44 -108t-28 -70l-45 -121q-3 -8 -11.5 -31.5t-19.5 -52.5q-11 -28 -23 -60.5t-19 -54.5l-58 -152l32.5 -1t78 -2.5t87 -2.5t61.5 -1q33 0 52.5 -0.5t29 -1.5t14 -2t7.5 -3
q17 -8 17 -31q0 -7 -1.5 -11t-5.5 -9l-7 -9z" />
    <glyph glyph-name="bracketleft" unicode="[" horiz-adv-x="706" 
d="M603 1024l-1 -3q-3 -13 -13 -24t-23 -17q-6 0 -16.5 0.5t-19.5 2.5q-26 9 -102 59.5t-118 78t-60 43.5q-28 30 -21 70l1 6q5 20 20 36q13 12 20 17t13 6.5t16 0.5l14 -1l3 -1q7 -3 22 -12.5t48 -31.5q7 -5 16 -11q29 -19 74 -54.5t53.5 -42t17.5 -13.5q2 -3 6 -5
q42 -40 48 -79q1 -8 1.5 -15t0.5 -10zM586 502l1 -1q9 -9 14 -23.5t4 -29.5q-2 -7 -7 -17t-11 -18q-19 -23 -94 -78.5t-115.5 -86.5t-61.5 -42q-37 -16 -67 7l-4 3q-14 14 -20 35q-4 18 -5.5 27t0 15.5t6.5 16.5l8 14l1 2q6 7 20 18t47 35q8 5 16 12q29 21 77.5 52
t57.5 36.5t19 11.5q3 1 7 4q51 26 85 17q7 -3 13 -5.5t9 -4.5zM429 754l1 -2q3 -13 0 -28.5t-11 -27.5q-5 -4 -14 -9.5t-18 -9.5q-26 -8 -115 -10.5t-137.5 -4t-71.5 1.5q-39 9 -52 46l-2 6q-5 20 0 42q5 18 8 26.5t7.5 13t13.5 9.5l13 8l2 1q8 2 25 3t56 1h19q34 1 89.5 -2
t65.5 -3.5t21 -1.5q3 0 7 -1q55 -8 79 -37q5 -6 8.5 -12t5.5 -9z" />
    <glyph glyph-name="backslash" unicode="\" horiz-adv-x="741" 
d="M525 -61q-11 0 -21.5 1t-15.5 2q-25 7 -40.5 30t-30.5 77q-5 18 -19 72.5t-29 121.5q-164 681 -234 930q-19 66 -29 105t-20 90l-15 76q0 14 14 23q6 3 25.5 5.5t44.5 4t44 1.5h14q21 -2 36.5 -6.5t19.5 -11.5q1 -2 3.5 -11.5t6.5 -22.5q2 -8 5 -17q5 -20 17 -62.5
t25 -86.5q48 -163 91.5 -317.5t69.5 -257.5l28 -115q17 -67 36 -144q12 -46 22 -86q0 -2 1 -3q4 -17 9.5 -40t10.5 -42q5 -20 11 -46t10 -46l22 -96q14 -56 14 -77q0 -8 -2 -12q-3 -5 -10 -9.5t-14 -5.5q-2 0 -6 -1t-7 -3q-4 -2 -16.5 -5.5t-26.5 -7.5t-24 -6z" />
    <glyph glyph-name="bracketright" unicode="]" horiz-adv-x="706" 
d="M110 1039v10t1 15q7 39 49 79q3 2 6 5q9 7 17 13.5t53 42t75 54.5q8 6 16 11q33 22 47.5 31.5t22.5 12.5l3 1l14 1q10 1 16 -0.5t13 -6.5t19 -17q15 -16 21 -36l1 -6q7 -40 -22 -70q-17 -16 -59 -43.5t-118 -78t-102 -59.5q-10 -2 -20 -2.5t-16 -0.5q-13 6 -23 17t-13 24
zM127 517q3 2 9 4.5t13 5.5q34 9 85 -17q4 -3 7 -4q9 -6 18 -11.5t58 -36.5t77 -52q9 -7 17 -12q32 -24 46.5 -35t19.5 -18l2 -2l7 -14q5 -10 7 -16.5t0.5 -15.5t-5.5 -27q-7 -21 -21 -35l-3 -3q-30 -23 -68 -7q-20 11 -61 42t-116 86.5t-93 78.5q-6 8 -11 18t-7 17
q-1 15 3.5 29.5t13.5 23.5zM284 769q1 3 5 9l8 12q25 29 80 37q4 1 7 1q11 1 21 1.5t65.5 3.5t89.5 2h19q38 0 55 -1t25 -3l3 -1l13 -8q8 -5 12.5 -9.5t8 -13t8.5 -26.5q5 -22 -1 -42l-1 -6q-14 -37 -53 -46q-22 -3 -71 -1.5t-137.5 4t-115.5 10.5q-9 4 -17.5 9.5t-13.5 9.5
q-9 12 -11.5 27.5t0.5 28.5z" />
    <glyph glyph-name="asciicircum" unicode="^" horiz-adv-x="598" 
d="M116 1230q-1 1 -4 2q-2 0 -5 1q-14 3 -25 21t-11 36v7q4 15 28 55.5t55.5 85t55.5 72.5q7 7 17 15t20 13q12 6 21.5 8t30.5 2t30.5 -1.5t22.5 -7.5q34 -15 62.5 -45.5t63.5 -86.5q45 -74 49 -109l1 -3q0 -27 -29 -44q-10 -5 -21 -5q-34 0 -90 56q-36 35 -54.5 47.5
t-35.5 12.5q-6 0 -14 -1.5t-13 -4.5t-24.5 -20.5t-43.5 -41.5q-32 -32 -47.5 -45t-22.5 -15q-9 -1 -14 -3q-2 -1 -3 -1z" />
    <glyph glyph-name="underscore" unicode="_" horiz-adv-x="892" 
d="M490 -189q-188 0 -435 16q-55 26 -55 111v14q1 15 2.5 23t5.5 14q29 18 121 24t210 6q149 0 297 -4q107 -4 170 -4q33 0 49 2q4 -2 7 -4q7 -4 11.5 -7.5t8.5 -8.5q4 -9 7 -36.5t3 -53.5l-1 -18v-3q-1 -13 -2 -20t-3 -11.5t-6 -9.5q-13 -22 -51 -26q-69 -1 -131 -2
q-105 -2 -208 -2z" />
    <glyph glyph-name="grave" unicode="`" horiz-adv-x="477" 
d="M344 1300h-8q-27 5 -74 18t-92.5 28t-65.5 25q-34 23 -34 58q0 21 13 41l16.5 19.5t11 8.5t15.5 3q2 0 3 1q6 1 11 1q8 0 24.5 -5t56.5 -20q8 -3 17 -6q34 -11 51 -17.5t26.5 -11t20.5 -9.5q2 -1 3 -2q49 -25 62 -59q3 -7 4.5 -13.5t1.5 -9.5q0 -12 -7.5 -25t-20.5 -20
q-5 -2 -15.5 -3.5t-19.5 -1.5z" />
    <glyph glyph-name="a" unicode="a" horiz-adv-x="659" 
d="M198 -40q-13 0 -26 5q-14 7 -31.5 20t-27.5 26q-34 43 -43 121q-2 15 -2 43q0 100 17 311.5t42 412.5q16 126 38 248t40 189q19 68 52 84q13 5 36 5q37 -2 74 -19q6 -4 16 -12t19 -17q37 -36 54 -110q4 -21 8 -45t8.5 -67t12.5 -122l18 -186q7 -68 21.5 -189t22.5 -185
q16 -131 27.5 -251t12.5 -183v-44q-3 -2 -4 -4q-7 -7 -12 -10.5t-14 -3.5q-10 0 -19 9q-3 3 -5 6t-3 9.5t-2 18t-3 31.5v4l-11 113q-3 19 -6.5 52t-7 67.5t-6 59t-2.5 25.5l-8 1q-12 0 -38.5 -1.5t-55 -3.5t-49 -3.5t-22.5 -2.5q-1 -2 -3 -22t-4 -49q-19 -221 -45 -276
t-69 -55zM326 429l2 1q1 1 22.5 3.5t52.5 4.5q18 2 34 3q18 2 29.5 3t13.5 2q1 0 1 5q0 7 -2 23q-12 94 -31 263.5t-30 283.5q-7 69 -12 117.5t-6 51.5q-1 1 -1 2l-0.5 0.5l-0.5 0.5v-3l-12 -87q-33 -245 -52 -519q-5 -68 -7.5 -100.5t-2.5 -44.5q0 -6 0.5 -8t1.5 -2z" />
    <glyph glyph-name="b" unicode="b" horiz-adv-x="639" 
d="M198 -20h-20q-13 0 -20 0.5t-12 2.5q-24 9 -35.5 24t-14.5 42q-2 10 -3.5 40t-3.5 66q-2 34 -4 71q-2 42 -3 67q-8 158 -10 689l-1 373q0 55 78 70q48 10 97 10h11q56 -1 103 -15q46 -14 74.5 -29t52.5 -38q76 -71 79 -164v-14q0 -80 -49 -172q-50 -97 -149 -196l-32 -32
q8 -8 15 -14q6 -4 15 -12.5l27 -25.5q24 -21 52.5 -50.5t46.5 -51.5q59 -75 74 -172q4 -32 4 -71q0 -40 -4 -75q-14 -107 -56.5 -171.5t-128.5 -108.5q-79 -38 -183 -43zM301 836q4 3 7 5.5t6 5.5q5 5 18 17q36 36 70 82t54 83q44 84 44 148q0 75 -62 132q-11 10 -20 16.5
t-21 11.5q-21 9 -46 17t-40 11l-12 2q0 -2 -0.5 -3t-0.5 -2q-1 -1 -1 -2.5t-0.5 -5t-0.5 -11v-19.5v-31v-43l4 -253zM310 65l4 1l10.5 3.5t16.5 6.5q81 38 119 101q27 49 41 148q2 18 2 40q0 25 -2 50.5t-5 40.5q-11 55 -40.5 99.5t-96.5 107.5l-57 55q-2 -92 -3.5 -154.5
t-1.5 -159.5q0 -107 2.5 -195.5t6.5 -127.5q0 -9 1 -12.5t3 -3.5z" />
    <glyph glyph-name="c" unicode="c" horiz-adv-x="709" 
d="M381 -7q-14 0 -29 2q-118 23 -195 131q-56 87 -75 245q-13 128 -13 276q0 173 17 315q16 110 52 221q72 215 202 260q20 7 40 7q52 0 93 -43q53 -61 53 -167l-2 -40q-2 -24 -7.5 -58.5t-11 -63.5t-8.5 -35q-3 -7 -10.5 -11.5t-15.5 -4.5l-5 1q-7 2 -14 9t-9 14v2
q0 7 2 24.5t5 40.5q9 65 9 114q0 64 -15 96l-5 10q-4 -6 -8 -11q-7 -10 -11.5 -18.5t-10 -22t-14.5 -38.5q-21 -61 -29.5 -147t-10.5 -268q-3 -156 -3 -271q0 -208 9 -314q6 -92 16.5 -127t36.5 -46q4 -2 6.5 -3.5t4.5 -1.5q4 0 11 3q53 18 85 86q9 18 15.5 39.5t12.5 58.5
q7 40 10.5 67.5t6.5 70.5q1 14 2 26q2 31 3 48t2 25t3 11t5 5v1q11 10 24 10q18 0 29 -20q2 -3 2.5 -7.5t0.5 -13.5l-3 -69q-3 -62 -7.5 -99t-13.5 -81q-7 -35 -12.5 -54t-18.5 -45q-21 -46 -47 -73.5t-66 -45.5q-45 -20 -88 -20z" />
    <glyph glyph-name="d" unicode="d" horiz-adv-x="762" 
d="M257 0h-36.5t-18.5 1q-63 13 -82 63q-6 14 -9 43.5t-5 92.5q-1 34 -2.5 79.5t-2.5 80.5q-2 52 -4 98q-1 18 -1 30q-7 114 -11 401q-1 76 -2.5 144.5t-2.5 97.5q-2 29 -3.5 71t-1.5 77q-2 36 -3.5 62.5t-1.5 32.5l-1 9q0 7 2.5 12t8.5 11q13 17 46 17q9 0 15.5 -1t20 -5
t42.5 -13q121 -39 211 -116q101 -84 163 -208q84 -172 109 -369q2 -21 3.5 -56t1.5 -72q0 -55 -3 -91q-23 -195 -107 -319q-33 -45 -91.5 -89.5t-111.5 -63.5q-31 -10 -58 -14.5t-64 -5.5zM358 81q1 0 6.5 2t12.5 5q26 12 57.5 34t59.5 47q85 87 121 264q14 78 14 161
q0 92 -18 185q-49 236 -158 379q-26 31 -60.5 63t-67.5 55l-16 11q0 -2 -0.5 -3.5t-0.5 -2v-0.5v-0.5v-1t-0.5 -2t-0.5 -4.5v-6.5v-9.5l3 -79q2 -65 2 -217v-118q0 -132 0.5 -202t3 -126t7.5 -139q8 -131 18 -213t17 -82z" />
    <glyph glyph-name="e" unicode="e" horiz-adv-x="621" 
d="M233 3q-34 0 -51 3q-70 10 -92 89q-2 7 -3.5 15t-2 25t-1.5 49.5t-1 88.5q-1 68 -2.5 134t-2.5 99q-4 102 -6 169.5t-2 156.5l2 235l4 326q-1 16 4.5 23.5t25.5 10.5t64 5q31 2 78.5 3.5t87.5 1.5h51t29.5 -0.5t15.5 -1.5t8 -3t7 -5.5t7 -5.5q4 -8 4 -18t-5 -18
q-4 -5 -8 -8t-13.5 -4.5t-28.5 -1.5l-95 2q-11 0 -16.5 -0.5t-8 -1.5t-2.5 -2l-1 -5q0 -19 6 -90q5 -80 5 -196q0 -83 2 -215.5t5 -202.5l2 -48q40 3 61.5 4.5t32.5 1.5q8 0 11.5 -1t7.5 -3q16 -11 16 -28q0 -7 -3 -14q-4 -8 -8.5 -12t-14.5 -6t-28 -4q-15 -2 -31 -3t-23 -1
h-19q1 -15 1.5 -25.5t1.5 -27.5t2 -51q1 -12 2 -26q2 -34 5 -87.5t6 -102.5l2 -36q2 -36 4 -62.5t2 -32.5q0 -7 1 -12.5t2 -6.5h3q11 0 45.5 3.5t79.5 9.5q24 3 36.5 5t19.5 2q4 0 7 -1t7 -2q22 -13 22 -32q0 -16 -15 -26q-10 -4 -59.5 -11.5t-113.5 -13.5q-74 -7 -129 -7z
" />
    <glyph glyph-name="f" unicode="f" horiz-adv-x="567" 
d="M213 0h-68q-14 4 -24 20q-3 4 -4 9t-1 12v10q0 8 -1 29t-4 44q-5 47 -13 154t-14 206q-3 49 -5.5 158.5t-7.5 363.5q-1 81 -1 152q0 164 7 218q4 25 26 37l12 8h123q103 -1 147 -3t56 -9q25 -12 25 -35q0 -5 -2 -10q-5 -21 -28 -21h-3q-87 8 -110 8l-18 -1q0 -8 1 -16
q0 -54 1 -97t4 -121l7 -195q2 -43 4 -97.5t2 -95.5l4 -94h19q15 1 32 2t41 6q32 5 45 5q7 0 10.5 -1t6.5 -3q15 -11 15 -27q0 -19 -22 -34q-9 -5 -43.5 -10t-67.5 -7l-33 -2q7 -257 16 -405q5 -61 5 -86q0 -13 -1.5 -20.5t-4.5 -13.5q-8 -21 -35.5 -29t-97.5 -9z" />
    <glyph glyph-name="g" unicode="g" horiz-adv-x="764" 
d="M375 -1q-24 0 -41 3q-31 7 -66.5 27.5t-62.5 46.5q-55 53 -93 166q-43 141 -43 333q0 136 22 278q34 203 96 342q73 164 179 216q21 11 37.5 15t37.5 4h9q17 -1 27 -3t22 -7q80 -35 109 -128q8 -24 11 -44t3 -50l1 -22q0 -32 -7.5 -44.5t-24.5 -12.5q-6 0 -10.5 1.5
t-8.5 5.5q-3 3 -4.5 5.5t-2.5 8t-2 15.5t-2 27q-4 75 -24 111q-4 9 -12 20t-15.5 19.5t-10.5 8.5h-1q-6 -4 -23 -51.5t-36 -113t-32 -124.5q-24 -115 -38.5 -287t-14.5 -342q0 -76 2 -121.5t8 -97.5q3 -19 8 -51t10.5 -58.5t6.5 -29.5h1q3 0 11 1t18 4q29 6 46 15
q130 70 156 291q3 30 3 69q0 48 -5 85q-2 15 -6.5 37t-9 39.5t-6.5 19.5q-5 2 -33 2q-39 0 -95 -4l-66 -4q-2 1 -6 3.5t-8 6.5q-5 5 -6.5 9.5t-1.5 13.5t1.5 13.5t4.5 8.5q5 5 12 8t23 5t47 4q44 4 84 4q55 0 76 -6q15 -5 24.5 -24t21.5 -66q17 -70 17 -150q0 -112 -33 -220
q-8 -23 -23 -53t-29 -52q-65 -92 -163 -119q-33 -7 -69 -7z" />
    <glyph glyph-name="h" unicode="h" horiz-adv-x="649" 
d="M162 5q-20 0 -28 4q-24 11 -33 40q-16 54 -16 354q0 160 -3 361t-6 326q-4 84 -6 150v32l-1 31q0 36 2.5 63.5t6.5 35.5q5 16 33 22t92 6q37 0 52.5 -1t26.5 -4q32 -8 44 -29.5t16 -78.5q0 -13 1 -106.5t1 -217.5q0 -128 1 -230.5t2 -131.5l2 -63q9 1 15.5 1.5t17.5 1.5
l33 3q10 1 24 2l56 6q0 172 2.5 362.5t7.5 326t11 152.5q3 8 12.5 14.5t17.5 6.5q18 0 29 -19q1 -3 2 -7.5t1 -14.5l-2 -64q-9 -191 -11.5 -378t-2.5 -447v-125q0 -145 -2 -219t-5 -115q-2 -47 -33 -47q-18 0 -24 12q-3 2 -3 57v190q0 216 -2 241l-44 -1l-99 -7
q-1 -49 -1 -92q-1 -306 -13 -342q-4 -12 -13 -23.5t-19 -17.5q-24 -11 -93 -17q-31 -3 -49 -3z" />
    <glyph glyph-name="i" unicode="i" horiz-adv-x="375" 
d="M205 -7l-15 1q-60 10 -84 36q-16 17 -22.5 47.5t-10.5 97.5q-1 38 -1.5 198t-0.5 347q0 188 0.5 343t1.5 183q5 71 12 121t14 60q21 19 89 19l33 -1q37 -3 52 -9t23 -21q5 -6 7 -11t2 -14v-30q0 -17 -1 -50.5t-3 -65.5q-2 -39 -2.5 -157.5t-0.5 -261.5q0 -142 0.5 -271.5
t2.5 -189.5q2 -74 3 -161q1 -30 1 -54v-61t-0.5 -33t-2 -16t-4.5 -9q-8 -21 -22 -28.5t-47 -7.5z" />
    <glyph glyph-name="j" unicode="j" horiz-adv-x="651" 
d="M265 -4q-19 0 -32 4q-36 10 -71 44q-37 36 -56 85t-27 133q-3 34 -6 120.5t-3 152.5v45q3 3 5 6q6 7 12 11.5t16 4.5q8 0 16 -5q6 -3 9.5 -7.5t5 -16t2.5 -37t2 -70.5q1 -11 1 -23q2 -100 5.5 -151.5t11.5 -89.5q13 -62 43.5 -99.5t67.5 -37.5q11 0 17 1.5t12 6.5
q24 15 33 48.5t9 127.5l-1 76q-7 672 -7 826q0 48 1 90.5t2 58.5l1 22q0 8 -1 12.5t-3 8.5q-5 11 -5 21t5 20q7 16 27.5 23t72.5 12q25 2 43 2q61 0 77 -26q6 -7 9.5 -20t6 -41t4.5 -82q10 -253 10 -455q0 -239 -16 -402t-51 -237q-20 -40 -50 -74t-60 -50q-53 -28 -86 -33
q-32 -5 -52 -5z" />
    <glyph glyph-name="k" unicode="k" 
d="M155 -10q-3 0 -5.5 1t-5.5 2q-1 0 -3 1q-7 3 -11.5 6.5t-8.5 11t-11 22.5q-9 21 -14.5 48t-8.5 74t-6 130q0 40 -2 108t-5 133q-1 65 -2 131.5t-1 170.5v163q1 162 2.5 250t3 123.5t4.5 39.5q3 6 11 11t13 5q2 0 5.5 2t6.5 5q4 3 9 4.5t16.5 2.5t32.5 2l39 2
q10 0 15.5 -1t10.5 -3q34 -14 47 -56q3 -7 4 -15t1.5 -26t0.5 -55.5v-103.5q1 -220 9 -420l2 -43l254 535q24 51 41.5 87t19.5 41q13 17 31 17q8 0 16 -4q7 -4 12 -14t5 -18q0 -3 -6 -18t-16 -34q-9 -19 -28 -58t-38 -80q-151 -326 -214 -446l-42 -86q43 -20 72 -59t46 -120
q5 -24 13 -87t14 -130l10 -89q8 -56 41 -56q8 0 18 3q11 3 21 16.5t15 31.5q8 30 8 100q0 40 -3 89l-2 50q0 10 1.5 14.5t3.5 9.5q13 22 31 22q15 0 25 -18q6 -13 8.5 -62t2.5 -102q0 -64 -5 -98q-18 -95 -78 -121q-9 -4 -18.5 -5.5t-28.5 -1.5q-13 0 -20.5 0.5t-12.5 2
t-11 4.5q-42 24 -58 87q-2 9 -5.5 36.5t-7.5 61.5q-14 141 -24 203.5t-24 91.5q-9 23 -19.5 35.5t-24.5 20.5l-17 9l-1 -18q0 -31 4 -134q4 -104 4 -191q0 -126 -7 -167q-7 -30 -25 -43q-9 -7 -40.5 -16t-62.5 -14z" />
    <glyph glyph-name="l" unicode="l" horiz-adv-x="673" 
d="M411 -18q-71 0 -132.5 9t-100.5 35q-61 43 -84 128t-24 212l1 992l-1 29q0 17 6.5 29.5t27.5 20.5q27 0 54 2q25 2 47 2q42 0 69 -15t27 -67l-11 -1203q4 -40 24 -60.5t53.5 -27t76.5 -6.5q27 0 57 1q32 1 66 1h35q16 0 23.5 -11t7.5 -25t-8.5 -26.5t-25.5 -12.5
q-15 -1 -31 -2q-79 -5 -157 -5z" />
    <glyph glyph-name="m" unicode="m" horiz-adv-x="1043" 
d="M267 -7l-102 2q-23 0 -36 0.5t-20 1t-9.5 2t-4.5 3.5q-14 15 -19.5 128t-5.5 302v136q1 100 3 210t3 180l6 289q1 38 1.5 63t1 39.5t1 22t1.5 11t2 6.5q4 5 7 9t6 6q5 2 23.5 3.5t41 2.5t39.5 1h14q3 0 5 -1q6 -1 11.5 -2.5t8.5 -3.5q11 -6 20.5 -17t13.5 -23
q7 -18 21.5 -74.5t29.5 -126.5l36 -165q9 -38 18 -78t13 -65q17 -75 38 -157.5t33 -119.5q5 -13 10.5 -28t10 -25.5t5.5 -12.5h2q13 0 77 224q25 82 41 143t33 139l51 213q18 82 35 112t53 45q23 11 54 19.5t46 8.5q12 0 25.5 -5t21.5 -13q7 -6 13.5 -21t9.5 -31
q8 -43 8 -146q0 -104 -8 -240q-9 -165 -9 -327v-100q1 -104 3.5 -208t5.5 -176.5t7 -84.5q4 -7 4 -13q0 -21 -33 -31q-7 -2 -26.5 -3t-42.5 -1q-31 0 -58.5 1.5t-35.5 4.5q-26 10 -37 48q-11 34 -15 204.5t-8 539.5q0 13 -1 27l-2 158q-2 -10 -4 -18q-4 -14 -7 -27t-7 -31
q-22 -91 -76 -273q-13 -45 -28.5 -90.5t-22.5 -59.5q-33 -62 -70 -62q-15 0 -31 12q-31 25 -73 172q-10 40 -26.5 105t-24.5 101l-6 29v-9q-1 -4 -1.5 -10t-1 -19t-1 -36t-1.5 -60q0 -42 -1 -92.5t-3 -82.5q0 -13 -0.5 -48t-0.5 -81q-1 -66 -2 -131.5t-2 -103.5
q0 -60 -1 -94t-2 -50t-4 -22.5t-9 -11.5q-6 -8 -13 -10.5t-22 -2.5z" />
    <glyph glyph-name="n" unicode="n" horiz-adv-x="762" 
d="M230 5h-18q-15 0 -31.5 1t-27.5 3q-61 10 -76 49q0 2 -1 10.5t-1.5 30.5t-0.5 63t-0.5 107t-0.5 163v231q0 22 -1 44q0 264 -0.5 452.5t-1.5 201.5v8q0 30 30 32q4 0 16 2t24 5l28 4t22 2h10q7 0 12 -1.5t10 -5.5q15 -8 26.5 -29.5t26.5 -69t37 -133.5l59 -219
q6 -22 10 -35q2 -6 2 -8l17 -61q17 -59 52 -178t67 -226.5t39 -131.5l31 -93q4 -8 6 -13.5l2 -5.5q1 0 2 11.5t1 27.5l7 132q10 169 14.5 340t5.5 409q1 19 1 36q0 63 0.5 103t1.5 62.5t2.5 33t4.5 14t8 5.5l1 1q8 4 15 4t14 -5q2 -1 3 -1q4 -3 7 -7t4.5 -14.5t2 -32.5
t0.5 -62l-1 -153q-2 -448 -19 -722l-9 -170q-3 -61 -5.5 -97t-5.5 -54.5t-8 -25.5t-13 -11l-10 -4t-8 -2q-6 0 -14.5 6t-13.5 13q-4 9 -21 56.5t-42 119.5l-13 39q-13 38 -62 203l-67 228l-67 236q-16 61 -28 103q-8 29 -10 36q-3 13 -4 13l1 -93q2 -32 4 -94.5t3 -125.5
l6 -198q2 -32 4 -84q1 -26 2 -48q1 -35 3 -87t4 -98q4 -76 4 -123q0 -66 -7 -79q-9 -25 -33 -35q-6 -3 -13 -4t-19 -1z" />
    <glyph glyph-name="o" unicode="o" 
d="M325 -1q-15 0 -25 2q-15 3 -33.5 12.5t-31.5 18.5q-48 38 -87 135q-77 187 -77 453v32q2 199 56 414q28 114 68 197q6 10 9.5 18t4.5 11q3 6 16 26.5t27 40.5t20 26q22 20 58 33t68 13h6q11 0 18 -2q82 -15 145 -92q54 -60 85 -182q30 -111 30 -260q0 -161 -34 -368
q-39 -252 -107 -376q-61 -118 -150 -144q-12 -4 -30.5 -6t-35.5 -2zM362 69l5 1q4 1 10.5 3t11.5 4q65 24 118 140q65 139 102 453q8 60 11 100t3 93l1 40q0 116 -18 193q-9 46 -25 90t-32 72q-15 25 -41 50.5t-46 35.5q-5 3 -8 3q-5 -1 -10.5 -7t-15.5 -20
q-42 -70 -79 -205.5t-53 -282.5q-9 -80 -12 -134.5t-3 -134.5q1 -196 28 -355q9 -50 17.5 -77t22.5 -49q5 -7 7 -10t6 -3z" />
    <glyph glyph-name="p" unicode="p" horiz-adv-x="725" 
d="M176 -16l-16 1q-4 1 -11.5 3.5t-15.5 6.5q-10 5 -15.5 9.5t-10.5 13.5q-4 6 -7 14.5t-5 15.5q-3 22 -8.5 63.5t-8.5 70.5q-3 51 -5 258t-2 424q0 156 1 276t3 149q4 31 4 61l-1 23q0 9 6 23t12 20q7 5 16 6q9 0 18 -4q3 -1 8.5 -2t18 -2t36.5 -3t64 -5h3q139 -11 237 -71
q136 -84 155 -276q3 -23 3 -56q0 -63 -8 -124q-21 -138 -92 -240q-59 -88 -134 -138q-19 -14 -35 -23.5t-37 -18.5l-24 -11q0 -32 -1.5 -100t-3 -133.5t-3.5 -98.5q-3 -61 -18 -87t-55 -37q-11 -4 -31 -6t-37 -2zM330 523q1 0 8 3.5t16 8.5q139 85 201 251q32 82 32 208
q0 47 -3 72t-13 59q-24 98 -103 150q-26 17 -66 34t-69 24h-2.5t-2.5 1q-3 0 -3 -2l1 -5q1 -4 3 -29t3 -60q3 -56 3 -134q0 -103 -5 -236q-1 -35 -1.5 -92t-0.5 -113q0 -57 0.5 -98.5t1.5 -41.5z" />
    <glyph glyph-name="q" unicode="q" horiz-adv-x="845" 
d="M662 -221q-16 0 -33 4q-58 15 -91 66q-33 56 -36 186q-28 -17 -61 -25q-13 -4 -34.5 -6t-41.5 -2q-18 0 -30 2q-16 3 -38 12t-37 18q-55 38 -101 134q-90 184 -90 444v34q3 196 65 409q33 112 80 193l16 29q3 6 18 26t31.5 40t22.5 26q25 20 67.5 32.5t79.5 12.5h7
q12 0 21 -2q95 -16 169 -90q63 -61 98 -180q35 -110 35 -258q0 -158 -39 -362q-46 -248 -124 -370q-22 -34 -46 -61v-47q1 -49 2.5 -70.5t4.5 -35.5q11 -48 31 -69q9 -10 18 -14.5t22 -6.5q7 -1 14 -1q36 0 57 44q9 17 13.5 40t5.5 60q2 44 5 52q10 15 27 15q14 0 25 -10
q5 -4 7 -7.5t2.5 -10t0.5 -21.5l1 -11q0 -25 -3 -51t-8 -44q-5 -21 -17.5 -45t-26.5 -39q-36 -40 -89 -40zM572 211q3 3 4 6q75 136 119 447q8 60 11.5 99t3.5 91l1 39q0 115 -21 191q-10 45 -28 88.5t-38 71.5q-18 25 -47.5 50t-53.5 35q-4 2 -9 2q-6 0 -12.5 -6.5
t-17.5 -20.5q-49 -70 -91.5 -203t-62.5 -278q-9 -79 -12.5 -132.5t-3.5 -132.5q0 -97 7 -181q31 11 72 20t64 9q44 0 68 -20q26 -20 37 -53.5t11 -99.5zM407 71l6 1q5 1 12.5 3t13.5 4q35 12 64 39v9q3 70 3 110q0 36 -2.5 53.5t-9.5 28.5q-12 23 -39 23q-11 0 -45 -6.5
t-59 -13.5q-12 -3 -23 -5q7 -55 18 -109q10 -49 20 -75.5t26 -48.5l2 -2q4 -6 6.5 -8.5t6.5 -2.5z" />
    <glyph glyph-name="r" unicode="r" horiz-adv-x="766" 
d="M238 0h-19q-27 0 -38 3q-15 4 -25 9t-19 12q-13 11 -20 32t-13 63q-10 71 -18.5 258.5t-14.5 434.5q-1 95 -1 213q0 131 1.5 244t4.5 126q8 16 28 16h15l19 1q6 1 20.5 2.5t32.5 3.5h3h6q14 2 25 2q21 0 33 -2.5t21 -9.5q5 -3 10.5 -5t9.5 -2q8 0 28 -2.5t39.5 -6.5
t29.5 -7q31 -11 70 -33.5t67 -45.5q27 -24 57.5 -64t48.5 -73q15 -31 29 -67.5t22 -68.5q16 -64 16 -134q0 -74 -18 -146q-11 -45 -31.5 -88.5t-43.5 -73.5q-39 -51 -84 -81q-25 -17 -58 -30.5t-59 -19.5q-3 -1 -6 -1q-6 -1 -9 -2t-3 -3q0 -3 7 -13q2 -3 3 -5q24 -34 38 -84
q6 -21 13 -57.5t9 -61.5q12 -116 30 -133q7 -7 10.5 -9t11.5 -2q13 0 21.5 7t17.5 25q10 18 13.5 41.5t4.5 76.5l2 62l8 8q4 6 8.5 8t15.5 2q38 0 35 -67l-2 -44q-2 -40 -6 -62.5t-12 -40.5q-13 -35 -37 -57q-11 -11 -20.5 -16t-23.5 -8q-12 -3 -24 -3q-70 0 -100 83
q-5 19 -9 39t-9 65q-14 123 -38 173q-16 37 -35 43q-8 4 -12 4q-5 0 -6 -7.5t-1 -27.5q0 -46 5 -130.5t11 -140.5q4 -34 4 -54q0 -26 -7 -38q-4 -9 -8.5 -13t-14.5 -9q-7 -3 -12.5 -5t-15.5 -2.5t-31 -0.5zM304 516h4q23 2 39 3.5t36 4.5q195 38 246 273q11 57 11 105
q0 27 -4 54q-34 221 -187 327q-63 45 -132 53l-11 2z" />
    <glyph glyph-name="s" unicode="s" horiz-adv-x="649" 
d="M306 5q-22 0 -34 1q-16 3 -32.5 9t-42.5 18q-38 19 -58.5 39t-35.5 52q-19 45 -19 86q0 74 61 122q11 7 16.5 9.5t12.5 2.5q23 0 30 -16q5 -8 5 -15q0 -16 -26 -36q-29 -22 -32 -57v-9q0 -24 10.5 -52.5t24.5 -42.5q7 -6 22 -14.5t31.5 -16.5t26.5 -11t26.5 -4t33.5 -1
q12 0 21.5 0.5t11.5 2.5q5 4 10.5 19t7.5 31l2 22l-2 31q-4 59 -15.5 104t-36.5 99q-7 16 -21.5 45.5t-30 58.5t-25.5 44q-16 26 -41.5 75t-49 97t-32.5 72l-14 36q-41 123 -41 232q0 25 2 47q23 153 116 263q71 79 150 79l22 -2q39 -6 77.5 -31t60.5 -57q19 -28 27 -56
t9 -65l1 -18q0 -67 -26 -136q-8 -23 -26 -58.5t-32 -55.5q-22 -31 -42 -31q-10 0 -20 9q-9 9 -9 19q0 12 13 27q10 11 25.5 42t23.5 56q15 39 20 68.5t5 63.5q0 19 -0.5 29t-2 17t-5.5 17q-17 51 -66 80q-16 10 -29 13.5t-29 3.5q-39 0 -72 -34q-24 -23 -34.5 -50.5
t-10.5 -70.5q0 -102 70 -236q22 -40 57 -101t63 -107q115 -184 149 -322q22 -85 22 -155q0 -93 -40 -163q-12 -22 -21 -34.5t-24 -25.5q-44 -40 -108 -54q-11 -2 -34.5 -3t-45.5 -1z" />
    <glyph glyph-name="t" unicode="t" horiz-adv-x="780" 
d="M463 0h-36q-4 1 -12.5 4t-16.5 7q-30 13 -47 46t-25.5 107t-12.5 210l-5 151q-5 110 -8.5 314.5t-3.5 361.5v115l1 21q-9 0 -17 -1q-18 0 -40.5 -1t-67.5 -5q-22 -3 -41 -4t-29 -1h-6q-13 2 -20 10t-7 18q0 14 13 26q4 3 17 5.5t41 6.5q114 15 213 22q55 3 126 6.5
t130.5 6t72.5 2.5h2q4 -1 8.5 -3.5t7.5 -6.5q5 -5 6.5 -9.5t1.5 -12.5q0 -6 -1 -11.5t-3 -8.5q-3 -5 -8 -8t-15.5 -5t-31.5 -3.5t-57 -3.5l-90 -5v-7l7 -257q8 -311 22 -515q1 -15 3 -32q2 -29 4 -57.5t3 -48.5q3 -44 4.5 -118.5t1.5 -136.5q0 -59 -2 -83q-5 -97 -82 -96z
" />
    <glyph glyph-name="u" unicode="u" horiz-adv-x="700" 
d="M357 0q-33 0 -64 6q-111 24 -172 130q-15 23 -24 69.5t-14 159t-7.5 333.5t-4.5 593v34q0 34 1.5 51.5t6 25t12.5 11.5t30.5 6t48.5 2q24 0 46.5 -2t34.5 -5q52 -9 58 -123q5 -69 5 -177q0 -91 -4 -190q-5 -125 -5 -279q0 -107 2.5 -175t8.5 -203q3 -40 4 -82
q2 -35 3 -56q1 -23 2 -39t2 -18t7.5 -3t15.5 -1q11 0 24 1.5t22 4.5q98 30 136 133q17 46 24 115.5t7 189.5q0 82 -3 230t-7 258l-4 202l-1 98q0 17 0.5 25t1.5 11.5t3 6.5q12 15 28 15t27 -14q2 -2 3 -8.5t1.5 -23t1.5 -47.5t2 -82q1 -50 3 -107q1 -96 3 -159
q9 -291 9 -417q0 -63 -2 -104.5t-7 -82.5q-12 -129 -62 -201q-12 -18 -33 -38t-40 -33q-18 -12 -39.5 -21.5t-41.5 -14.5t-49 -5z" />
    <glyph glyph-name="v" unicode="v" horiz-adv-x="794" 
d="M342 13q-24 0 -50 3q-74 5 -89 60q-15 41 -36 224q-12 100 -19 189.5t-17 278.5q-6 109 -11 172.5t-14 146.5l-18 175q-8 87 -14 106q-3 7 -4 11.5t-1 8.5q0 3 1 6.5t3 9.5q5 18 14 25t32 7q15 0 38 -2q37 -4 57.5 -9t35.5 -12q26 -13 39.5 -42t25.5 -100q8 -50 14.5 -91
t14 -102.5t20.5 -172.5q8 -67 17 -142.5t16 -124.5q13 -100 21.5 -166.5t16.5 -139.5q14 -132 17 -142q2 3 13 54.5t25 121.5q7 38 13.5 72.5t10.5 50.5q6 32 29.5 161.5t47.5 265.5l33 187q5 33 13 82.5t15 91.5l18 106q4 10 13 16t19 6q8 0 15 -4q7 -5 12 -14t5 -17
q0 -7 -11 -74.5t-27 -170.5q-10 -58 -26.5 -152.5t-54.5 -308.5q-16 -87 -35 -186.5t-34.5 -178t-20.5 -102.5q-30 -120 -61 -151q-36 -33 -122 -33z" />
    <glyph glyph-name="w" unicode="w" horiz-adv-x="1190" 
d="M387 2q-22 0 -49 5q-89 11 -116 87q-15 40 -28 105q-7 41 -22 168t-30 265q-8 71 -19 158.5t-19 143.5q-5 39 -13 108.5t-12 109.5q-8 114 -8 186q0 41 3 51q5 11 17 22.5t21 14.5q14 3 45 5.5t54 2.5h14q48 -4 72 -18t33 -44q10 -34 24 -143t26 -259q3 -39 12 -141
q4 -39 7 -78q11 -110 21 -237q3 -44 6 -79q8 -100 11 -140l1 -11q1 0 2 3.5t2.5 13t4.5 27t7 44.5l2 16q45 290 61 527q3 35 4.5 56t3 31.5t3 16t3.5 9.5q6 9 15 15t16 6q10 0 19.5 -6t14.5 -15q10 -14 29.5 -89t63.5 -263l10 -45q12 -53 22 -104q14 -68 24 -113
q8 -38 13 -62.5t8 -38.5t4 -19t2 -5v4q0 8 19 171q11 91 45 463q2 17 3 35q22 250 40 342q11 59 41 73q5 2 12 3.5t21 2t42 0.5q59 0 82.5 -2.5t29.5 -9.5q7 -8 10.5 -16.5t3.5 -21.5q0 -15 -4 -39q-8 -56 -22 -164.5t-26 -213.5q-43 -377 -74 -577q-2 -13 -4 -30
q-8 -55 -15 -105q-8 -54 -14.5 -83.5t-16 -43t-25.5 -21.5q-8 -5 -13 -6.5t-13 -1.5l-19 1q-34 2 -63 12.5t-46 25.5q-11 10 -22.5 40t-26.5 94.5t-39 178.5l-27 129q-6 28 -17 78t-23 103t-21 90.5t-10 39.5l-1 -6t-1 -15q-1 -8 -2 -18q-12 -133 -41.5 -342t-52.5 -328
q-11 -60 -25.5 -88t-38.5 -37q-10 -4 -31 -4z" />
    <glyph glyph-name="x" unicode="x" horiz-adv-x="717" 
d="M500 22l-13 1q-57 3 -88 77q-7 18 -25.5 77.5t-39 128.5t-33.5 115q-12 47 -14 47l-1 -1l-92 -254l-25 -67q-16 -44 -31 -79t-21 -40q-2 -2 -7 -3.5t-11 -1.5q-7 0 -11 1.5t-9 7.5q-8 7 -8 21q0 19 19 67q9 22 16 43t11 31l12 37q8 22 34 94q17 48 35 99t32 89.5t17 47.5
q4 11 7 20t3 11q0 3 -7.5 35t-19.5 76q-49 195 -75.5 307t-42.5 197q-3 17 -5 27t-3.5 15t-3 7t-4.5 3q-3 2 -7 5l-8 6q-4 5 -5.5 9.5t-1.5 14.5q0 17 6.5 27t23.5 19q44 25 107 25q16 0 24.5 -0.5t13.5 -2t10 -4.5q20 -11 38.5 -55.5t46.5 -148.5q43 -160 49 -176l3 -6
l17 44q47 128 88 233q10 26 21 53q14 36 20 55q14 35 22.5 53t16.5 23.5t19 5.5q7 0 11 -2t9 -8q10 -8 10 -22q0 -21 -25 -78l-29 -75q-2 -7 -7.5 -21.5t-12.5 -29.5q-6 -16 -13.5 -35t-12.5 -33l-27 -71q-12 -35 -23 -64q-52 -138 -52 -144q0 -1 2 -9t5 -17l23 -80
q9 -27 15 -47t14 -46t22 -70l25 -82q5 -13 12 -34q9 -29 18 -55q31 -91 53.5 -171t27.5 -116l2 -22q0 -52 -53 -67q-19 -7 -45.5 -12t-48.5 -5z" />
    <glyph glyph-name="y" unicode="y" horiz-adv-x="721" 
d="M353 0q-4 0 -7 2t-9 8l-11 12v431q-38 3 -64.5 8t-55.5 19q-43 20 -70 52q-27 31 -41 77.5t-20 128.5q-2 25 -3.5 61t-1.5 105.5v200.5v302l9 10q1 0 1 1q4 3 7 5t8.5 2.5t17.5 0.5q11 0 30.5 1t37.5 3q25 2 45 2q44 0 61 -11q16 -10 23 -36t7 -89l-2 -85
q-5 -163 -5 -317q0 -229 10 -337l4 -37q54 4 95.5 16.5t72.5 42.5q57 52 79 173q7 33 10 64.5t3 90.5l-1 78q-1 95 -3.5 167t-7.5 151l-1 41q0 19 2.5 26.5t9.5 12.5q8 5 18 5t18.5 -4.5t12.5 -12.5q11 -35 18 -362l1 -92q0 -98 -8 -146q-31 -207 -149 -275
q-19 -11 -44 -20.5t-43 -13.5l-16 -3q0 -4 -0.5 -6t-0.5 -3q-1 -1 -1 -2.5v-5.5t-0.5 -11.5t-0.5 -20.5l2 -70q1 -28 1.5 -99.5t0.5 -125.5v-52l-1 -44l-5 -5q-6 -7 -10.5 -9.5t-14.5 -3.5z" />
    <glyph glyph-name="z" unicode="z" horiz-adv-x="741" 
d="M597 27l-117 -4q-20 -1 -60 -2t-84 -2t-76.5 -2t-37.5 -1l-114 5q-27 2 -29 28v2q0 4 1.5 15t3.5 22t4 14q1 1 8.5 32t25.5 106q7 28 14 57t11 45q12 46 19 75q11 44 18 68q8 31 36 129q24 80 49 167.5t39 145.5l32 131q5 22 9 40q6 24 8 31q2 10 8 33t12 47.5t10 38.5
l6 22q6 25 10.5 42.5t4.5 20.5h-27t-58.5 -1t-58.5 -2l-69 -5q-34 -1 -59 -1t-33 1q-17 5 -19 27q-3 19 7.5 25t46.5 7q17 1 39.5 3t39.5 4l188 9l82 11q3 0 5 1q16 2 37.5 5t41.5 5l48 7q6 -4 10 -7q7 -5 11.5 -9.5t7.5 -11.5q2 -6 2 -10q1 -3 0 -7.5t-2 -12.5
q-5 -29 -33 -140q-9 -35 -23.5 -90t-29.5 -111l-28 -100q-3 -11 -20 -68.5t-39 -129.5q-18 -59 -32.5 -108t-20.5 -70l-33 -120q-2 -8 -8 -31.5t-14 -52.5q-8 -28 -17 -60.5t-14 -53.5l-42 -151q1 -1 29.5 -0.5t69 1.5t77.5 2t55 2q30 1 47 1.5t25.5 0t12.5 -1t7 -2.5
q17 -9 17 -30q1 -6 -0.5 -10t-4.5 -10l-5 -9z" />
    <glyph glyph-name="braceleft" unicode="{" horiz-adv-x="604" 
d="M357 -130q-22 0 -42 4q-75 16 -114 96q-5 10 -8 20t-4.5 25t-1.5 43l4 260l-1 62q-7 245 -99 320q-11 9 -16 17t-5 18v7q1 11 9 19.5t32 22.5q79 45 98 90q14 27 20 60t6 92l-2 81q-2 65 -2 115q0 120 14 177q3 8 8 21.5t11 26.5q9 18 16 27.5t20 23.5q50 49 124 54h10
q29 0 55.5 -7t37.5 -18q5 -4 6.5 -8.5t1.5 -11.5q0 -28 -26 -28q-10 0 -25 4q-17 5 -25 5q-6 0 -9.5 -4t-8.5 -13q-3 -7 -6.5 -18t-5.5 -20q-3 -24 -3 -86q0 -81 5 -183q2 -36 4 -82t2 -81l1 -44q0 -44 -4 -68.5t-14 -53.5q-9 -28 -20.5 -47t-32.5 -38q-13 -15 -23 -22
t-30 -16l-31 -15q53 -45 74 -175q14 -86 14 -189q0 -40 -2 -79q-1 -26 -2.5 -73t-2.5 -94v-72q0 -18 0.5 -27t1.5 -14l2 -10q3 -6 4.5 -12t1.5 -8q0 -4 4 -5q4 0 18 7q13 6 24 6q13 0 22 -10q6 -5 7 -9.5t1 -12.5t-1 -12.5t-6 -8.5q-5 -6 -19 -13t-30 -12q-15 -4 -37 -4z
" />
    <glyph glyph-name="bar" unicode="|" horiz-adv-x="414" 
d="M172 -30q-18 0 -27 2t-15 6q-20 9 -30.5 43t-14.5 123t-6 262q-1 77 -2 168q-2 133 -4 225q-1 75 -2 180t-1 183v192q2 3 3 6q9 19 19 26q7 5 28 9t47.5 6.5t45.5 2.5q17 0 25 -0.5t13.5 -3t12.5 -6.5q25 -15 31 -60q1 -10 2 -70t2 -143q2 -261 15 -646q7 -195 7 -295
q0 -114 -10 -135q-31 -75 -139 -75z" />
    <glyph glyph-name="braceright" unicode="}" horiz-adv-x="604" 
d="M248 -130q-22 0 -37 4q-15 5 -29 12t-21 13q-4 4 -5.5 8.5t-1.5 12.5t2 12.5t7 9.5q10 10 23 10q10 0 23 -6q14 -7 18 -7q2 0 2.5 1.5t0.5 3.5t2 8l4 12q2 5 3.5 10t1.5 15v29v69l-2 94t-3 73q-2 40 -2 80q0 102 13 188q21 111 62 162l12 13q-15 7 -25 11
q-17 8 -28.5 15.5t-30.5 26.5q-20 19 -31.5 38t-20.5 47q-10 28 -14 52t-4 66l1 48q1 35 2.5 81t3.5 82q4 105 4 187q0 59 -2 82q-2 9 -5.5 20t-7.5 18q-4 9 -7.5 13t-9.5 4q-8 0 -26 -5q-14 -4 -24 -4q-26 0 -26 28q0 7 1.5 11.5t5.5 8.5q12 11 38.5 18t55.5 7h10
q74 -5 123 -54q14 -14 21.5 -23.5t15.5 -27.5q6 -13 11 -26.5t7 -21.5q15 -57 15 -178q0 -50 -2 -114l-2 -85q0 -57 6 -89t20 -59q19 -45 98 -90q24 -14 32 -22.5t9 -19.5v-7q0 -10 -4.5 -18t-16.5 -17q-91 -75 -100 -320v-34l2 -166l2 -121q0 -28 -1.5 -43.5t-4.5 -25.5
t-9 -20q-38 -80 -113 -96q-20 -4 -42 -4z" />
    <glyph glyph-name="asciitilde" unicode="~" horiz-adv-x="642" 
d="M445 553q-18 0 -37 7q-21 8 -40 26t-56 65q-33 45 -73 45q-15 0 -33 -6q-33 -14 -63 -66q-18 -34 -37 -34q-9 0 -19 7q-16 8 -16 30q0 7 2 16q14 86 67 136q65 62 137 62q36 0 70 -15q46 -22 73 -82q15 -33 22 -45.5t11 -12.5q3 0 7 6q9 9 19 28t14 35q9 35 30 40l11 2
q14 0 25 -8.5t14 -22.5l1 -18l-1 -28q-5 -78 -55 -131q-33 -36 -73 -36z" />
    <glyph glyph-name="exclamdown" unicode="&#xa1;" horiz-adv-x="414" 
d="M243 1081q18 0 27 -1.5t15 -4.5q20 -7 30.5 -33.5t14.5 -96t6 -205.5q1 -60 2 -131q2 -104 4 -176q2 -59 2.5 -140.5t0.5 -143.5v-150q-2 -2 -3 -4q-9 -16 -19 -21q-7 -4 -28 -7t-47 -5t-46 -2q-16 0 -24.5 0.5t-14 2.5t-12.5 5q-24 12 -31 47q-1 8 -2 54.5t-2 111.5
q-1 205 -15 505q-7 153 -7 231q0 89 10 105q31 59 139 59zM187 1404q10 0 19.5 -0.5t14.5 -1.5q36 -10 61 -34q19 -20 31 -50.5t12 -59.5q0 -41 -20 -78t-49 -48q-10 -3 -25 -4.5t-30 -1.5h-12q-12 0 -20 2q-56 11 -82 61q-10 18 -13.5 33t-3.5 36q0 90 74 135q12 6 20.5 8
t22.5 3z" />
    <glyph glyph-name="cent" unicode="&#xa2;" horiz-adv-x="643" 
d="M320 -35q-2 0 -4 0.5t-5 2.5q-1 0 -3 1q-7 4 -11 8.5t-5.5 14t-1.5 28.5v39q0 8 0.5 14t0.5 13q-89 28 -145 106q-50 75 -66 212q-12 111 -12 240q0 148 15 269q15 96 46 191q64 185 179 224v54q0 27 0.5 42.5t1 24t1.5 12.5t2 7q12 16 27 16h2q9 -1 18 -9l8 -8l1 -136
q33 -8 57 -34q47 -52 47 -141q0 -18 -2 -37q-1 -21 -6 -50.5t-9.5 -54.5t-7.5 -31t-10 -9.5t-14 -3.5h-4q-6 2 -12.5 8t-8.5 12v2q0 6 2 21.5t4 34.5q9 56 9 99q0 54 -14 82l-4 8q-4 -7 -8 -12q-5 -7 -9.5 -14.5t-9 -18.5t-12.5 -32q-18 -53 -25.5 -126.5t-10.5 -231.5
q-2 -129 -2 -226q0 -185 7 -278q6 -79 15.5 -109.5t31.5 -40.5q4 -2 6 -2.5t5 -0.5t9 2q48 15 75 74q8 16 14 34.5t11 49.5q8 35 10.5 59t4.5 61q2 27 3.5 44.5t2 27.5t2 15t3 7t3.5 4v1q10 9 21 9q16 0 26 -18q2 -3 2.5 -6.5t0.5 -10.5l-3 -60q-3 -54 -7 -85.5t-12 -69.5
q-6 -30 -11 -46t-16 -39q-34 -76 -101 -103q-35 -16 -70 -17q0 -2 0.5 -3.5t0.5 -2.5v-2.5v-4.5v-2q0 -27 -0.5 -43t-1 -24t-1.5 -11.5t-4 -6.5q-2 -3 -6.5 -6t-9.5 -5z" />
    <glyph glyph-name="sterling" unicode="&#xa3;" horiz-adv-x="780" 
d="M140 -41q-8 0 -15 4q-13 9 -13 24q0 21 23 44q14 11 36.5 26t38.5 23l15 7q0 6 -1 12q-1 8 -1.5 19t-1.5 30.5t-2 54.5q-1 31 -4 77t-7 85q-3 39 -6 75t-4 52l-2 36q-27 -1 -42 -2q-13 0 -22.5 -0.5t-22.5 -0.5q-11 0 -16.5 1t-8.5 2q-14 9 -14 27v5q2 19 22 22
q7 2 25.5 4t39 3.5t30.5 1.5h8q-1 39 -1 58q-1 19 -1 37.5v62.5q0 143 12 296.5t34 225.5q63 190 222 203l11 1q14 0 28.5 -3t23.5 -8q4 -2 10.5 -4t11.5 -3q12 -2 28 -10t26 -17q5 -4 11 -11t10 -14q19 -29 19 -69q0 -57 -39 -137q-28 -59 -50 -61h-5q-16 0 -26 13
q-4 7 -4 14q0 11 12 28q20 30 32 68t12 67q0 62 -46 62q-37 0 -64 -50q-29 -54 -46 -168q-10 -66 -14.5 -122.5t-6.5 -166.5l-2 -279q27 1 44 2q15 1 26 1h23q9 0 13.5 -0.5t7.5 -2.5q17 -11 17 -28q0 -13 -11 -25l-8 -8h-2q-75 -3 -98 -6l-12 -2q3 -77 8 -171t11 -167.5
t11 -88.5q2 -2 16.5 -10t34.5 -18t37 -18t24 -10q16 -4 33 -4q15 0 26 3q13 3 25.5 16.5t22.5 31.5q5 9 10 16.5t8 9.5q7 4 17 4q11 0 19 -4q15 -10 15 -26q0 -14 -11 -33q-27 -53 -73 -74q-8 -4 -14 -6t-14 -3t-23 -1h-17q-27 0 -49 7.5t-65 29.5q-40 20 -60.5 27t-40.5 7
h-14q-33 -2 -93 -32q-55 -27 -69 -46q-13 -16 -28 -16z" />
    <glyph glyph-name="currency" unicode="&#xa4;" horiz-adv-x="766" 
d="M137 -24q-7 0 -10.5 2t-8.5 6q-9 9 -9 20q0 16 23 57q45 82 69 120q-28 34 -55 91q-75 166 -75 402v28q2 176 54 368q28 101 68 174l9 17h-2q-4 3 -19.5 17.5t-34.5 33.5t-34 34.5t-19 19.5q-6 10 -6 20q0 17 15 28q7 4 13 4q9 0 23.5 -11.5t45.5 -40.5q42 -37 53 -51
q10 13 18.5 24t12.5 14q21 18 57.5 29t69.5 11h3q9 0 17 -2q76 -14 139 -77q1 2 2 3q2 3 3 5q5 7 14.5 21t20.5 31l10 16q14 21 25 35t15 17q9 6 19 6q11 -1 20 -6q14 -11 14 -27q0 -14 -11 -25q-2 -3 -11.5 -16t-21.5 -30q-43 -62 -61 -80q28 -45 48 -116q30 -99 30 -234
q0 -141 -33 -323q-39 -223 -105 -333q-10 -18 -21 -33q9 -5 25 -23q16 -17 43.5 -42.5t52 -47.5t31.5 -27q18 -10 18 -31l-1 -7q-1 -16 -10.5 -25t-21.5 -9q-8 0 -17 5q-10 8 -45.5 43t-75.5 77q-19 20 -26.5 29.5t-8.5 15.5q-39 -38 -91 -53q-11 -3 -29 -5t-34 -2
q-15 0 -26 2q-18 4 -41 15q-11 -16 -23 -39l-52 -85q-13 -24 -21.5 -32t-20.5 -8zM361 186l22 6q63 22 116 125q62 122 99 401q8 54 11 89t3 82v25q0 56 -3.5 97t-13.5 85q-9 41 -24.5 80.5t-31.5 63.5q-15 22 -40 44.5t-45 31.5q-2 1 -4 1.5t-4 0.5q-5 0 -10.5 -5.5
t-14.5 -18.5q-41 -62 -77.5 -182t-52.5 -251q-8 -70 -11 -118.5t-3 -119.5q0 -180 27 -315q9 -44 17 -68t22 -44q5 -6 7.5 -8t5.5 -2h5z" />
    <glyph glyph-name="yen" unicode="&#xa5;" horiz-adv-x="737" 
d="M400 -14q-14 0 -29 1q-93 10 -102 62q-1 7 -2 25t-2 39l-2 50q-20 2 -32 2q-16 1 -23.5 3t-13.5 10q-8 9 -8 19q0 7 4 14q3 5 6.5 8t11.5 4.5t24 1.5l28 2l1 107l-58 -4q-2 2 -5 4q-6 6 -9 10.5t-3 13.5q0 17 18 29q3 2 11 3.5t18 2.5l24 3q-1 22 -2 80q-1 63 -3 140
t-5 141t-7 87q-5 27 -13.5 56t-27.5 82q-33 94 -68 204q-11 36 -25 89t-25 99t-11 54t1.5 12.5t5.5 9.5q4 4 7.5 6t9.5 3t19 2q19 2 37 2q78 0 125 -33q10 -8 23 -27t23 -38q46 -91 109 -320l21 -76l1 -1q2 0 6 16l41 130l74 226q23 73 23 83q0 5 1 10.5t2 8.5q4 9 14 14
t22 5q9 0 17 -4q6 -4 11 -13.5t5 -18.5q0 -12 -43 -142l-79 -242q-10 -32 -23.5 -79.5t-21.5 -84.5q-3 -11 -3.5 -32t-0.5 -69v-364l32 1q44 0 42 -31q0 -33 -48 -35h-9q-8 0 -11.5 -2t-4.5 -9t-1 -23v-68h23q12 0 18.5 -3.5t10.5 -11.5q5 -8 5 -16q0 -7 -4 -15
q-6 -16 -39 -19l-17 -2q0 -98 -10 -146q-9 -28 -34 -40q-18 -6 -50 -6z" />
    <glyph glyph-name="brokenbar" unicode="&#xa6;" horiz-adv-x="276" 
 />
    <glyph glyph-name="section" unicode="&#xa7;" horiz-adv-x="657" 
 />
    <glyph glyph-name="dieresis" unicode="&#xa8;" horiz-adv-x="512" 
d="M369 1292q-13 0 -26 5q-38 18 -56 65q-3 8 -4 14.5t-1 17.5v13q1 17 2.5 25.5t6.5 18.5q8 14 20 26t23 15q5 1 13 1.5t14 0.5q12 0 18 -1.5t16 -8.5q48 -35 48 -96v-3q0 -41 -22 -67t-52 -26zM157 1290q-11 0 -21 3q-13 4 -21.5 9.5t-16.5 14.5q-28 34 -28 77q0 26 11 50
q15 30 41 43q8 4 13.5 5.5t11.5 1.5h11q36 -1 59 -28q25 -23 25 -76q0 -12 -0.5 -19t-2.5 -13t-6 -14q-31 -54 -76 -54z" />
    <glyph glyph-name="copyright" unicode="&#xa9;" horiz-adv-x="657" 
d="M363 928h-9q-36 7 -60 41q-17 27 -23 76q-4 39 -4 85q0 53 5 97q5 34 16 68q22 67 63 81q6 2 12 2q16 0 29 -14q16 -18 16 -51v-13l-2.5 -17.5t-3.5 -19.5t-3 -11t-3.5 -3.5t-4.5 -1.5h-1q-3 1 -5 3t-2 4l-1 1q0 2 1 7.5t2 12.5q3 20 3 35q0 20 -5 30l-2 3q-1 -2 -2 -3
q-2 -4 -3.5 -6.5t-3.5 -6.5t-4 -12q-7 -19 -9.5 -45.5t-3.5 -82.5v-84q0 -64 2 -96q2 -29 5 -40t12 -14q1 -1 1.5 -1h1.5t3 1q17 5 27 26q2 6 4 12.5t4 17.5q2 13 3.5 21.5t1.5 21.5q1 4 1 8q1 9 1 14.5t0.5 8t1 3.5t1.5 2q4 3 7 3q6 0 9 -6q1 -1 1 -2.5v-4.5l-1 -21
q-1 -19 -2 -30.5t-4 -25.5q-2 -11 -4 -16.5t-6 -13.5q-6 -15 -14 -23t-20 -14q-14 -6 -28 -6zM385 1460q-21 6 -44.5 6.5t-44.5 -9.5q-53 -32 -77 -100.5t-36 -140.5q-7 -39 -10 -66t-2 -65q-1 -51 6 -106t32 -91q18 -23 30 -31.5t28 -13.5q3 -1 6 -3q6 -2 15 -1.5t16 1.5
q2 0 4 1q4 0 9.5 1t10.5 2q57 12 105 68q57 67 90 220q7 30 9.5 49t3.5 45q1 36 -2.5 61.5t-13.5 51.5q-8 23 -22 44.5t-28 35.5q-37 31 -85 41zM341 1504q81 -6 145 -47q48 -30 76 -89q54 -111 -4 -305q-35 -123 -95 -183q-54 -58 -134 -70q-16 -3 -41 -4t-40 1
q-13 2 -29.5 6t-27.5 9q-43 18 -78 66q-73 98 -68 235q2 97 49 202q26 55 61 96q5 5 8.5 9t4.5 5q2 3 13.5 13t24 19.5t17.5 12.5q55 29 118 24z" />
    <glyph glyph-name="ordfeminine" unicode="&#xaa;" horiz-adv-x="648" 
 />
    <glyph glyph-name="guillemotleft" unicode="&#xab;" horiz-adv-x="657" 
 />
    <glyph glyph-name="logicalnot" unicode="&#xac;" horiz-adv-x="657" 
 />
    <glyph glyph-name="registered" unicode="&#xae;" horiz-adv-x="488" 
d="M236 1243h1q4 0 7.5 0.5t7.5 0.5q39 8 49 54q2 12 2 21q0 6 -1 11q-6 44 -37 65q-12 8 -26 10h-2zM224 1141l-4 -1q-6 0 -8 1q-3 1 -5 2l-4 2q-2 2 -3.5 6.5t-2.5 12.5q-2 14 -4 51t-3 86v42q0 27 0.5 49.5t0.5 24.5q2 3 6 3h3h4l3 0.5t7 0.5v0q1 0 2 1h5q4 0 6.5 -1
t4.5 -2l1.5 -0.5l1.5 -0.5q2 0 6 -0.5t8 -1.5t6 -1q6 -2 13.5 -6.5t13.5 -9.5q5 -4 11 -12t10 -15q2 -6 5 -13.5t5 -13.5q3 -12 3 -26q0 -15 -3 -29q-3 -9 -7 -17.5t-9 -14.5q-7 -10 -16 -16q-5 -4 -11.5 -6.5t-11.5 -3.5q-1 0 -1 -1h-2.5h-0.5q0 -1 2 -3v-1q5 -7 8 -17
q1 -4 2.5 -11t1.5 -12q2 -23 6 -26q1 -2 2 -2.5t2 -0.5q3 0 4.5 1.5t3.5 5.5q2 3 3 7.5t1 15.5v12l2 2q0 1 1 1.5t3 0.5q8 0 7 -14v-8q-1 -8 -1.5 -12.5t-2.5 -8.5q-2 -6 -7 -11q-2 -2 -4 -3l-4 -2h-6q-13 0 -19 16l-2 8t-2 13q-2 24 -7 34q-3 7 -7 9h-3t-1 -1v-5
q0 -10 1 -26.5t2 -27.5q1 -7 1 -11q0 -5 -2 -7q0 -2 -1 -3t-3 -2q-1 0 -2 -0.5t-3 -0.5h-6zM269 1475q-14 4 -29.5 4.5t-29.5 -6.5q-35 -21 -50.5 -66t-23.5 -93q-5 -25 -7 -43t-1 -43q-1 -34 4 -70t21 -60q12 -15 20 -20.5t18 -9.5q2 0 4 -2q4 -1 10 -0.5t11 0.5q1 0 2 1
q3 0 6.5 0.5t7.5 1.5q37 8 69 45q37 44 59 145q5 20 6.5 32.5t2.5 29.5q0 24 -2 40.5t-9 33.5q-5 16 -14.5 30t-18.5 23q-24 21 -56 27zM240 1504q54 -4 96 -31q31 -20 50 -58q35 -74 -3 -202q-23 -81 -62 -120q-36 -39 -89 -46q-10 -2 -26.5 -3t-26.5 1q-9 1 -20 3.5
t-18 5.5q-28 12 -51 44q-48 65 -45 155q1 64 32 133q17 36 40 64q4 3 6 5.5t3 3.5q1 2 8.5 8.5t16 12.5t11.5 8q37 20 78 16z" />
    <glyph glyph-name="macron" unicode="&#xaf;" horiz-adv-x="683" 
d="M369 1257q-115 0 -265 12q-34 19 -34 80v10q1 12 1.5 17.5t3.5 9.5q17 13 73.5 17.5t127.5 4.5q91 0 181 -3q66 -2 104 -2q20 0 30 1q2 -2 4 -3q4 -3 7 -5.5t5 -6.5q2 -6 4 -26t2 -39v-13q-1 -1 -1 -2q0 -10 -0.5 -15t-2 -8l-3.5 -7q-9 -16 -31 -19q-42 -1 -80 -1
q-64 -2 -126 -2z" />
    <glyph glyph-name="degree" unicode="&#xb0;" horiz-adv-x="398" 
d="M205 1250q-12 0 -23 1.5t-16 2.5q-56 22 -86 80q-4 10 -6.5 17t-3 17t-0.5 30q0 21 0.5 31t3 17t7.5 17q21 41 61 59q11 6 21 8t28 1q20 1 29.5 -1.5t24.5 -9.5q81 -43 83 -137q-1 -87 -75 -124q-13 -6 -22.5 -7.5t-25.5 -1.5zM204 1351q10 0 17 6q8 10 8 22q0 18 -16 37
q-6 6 -10 9t-7 3q-2 0 -3.5 -0.5t-2.5 -0.5q-21 -9 -21 -31q0 -21 19 -40q7 -5 16 -5z" />
    <glyph glyph-name="plusminus" unicode="&#xb1;" horiz-adv-x="889" 
d="M550 717l54 -2q90 -3 143 -3q27 0 41 1q3 -2 5 -4q6 -4 10 -7t7 -9q3 -9 5.5 -36.5t2.5 -53.5v-21q-1 -13 -2 -20t-2.5 -11t-4.5 -10q-12 -22 -43 -26q-58 -1 -110 -2l-112 -2q-1 -28 -3 -57q-4 -90 -5 -142q0 -28 1 -42q-11 -17 -20 -22q-19 -6 -76 -6h-23q-33 0 -43 5
q-31 6 -36 48v219q-103 4 -223 13q-46 26 -46 111v14q1 15 2 23t4 14q25 18 103 25q74 6 166 6q5 109 15 225q26 44 104 44q45 0 59 -7q27 -38 27 -230v-35zM476 -15q-159 0 -366 16q-46 26 -46 111v14q1 15 2 23t4 14q25 18 102.5 24.5t176.5 6.5q125 0 249 -5
q90 -3 143 -3q27 0 41 1l6 -4q6 -4 10 -7t6 -9q4 -9 6.5 -36.5t2.5 -53.5l-1 -18v-3q-1 -13 -1.5 -20t-2 -11t-5.5 -10q-11 -22 -43 -26q-58 -1 -110 -2q-88 -2 -174 -2z" />
    <glyph glyph-name="uni00B2" unicode="&#xb2;" horiz-adv-x="1014" 
 />
    <glyph glyph-name="uni00B3" unicode="&#xb3;" horiz-adv-x="1014" 
 />
    <glyph glyph-name="acute" unicode="&#xb4;" horiz-adv-x="461" 
d="M116 1300h-5q-9 0 -15 3q-30 15 -30 43v3q2 28 33 55q10 9 23 16.5t36.5 17t65.5 24.5q51 19 75.5 27t36.5 8h2q5 0 9.5 -2t9.5 -6q2 -1 3 -2q15 -10 24 -26.5t9 -32.5l-1 -6q-2 -19 -25.5 -35.5t-81.5 -37.5q-125 -49 -169 -49z" />
    <glyph glyph-name="mu" unicode="&#xb5;" horiz-adv-x="1180" 
 />
    <glyph glyph-name="paragraph" unicode="&#xb6;" horiz-adv-x="657" 
 />
    <glyph glyph-name="periodcentered" unicode="&#xb7;" horiz-adv-x="395" 
d="M190 500q-14 0 -29 4q-42 12 -66.5 45t-24.5 77v11q8 69 45 102.5t82 33.5q40 0 76 -26t50 -76q4 -13 4 -26q0 -39 -23 -77t-59 -55q-28 -13 -55 -13z" />
    <glyph glyph-name="periodcentered" unicode="&#x2219;" horiz-adv-x="395" 
d="M190 500q-14 0 -29 4q-42 12 -66.5 45t-24.5 77v11q8 69 45 102.5t82 33.5q40 0 76 -26t50 -76q4 -13 4 -26q0 -39 -23 -77t-59 -55q-28 -13 -55 -13z" />
    <glyph glyph-name="cedilla" unicode="&#xb8;" horiz-adv-x="354" 
d="M174 -300q-12 0 -24 2q-48 9 -73 56q-7 14 -7 25q0 13 11 24q7 6 11.5 8t13.5 2q7 0 10.5 -1t7.5 -4.5t10 -10.5q7 -6 12.5 -11.5l7.5 -7.5q7 -3 13 -3q11 0 20 9t9 22l-1 5q-2 16 -10 24.5t-26 14.5q-50 19 -59 64q-1 9 -2 22.5t-1 27.5q0 17 1 26q7 23 21 29q6 2 15 2
q15 0 29 -6q9 -3 12 -13t3 -31q0 -11 1 -20t1 -12q2 -7 25 -20q46 -25 64 -65q16 -31 16 -59q0 -11 -3 -23q-8 -35 -33 -53q-33 -23 -75 -23z" />
    <glyph glyph-name="uni00B9" unicode="&#xb9;" horiz-adv-x="1014" 
 />
    <glyph glyph-name="ordmasculine" unicode="&#xba;" horiz-adv-x="718" 
 />
    <glyph glyph-name="guillemotright" unicode="&#xbb;" horiz-adv-x="657" 
 />
    <glyph glyph-name="onequarter" unicode="&#xbc;" horiz-adv-x="1708" 
 />
    <glyph glyph-name="onehalf" unicode="&#xbd;" horiz-adv-x="1964" 
 />
    <glyph glyph-name="threequarters" unicode="&#xbe;" horiz-adv-x="1708" 
 />
    <glyph glyph-name="questiondown" unicode="&#xbf;" horiz-adv-x="666" 
d="M360 1066h32q14 0 21.5 -0.5t11.5 -1.5t8 -3q9 -5 14 -12t9 -20q9 -36 14.5 -146t5.5 -204q0 -84 -6 -113q-3 -12 -9.5 -21t-22.5 -24t-50 -43q-81 -63 -89 -178q-1 -13 -1 -27q0 -57 25 -114q9 -21 23 -43.5t31.5 -39t37.5 -16.5q22 0 46 26q64 68 70 163v14
q0 41 -17 58q-12 12 -12 24q0 6 4 13q9 16 26 16q11 0 22 -7q20 -13 31 -44t11 -71q0 -23 -4 -47q-16 -99 -88 -172q-63 -63 -140 -63h-6q-44 0 -90 21q-55 25 -104 85t-74 132q-13 37 -17.5 65t-4.5 62q0 27 1.5 40t7.5 33q24 103 140 202q13 13 19 19.5t8 12.5
q6 26 10.5 118t4.5 185v90l4 6q4 5 8.5 9.5t13.5 8.5q5 3 12 4.5t20.5 2t39.5 0.5h3zM373 1403q14 0 28 -4q43 -12 67 -44.5t24 -76.5v-12q-3 -39 -24.5 -74t-50.5 -49q-31 -15 -54 -15q-10 0 -18.5 3.5t-27.5 12.5q-65 32 -78 88q-3 12 -3 25q0 40 23 78t58 55q29 13 56 13
z" />
    <glyph glyph-name="Agrave" unicode="&#xc0;" horiz-adv-x="659" 
d="M198 -40q-13 0 -26 5q-14 7 -31.5 20t-27.5 26q-34 43 -43 121q-2 15 -2 43q0 100 17 311.5t42 412.5q16 126 38 248t40 189q19 68 52 84q13 5 36 5q37 -2 74 -19q6 -4 16 -12t19 -17q37 -36 54 -110q4 -21 8 -45t8.5 -67t12.5 -122l18 -186q7 -68 21.5 -189t22.5 -185
q16 -131 27.5 -251t12.5 -183v-44q-3 -2 -4 -4q-7 -7 -12 -10.5t-14 -3.5q-10 0 -19 9q-3 3 -5 6t-3 9.5t-2 18t-3 31.5v4l-11 113q-3 19 -6.5 52t-7 67.5t-6 59t-2.5 25.5l-8 1q-12 0 -38.5 -1.5t-55 -3.5t-49 -3.5t-22.5 -2.5q-1 -2 -3 -22t-4 -49q-19 -221 -45 -276
t-69 -55zM326 429l2 1q1 1 22.5 3.5t52.5 4.5q18 2 34 3q18 2 29.5 3t13.5 2q1 0 1 5q0 7 -2 23q-12 94 -31 263.5t-30 283.5q-7 69 -12 117.5t-6 51.5q-1 1 -1 2l-0.5 0.5l-0.5 0.5v-3l-12 -87q-33 -245 -52 -519q-5 -68 -7.5 -100.5t-2.5 -44.5q0 -6 0.5 -8t1.5 -2z
M428 1500h-8q-27 5 -74 18t-92.5 28t-65.5 25q-34 23 -34 58q0 21 13 41l16.5 19.5t11 8.5t15.5 3q2 0 3 1q6 1 11 1q8 0 24.5 -5t56.5 -20q8 -3 17 -6q34 -11 51 -17.5t26.5 -11t20.5 -9.5q2 -1 3 -2q49 -25 62 -59q3 -7 4.5 -13.5t1.5 -9.5q0 -12 -7.5 -25t-20.5 -20
q-5 -2 -15.5 -3.5t-19.5 -1.5z" />
    <glyph glyph-name="Aacute" unicode="&#xc1;" horiz-adv-x="659" 
d="M198 -40q-13 0 -26 5q-14 7 -31.5 20t-27.5 26q-34 43 -43 121q-2 15 -2 43q0 100 17 311.5t42 412.5q16 126 38 248t40 189q19 68 52 84q13 5 36 5q37 -2 74 -19q6 -4 16 -12t19 -17q37 -36 54 -110q4 -21 8 -45t8.5 -67t12.5 -122l18 -186q7 -68 21.5 -189t22.5 -185
q16 -131 27.5 -251t12.5 -183v-44q-3 -2 -4 -4q-7 -7 -12 -10.5t-14 -3.5q-10 0 -19 9q-3 3 -5 6t-3 9.5t-2 18t-3 31.5v4l-11 113q-3 19 -6.5 52t-7 67.5t-6 59t-2.5 25.5l-8 1q-12 0 -38.5 -1.5t-55 -3.5t-49 -3.5t-22.5 -2.5q-1 -2 -3 -22t-4 -49q-19 -221 -45 -276
t-69 -55zM326 429l2 1q1 1 22.5 3.5t52.5 4.5q18 2 34 3q18 2 29.5 3t13.5 2q1 0 1 5q0 7 -2 23q-12 94 -31 263.5t-30 283.5q-7 69 -12 117.5t-6 51.5q-1 1 -1 2l-0.5 0.5l-0.5 0.5v-3l-12 -87q-33 -245 -52 -519q-5 -68 -7.5 -100.5t-2.5 -44.5q0 -6 0.5 -8t1.5 -2z
M200 1500h-5q-9 0 -15 3q-30 15 -30 43v3q2 28 33 55q10 9 23 16.5t36.5 17t65.5 24.5q51 19 75.5 27t36.5 8h2q5 0 9.5 -2t9.5 -6q2 -1 3 -2q15 -10 24 -26.5t9 -32.5l-1 -6q-2 -19 -25.5 -35.5t-81.5 -37.5q-125 -49 -169 -49z" />
    <glyph glyph-name="Acircumflex" unicode="&#xc2;" horiz-adv-x="659" 
d="M198 -40q-13 0 -26 5q-14 7 -31.5 20t-27.5 26q-34 43 -43 121q-2 15 -2 43q0 100 17 311.5t42 412.5q16 126 38 248t40 189q19 68 52 84q13 5 36 5q37 -2 74 -19q6 -4 16 -12t19 -17q37 -36 54 -110q4 -21 8 -45t8.5 -67t12.5 -122l18 -186q7 -68 21.5 -189t22.5 -185
q16 -131 27.5 -251t12.5 -183v-44q-3 -2 -4 -4q-7 -7 -12 -10.5t-14 -3.5q-10 0 -19 9q-3 3 -5 6t-3 9.5t-2 18t-3 31.5v4l-11 113q-3 19 -6.5 52t-7 67.5t-6 59t-2.5 25.5l-8 1q-12 0 -38.5 -1.5t-55 -3.5t-49 -3.5t-22.5 -2.5q-1 -2 -3 -22t-4 -49q-19 -221 -45 -276
t-69 -55zM326 429l2 1q1 1 22.5 3.5t52.5 4.5q18 2 34 3q18 2 29.5 3t13.5 2q1 0 1 5q0 7 -2 23q-12 94 -31 263.5t-30 283.5q-7 69 -12 117.5t-6 51.5q-1 1 -1 2l-0.5 0.5l-0.5 0.5v-3l-12 -87q-33 -245 -52 -519q-5 -68 -7.5 -100.5t-2.5 -44.5q0 -6 0.5 -8t1.5 -2z
M186 1500q-1 1 -3 1t-4 1q-11 3 -19.5 16.5t-8.5 28.5v5q3 12 22 43.5t43 66.5t43 56q6 6 14 12t15 10q10 5 17.5 6.5t23.5 1.5t24 -1.5t17 -5.5q27 -12 49 -35.5t49 -67.5q36 -57 39 -85v-3q0 -21 -22 -34q-8 -4 -16 -4q-27 0 -71 44q-27 27 -42 37t-28 10q-4 0 -10.5 -1.5
t-10.5 -3.5t-19 -15.5t-34 -32.5q-25 -26 -37 -35.5t-18 -11.5q-7 -1 -10 -2q-2 -1 -3 -1z" />
    <glyph glyph-name="Atilde" unicode="&#xc3;" horiz-adv-x="659" 
d="M198 -40q-13 0 -26 5q-14 7 -31.5 20t-27.5 26q-34 43 -43 121q-2 15 -2 43q0 100 17 311.5t42 412.5q16 126 38 248t40 189q19 68 52 84q13 5 36 5q37 -2 74 -19q6 -4 16 -12t19 -17q37 -36 54 -110q4 -21 8 -45t8.5 -67t12.5 -122l18 -186q7 -68 21.5 -189t22.5 -185
q16 -131 27.5 -251t12.5 -183v-44q-3 -2 -4 -4q-7 -7 -12 -10.5t-14 -3.5q-10 0 -19 9q-3 3 -5 6t-3 9.5t-2 18t-3 31.5v4l-11 113q-3 19 -6.5 52t-7 67.5t-6 59t-2.5 25.5l-8 1q-12 0 -38.5 -1.5t-55 -3.5t-49 -3.5t-22.5 -2.5q-1 -2 -3 -22t-4 -49q-19 -221 -45 -276
t-69 -55zM326 429l2 1q1 1 22.5 3.5t52.5 4.5q18 2 34 3q18 2 29.5 3t13.5 2q1 0 1 5q0 7 -2 23q-12 94 -31 263.5t-30 283.5q-7 69 -12 117.5t-6 51.5q-1 1 -1 2l-0.5 0.5l-0.5 0.5v-3l-12 -87q-33 -245 -52 -519q-5 -68 -7.5 -100.5t-2.5 -44.5q0 -6 0.5 -8t1.5 -2z
M438 1500q-16 0 -33 6q-18 7 -35 23t-50 57q-29 40 -64 40q-13 0 -29 -6q-29 -11 -56 -58q-15 -29 -32 -29q-8 0 -17 5q-14 8 -14 27q0 6 1 14q13 76 59 120q58 55 122 55q31 0 61 -14q41 -19 64 -72q14 -28 20 -39t10 -11q3 0 6 4q8 9 16.5 25.5t12.5 30.5q8 31 26 35l11 2
q11 0 21 -7.5t12 -20.5l1 -15l-1 -25q-3 -69 -48 -116q-29 -31 -64 -31z" />
    <glyph glyph-name="Adieresis" unicode="&#xc4;" horiz-adv-x="659" 
d="M198 -40q-13 0 -26 5q-14 7 -31.5 20t-27.5 26q-34 43 -43 121q-2 15 -2 43q0 100 17 311.5t42 412.5q16 126 38 248t40 189q19 68 52 84q13 5 36 5q37 -2 74 -19q6 -4 16 -12t19 -17q37 -36 54 -110q4 -21 8 -45t8.5 -67t12.5 -122l18 -186q7 -68 21.5 -189t22.5 -185
q16 -131 27.5 -251t12.5 -183v-44q-3 -2 -4 -4q-7 -7 -12 -10.5t-14 -3.5q-10 0 -19 9q-3 3 -5 6t-3 9.5t-2 18t-3 31.5v4l-11 113q-3 19 -6.5 52t-7 67.5t-6 59t-2.5 25.5l-8 1q-12 0 -38.5 -1.5t-55 -3.5t-49 -3.5t-22.5 -2.5q-1 -2 -3 -22t-4 -49q-19 -221 -45 -276
t-69 -55zM326 429l2 1q1 1 22.5 3.5t52.5 4.5q18 2 34 3q18 2 29.5 3t13.5 2q1 0 1 5q0 7 -2 23q-12 94 -31 263.5t-30 283.5q-7 69 -12 117.5t-6 51.5q-1 1 -1 2l-0.5 0.5l-0.5 0.5v-3l-12 -87q-33 -245 -52 -519q-5 -68 -7.5 -100.5t-2.5 -44.5q0 -6 0.5 -8t1.5 -2z
M441 1502q-13 0 -26 5q-38 18 -56 65q-3 8 -4 14.5t-1 17.5v13q1 17 2.5 25.5t6.5 18.5q8 14 20 26t23 15q5 1 13 1.5t14 0.5q12 0 18 -1.5t16 -8.5q48 -35 48 -96v-3q0 -41 -22 -67t-52 -26zM229 1500q-11 0 -21 3q-13 4 -21.5 9.5t-16.5 14.5q-28 34 -28 77q0 26 11 50
q15 30 41 43q8 4 13.5 5.5t11.5 1.5h11q36 -1 59 -28q25 -23 25 -76q0 -12 -0.5 -19t-2.5 -13t-6 -14q-31 -54 -76 -54z" />
    <glyph glyph-name="Aring" unicode="&#xc5;" horiz-adv-x="659" 
d="M198 -40q-13 0 -26 5q-14 7 -31.5 20t-27.5 26q-34 43 -43 121q-2 15 -2 43q0 100 17 311.5t42 412.5q16 126 38 248t40 189q19 68 52 84q13 5 36 5q37 -2 74 -19q6 -4 16 -12t19 -17q37 -36 54 -110q4 -21 8 -45t8.5 -67t12.5 -122l18 -186q7 -68 21.5 -189t22.5 -185
q16 -131 27.5 -251t12.5 -183v-44q-3 -2 -4 -4q-7 -7 -12 -10.5t-14 -3.5q-10 0 -19 9q-3 3 -5 6t-3 9.5t-2 18t-3 31.5v4l-11 113q-3 19 -6.5 52t-7 67.5t-6 59t-2.5 25.5l-8 1q-12 0 -38.5 -1.5t-55 -3.5t-49 -3.5t-22.5 -2.5q-1 -2 -3 -22t-4 -49q-19 -221 -45 -276
t-69 -55zM326 429l2 1q1 1 22.5 3.5t52.5 4.5q18 2 34 3q18 2 29.5 3t13.5 2q1 0 1 5q0 7 -2 23q-12 94 -31 263.5t-30 283.5q-7 69 -12 117.5t-6 51.5q-1 1 -1 2l-0.5 0.5l-0.5 0.5v-3l-12 -87q-33 -245 -52 -519q-5 -68 -7.5 -100.5t-2.5 -44.5q0 -6 0.5 -8t1.5 -2z
M334 1500q-10 0 -19 1t-13 3q-47 17 -70 65q-4 8 -6 14t-2.5 14t-0.5 25t0.5 25t2.5 14t6 14q17 34 50 49q9 5 17.5 6t23.5 1q16 1 24 -1t20 -8q66 -36 68 -113q0 -71 -62 -101q-10 -5 -18 -6.5t-21 -1.5zM333 1583q8 0 14 5q7 8 7 18q0 15 -14 30q-5 5 -8 7.5t-6 2.5h-2
t-3 -1q-17 -7 -17 -25q0 -17 16 -33q6 -4 13 -4z" />
    <glyph glyph-name="AE" unicode="&#xc6;" horiz-adv-x="1147" 
d="M197 -40q-13 0 -26 5q-14 7 -31.5 20t-27.5 26q-34 43 -43 121q-2 15 -2 43q0 100 17 311.5t42 412.5q16 126 38 248t40 189q19 68 52 84q13 5 36 5q37 -2 74 -19q6 -4 16 -12t19 -17q37 -36 54 -110q4 -21 8 -45t8.5 -67t12.5 -122l18 -186q7 -68 21.5 -189t22.5 -185
q16 -131 27.5 -251t12.5 -183v-44q-3 -2 -4 -4q-7 -7 -12 -10.5t-14 -3.5q-10 0 -19 9q-3 3 -5 6t-3 9.5t-2 18t-3 31.5v4l-11 113q-3 19 -6.5 52t-7 67.5t-6 59t-2.5 25.5l-8 1q-12 0 -38.5 -1.5t-55 -3.5t-49 -3.5t-22.5 -2.5q-1 -2 -3 -22t-4 -49q-19 -221 -45 -276
t-69 -55zM325 429l2 1q1 1 22.5 3.5t52.5 4.5q18 2 34 3q18 2 29.5 3t13.5 2q1 0 1 5q0 7 -2 23q-12 94 -31 263.5t-30 283.5q-7 69 -12 117.5t-6 51.5q-1 1 -1 2l-0.5 0.5l-0.5 0.5v-3l-12 -87q-33 -245 -52 -519q-5 -68 -7.5 -100.5t-2.5 -44.5q0 -6 0.5 -8t1.5 -2zM759 3
q-34 0 -51 3q-70 10 -92 89q-2 7 -3.5 15t-2 25t-1.5 49.5t-1 88.5q-1 68 -2.5 134t-2.5 99q-4 102 -6 169.5t-2 156.5l2 235l4 326q-1 16 4.5 23.5t25.5 10.5t64 5q31 2 78.5 3.5t87.5 1.5h51t29.5 -0.5t15.5 -1.5t8 -3t7 -5.5t7 -5.5q4 -8 4 -18t-5 -18q-4 -5 -8 -8
t-13.5 -4.5t-28.5 -1.5l-95 2q-11 0 -16.5 -0.5t-8 -1.5t-2.5 -2l-1 -5q0 -19 6 -90q5 -80 5 -196q0 -83 2 -215.5t5 -202.5l2 -48q40 3 61.5 4.5t32.5 1.5q8 0 11.5 -1t7.5 -3q16 -11 16 -28q0 -7 -3 -14q-4 -8 -8.5 -12t-14.5 -6t-28 -4q-15 -2 -31 -3t-23 -1h-19
q1 -15 1.5 -25.5t1.5 -27.5t2 -51q1 -12 2 -26q2 -34 5 -87.5t6 -102.5l2 -36q2 -36 4 -62.5t2 -32.5q0 -7 1 -12.5t2 -6.5h3q11 0 45.5 3.5t79.5 9.5q24 3 36.5 5t19.5 2q4 0 7 -1t7 -2q22 -13 22 -32q0 -16 -15 -26q-10 -4 -59.5 -11.5t-113.5 -13.5q-74 -7 -129 -7z" />
    <glyph glyph-name="OE" unicode="&#x152;" horiz-adv-x="1271" 
d="M326 -1q-15 0 -25 2q-15 3 -33.5 12.5t-31.5 18.5q-48 38 -87 135q-77 187 -77 453v32q2 199 56 414q28 114 68 197q6 10 9.5 18t4.5 11q3 6 16 26.5t27 40.5t20 26q22 20 58 33t68 13h6q11 0 18 -2q82 -15 145 -92q54 -60 85 -182q30 -111 30 -260q0 -161 -34 -368
q-39 -252 -107 -376q-61 -118 -150 -144q-12 -4 -30.5 -6t-35.5 -2zM363 69l5 1q4 1 10.5 3t11.5 4q65 24 118 140q65 139 102 453q8 60 11 100t3 93l1 40q0 116 -18 193q-9 46 -25 90t-32 72q-15 25 -41 50.5t-46 35.5q-5 3 -8 3q-5 -1 -10.5 -7t-15.5 -20
q-42 -70 -79 -205.5t-53 -282.5q-9 -80 -12 -134.5t-3 -134.5q1 -196 28 -355q9 -50 17.5 -77t22.5 -49q5 -7 7 -10t6 -3zM884 3q-34 0 -51 3q-70 10 -92 89q-2 7 -3.5 15t-2 25t-1.5 49.5t-1 88.5q-1 68 -2.5 134t-2.5 99q-4 102 -6 169.5t-2 156.5l2 235l4 326
q-1 16 4.5 23.5t25.5 10.5t64 5q31 2 78.5 3.5t87.5 1.5h51t29.5 -0.5t15.5 -1.5t8 -3t7 -5.5t7 -5.5q4 -8 4 -18t-5 -18q-4 -5 -8 -8t-13.5 -4.5t-28.5 -1.5l-95 2q-11 0 -16.5 -0.5t-8 -1.5t-2.5 -2l-1 -5q0 -19 6 -90q5 -80 5 -196q0 -83 2 -215.5t5 -202.5l2 -48
q40 3 61.5 4.5t32.5 1.5q8 0 11.5 -1t7.5 -3q16 -11 16 -28q0 -7 -3 -14q-4 -8 -8.5 -12t-14.5 -6t-28 -4q-15 -2 -31 -3t-23 -1h-19q1 -15 1.5 -25.5t1.5 -27.5t2 -51q1 -12 2 -26q2 -34 5 -87.5t6 -102.5l2 -36q2 -36 4 -62.5t2 -32.5q0 -7 1 -12.5t2 -6.5h3
q11 0 45.5 3.5t79.5 9.5q24 3 36.5 5t19.5 2q4 0 7 -1t7 -2q22 -13 22 -32q0 -16 -15 -26q-10 -4 -59.5 -11.5t-113.5 -13.5q-74 -7 -129 -7z" />
    <glyph glyph-name="Ccedilla" unicode="&#xc7;" horiz-adv-x="709" 
d="M286 16q-75 34 -129 110q-56 87 -75 245q-13 128 -13 276q0 173 17 315q16 110 52 221q72 215 202 260q20 7 40 7q52 0 93 -43q53 -61 53 -167l-2 -40q-2 -24 -7.5 -58.5t-11 -63.5t-8.5 -35q-3 -7 -10.5 -11.5t-15.5 -4.5l-5 1q-7 2 -14 9t-9 14v2q0 7 2 24.5t5 40.5
q9 65 9 114q0 64 -15 96l-5 10q-4 -6 -8 -11q-7 -10 -11.5 -18.5t-10 -22t-14.5 -38.5q-21 -61 -29.5 -147t-10.5 -268q-3 -156 -3 -271q0 -208 9 -314q6 -92 16.5 -127t36.5 -46q4 -2 6.5 -3.5t4.5 -1.5q4 0 11 3q53 18 85 86q9 18 15 39.5t13 58.5q7 40 10.5 67.5
t6.5 70.5q1 14 2 26q2 31 3 48t2 25t3 11t4 5l1 1q11 10 23 10q18 0 30 -20q2 -3 2.5 -7.5t0.5 -13.5l-3 -69q-3 -62 -7.5 -99t-13.5 -81q-7 -35 -12.5 -54t-18.5 -45q-21 -46 -47 -73.5t-66 -45.5q-45 -20 -88 -20q-14 0 -29 2q1 -8 2 -20q0 -11 0.5 -20t1.5 -12
q1 -7 25 -20q45 -25 64 -65q16 -31 16 -59q0 -11 -3 -23q-8 -35 -33 -53q-33 -23 -76 -23q-12 0 -23 2q-49 9 -73 56q-8 14 -8 25q0 13 12 24q6 6 10.5 8t14.5 2q6 0 9.5 -1t7.5 -4.5t11 -10.5l11.5 -11.5t8.5 -7.5q6 -3 12 -3q12 0 20.5 9t8.5 22v5q-3 16 -11 24.5
t-25 14.5q-51 19 -59 64q-2 9 -3 22.5t-1 27.5q0 17 2 26q4 14 12 22z" />
    <glyph glyph-name="Egrave" unicode="&#xc8;" horiz-adv-x="621" 
d="M233 3q-34 0 -51 3q-70 10 -92 89q-2 7 -3.5 15t-2 25t-1.5 49.5t-1 88.5q-1 68 -2.5 134t-2.5 99q-4 102 -6 169.5t-2 156.5l2 235l4 326q-1 16 4.5 23.5t25.5 10.5t64 5q31 2 78.5 3.5t87.5 1.5h51t29.5 -0.5t15.5 -1.5t8 -3t7 -5.5t7 -5.5q4 -8 4 -18t-5 -18
q-4 -5 -8 -8t-13.5 -4.5t-28.5 -1.5l-95 2q-11 0 -16.5 -0.5t-8 -1.5t-2.5 -2l-1 -5q0 -19 6 -90q5 -80 5 -196q0 -83 2 -215.5t5 -202.5l2 -48q40 3 61.5 4.5t32.5 1.5q8 0 11.5 -1t7.5 -3q16 -11 16 -28q0 -7 -3 -14q-4 -8 -8.5 -12t-14.5 -6t-28 -4q-15 -2 -31 -3t-23 -1
h-19q1 -15 1.5 -25.5t1.5 -27.5t2 -51q1 -12 2 -26q2 -34 5 -87.5t6 -102.5l2 -36q2 -36 4 -62.5t2 -32.5q0 -7 1 -12.5t2 -6.5h3q11 0 45.5 3.5t79.5 9.5q24 3 36.5 5t19.5 2q4 0 7 -1t7 -2q22 -13 22 -32q0 -16 -15 -26q-10 -4 -59.5 -11.5t-113.5 -13.5q-74 -7 -129 -7z
M359 1500h-8q-27 5 -74 18t-92.5 28t-65.5 25q-34 23 -34 58q0 21 13 41l16.5 19.5t11 8.5t15.5 3q2 0 3 1q6 1 11 1q8 0 24.5 -5t56.5 -20q8 -3 17 -6q34 -11 51 -17.5t26.5 -11t20.5 -9.5q2 -1 3 -2q49 -25 62 -59q3 -7 4.5 -13.5t1.5 -9.5q0 -12 -7.5 -25t-20.5 -20
q-5 -2 -15.5 -3.5t-19.5 -1.5z" />
    <glyph glyph-name="Eacute" unicode="&#xc9;" horiz-adv-x="621" 
d="M233 3q-34 0 -51 3q-70 10 -92 89q-2 7 -3.5 15t-2 25t-1.5 49.5t-1 88.5q-1 68 -2.5 134t-2.5 99q-4 102 -6 169.5t-2 156.5l2 235l4 326q-1 16 4.5 23.5t25.5 10.5t64 5q31 2 78.5 3.5t87.5 1.5h51t29.5 -0.5t15.5 -1.5t8 -3t7 -5.5t7 -5.5q4 -8 4 -18t-5 -18
q-4 -5 -8 -8t-13.5 -4.5t-28.5 -1.5l-95 2q-11 0 -16.5 -0.5t-8 -1.5t-2.5 -2l-1 -5q0 -19 6 -90q5 -80 5 -196q0 -83 2 -215.5t5 -202.5l2 -48q40 3 61.5 4.5t32.5 1.5q8 0 11.5 -1t7.5 -3q16 -11 16 -28q0 -7 -3 -14q-4 -8 -8.5 -12t-14.5 -6t-28 -4q-15 -2 -31 -3t-23 -1
h-19q1 -15 1.5 -25.5t1.5 -27.5t2 -51q1 -12 2 -26q2 -34 5 -87.5t6 -102.5l2 -36q2 -36 4 -62.5t2 -32.5q0 -7 1 -12.5t2 -6.5h3q11 0 45.5 3.5t79.5 9.5q24 3 36.5 5t19.5 2q4 0 7 -1t7 -2q22 -13 22 -32q0 -16 -15 -26q-10 -4 -59.5 -11.5t-113.5 -13.5q-74 -7 -129 -7z
M151 1500h-5q-9 0 -15 3q-30 15 -30 43v3q2 28 33 55q10 9 23 16.5t36.5 17t65.5 24.5q51 19 75.5 27t36.5 8h2q5 0 9.5 -2t9.5 -6q2 -1 3 -2q15 -10 24 -26.5t9 -32.5l-1 -6q-2 -19 -25.5 -35.5t-81.5 -37.5q-125 -49 -169 -49z" />
    <glyph glyph-name="Ecircumflex" unicode="&#xca;" horiz-adv-x="621" 
d="M233 3q-34 0 -51 3q-70 10 -92 89q-2 7 -3.5 15t-2 25t-1.5 49.5t-1 88.5q-1 68 -2.5 134t-2.5 99q-4 102 -6 169.5t-2 156.5l2 235l4 326q-1 16 4.5 23.5t25.5 10.5t64 5q31 2 78.5 3.5t87.5 1.5h51t29.5 -0.5t15.5 -1.5t8 -3t7 -5.5t7 -5.5q4 -8 4 -18t-5 -18
q-4 -5 -8 -8t-13.5 -4.5t-28.5 -1.5l-95 2q-11 0 -16.5 -0.5t-8 -1.5t-2.5 -2l-1 -5q0 -19 6 -90q5 -80 5 -196q0 -83 2 -215.5t5 -202.5l2 -48q40 3 61.5 4.5t32.5 1.5q8 0 11.5 -1t7.5 -3q16 -11 16 -28q0 -7 -3 -14q-4 -8 -8.5 -12t-14.5 -6t-28 -4q-15 -2 -31 -3t-23 -1
h-19q1 -15 1.5 -25.5t1.5 -27.5t2 -51q1 -12 2 -26q2 -34 5 -87.5t6 -102.5l2 -36q2 -36 4 -62.5t2 -32.5q0 -7 1 -12.5t2 -6.5h3q11 0 45.5 3.5t79.5 9.5q24 3 36.5 5t19.5 2q4 0 7 -1t7 -2q22 -13 22 -32q0 -16 -15 -26q-10 -4 -59.5 -11.5t-113.5 -13.5q-74 -7 -129 -7z
M108 1500q-1 1 -3 1t-4 1q-11 3 -19.5 16.5t-8.5 28.5v5q3 12 22 43.5t43 66.5t43 56q6 6 14 12t15 10q10 5 17.5 6.5t23.5 1.5t24 -1.5t17 -5.5q27 -12 49 -35.5t49 -67.5q36 -57 39 -85v-3q0 -21 -22 -34q-8 -4 -16 -4q-27 0 -71 44q-27 27 -42 37t-28 10q-4 0 -10.5 -1.5
t-10.5 -3.5t-19 -15.5t-34 -32.5q-25 -26 -37 -35.5t-18 -11.5q-7 -1 -10 -2q-2 -1 -3 -1z" />
    <glyph glyph-name="Edieresis" unicode="&#xcb;" horiz-adv-x="621" 
d="M233 3q-34 0 -51 3q-70 10 -92 89q-2 7 -3.5 15t-2 25t-1.5 49.5t-1 88.5q-1 68 -2.5 134t-2.5 99q-4 102 -6 169.5t-2 156.5l2 235l4 326q-1 16 4.5 23.5t25.5 10.5t64 5q31 2 78.5 3.5t87.5 1.5h51t29.5 -0.5t15.5 -1.5t8 -3t7 -5.5t7 -5.5q4 -8 4 -18t-5 -18
q-4 -5 -8 -8t-13.5 -4.5t-28.5 -1.5l-95 2q-11 0 -16.5 -0.5t-8 -1.5t-2.5 -2l-1 -5q0 -19 6 -90q5 -80 5 -196q0 -83 2 -215.5t5 -202.5l2 -48q40 3 61.5 4.5t32.5 1.5q8 0 11.5 -1t7.5 -3q16 -11 16 -28q0 -7 -3 -14q-4 -8 -8.5 -12t-14.5 -6t-28 -4q-15 -2 -31 -3t-23 -1
h-19q1 -15 1.5 -25.5t1.5 -27.5t2 -51q1 -12 2 -26q2 -34 5 -87.5t6 -102.5l2 -36q2 -36 4 -62.5t2 -32.5q0 -7 1 -12.5t2 -6.5h3q11 0 45.5 3.5t79.5 9.5q24 3 36.5 5t19.5 2q4 0 7 -1t7 -2q22 -13 22 -32q0 -16 -15 -26q-10 -4 -59.5 -11.5t-113.5 -13.5q-74 -7 -129 -7z
M362 1502q-13 0 -26 5q-38 18 -56 65q-3 8 -4 14.5t-1 17.5v13q1 17 2.5 25.5t6.5 18.5q8 14 20 26t23 15q5 1 13 1.5t14 0.5q12 0 18 -1.5t16 -8.5q48 -35 48 -96v-3q0 -41 -22 -67t-52 -26zM150 1500q-11 0 -21 3q-13 4 -21.5 9.5t-16.5 14.5q-28 34 -28 77q0 26 11 50
q15 30 41 43q8 4 13.5 5.5t11.5 1.5h11q36 -1 59 -28q25 -23 25 -76q0 -12 -0.5 -19t-2.5 -13t-6 -14q-31 -54 -76 -54z" />
    <glyph glyph-name="Igrave" unicode="&#xcc;" horiz-adv-x="375" 
d="M205 -7l-15 1q-60 10 -84 36q-16 17 -22.5 47.5t-10.5 97.5q-1 38 -1.5 198t-0.5 347q0 188 0.5 343t1.5 183q5 71 12 121t14 60q21 19 89 19l33 -1q37 -3 52 -9t23 -21q5 -6 7 -11t2 -14v-30q0 -17 -1 -50.5t-3 -65.5q-2 -39 -2.5 -157.5t-0.5 -261.5q0 -142 0.5 -271.5
t2.5 -189.5q2 -74 3 -161q1 -30 1 -54v-61t-0.5 -33t-2 -16t-4.5 -9q-8 -21 -22 -28.5t-47 -7.5zM314 1500h-8q-27 5 -74 18t-92.5 28t-65.5 25q-34 23 -34 58q0 21 13 41l16.5 19.5t11 8.5t15.5 3q2 0 3 1q6 1 11 1q8 0 24.5 -5t56.5 -20q8 -3 17 -6q34 -11 51 -17.5
t26.5 -11t20.5 -9.5q2 -1 3 -2q49 -25 62 -59q3 -7 4.5 -13.5t1.5 -9.5q0 -12 -7.5 -25t-20.5 -20q-5 -2 -15.5 -3.5t-19.5 -1.5z" />
    <glyph glyph-name="Iacute" unicode="&#xcd;" horiz-adv-x="375" 
d="M205 -7l-15 1q-60 10 -84 36q-16 17 -22.5 47.5t-10.5 97.5q-1 38 -1.5 198t-0.5 347q0 188 0.5 343t1.5 183q5 71 12 121t14 60q21 19 89 19l33 -1q37 -3 52 -9t23 -21q5 -6 7 -11t2 -14v-30q0 -17 -1 -50.5t-3 -65.5q-2 -39 -2.5 -157.5t-0.5 -261.5q0 -142 0.5 -271.5
t2.5 -189.5q2 -74 3 -161q1 -30 1 -54v-61t-0.5 -33t-2 -16t-4.5 -9q-8 -21 -22 -28.5t-47 -7.5zM78 1500h-5q-9 0 -15 3q-30 15 -30 43v3q2 28 33 55q10 9 23 16.5t36.5 17t65.5 24.5q51 19 75.5 27t36.5 8h2q5 0 9.5 -2t9.5 -6q2 -1 3 -2q15 -10 24 -26.5t9 -32.5l-1 -6
q-2 -19 -25.5 -35.5t-81.5 -37.5q-125 -49 -169 -49z" />
    <glyph glyph-name="Icircumflex" unicode="&#xce;" horiz-adv-x="375" 
d="M205 -7l-15 1q-60 10 -84 36q-16 17 -22.5 47.5t-10.5 97.5q-1 38 -1.5 198t-0.5 347q0 188 0.5 343t1.5 183q5 71 12 121t14 60q21 19 89 19l33 -1q37 -3 52 -9t23 -21q5 -6 7 -11t2 -14v-30q0 -17 -1 -50.5t-3 -65.5q-2 -39 -2.5 -157.5t-0.5 -261.5q0 -142 0.5 -271.5
t2.5 -189.5q2 -74 3 -161q1 -30 1 -54v-61t-0.5 -33t-2 -16t-4.5 -9q-8 -21 -22 -28.5t-47 -7.5zM45 1500q-1 1 -3 1t-4 1q-11 3 -19.5 16.5t-8.5 28.5v5q3 12 22 43.5t43 66.5t43 56q6 6 14 12t15 10q10 5 17.5 6.5t23.5 1.5t24 -1.5t17 -5.5q27 -12 49 -35.5t49 -67.5
q36 -57 39 -85v-3q0 -21 -22 -34q-8 -4 -16 -4q-27 0 -71 44q-27 27 -42 37t-28 10q-4 0 -10.5 -1.5t-10.5 -3.5t-19 -15.5t-34 -32.5q-25 -26 -37 -35.5t-18 -11.5q-7 -1 -10 -2q-2 -1 -3 -1z" />
    <glyph glyph-name="Idieresis" unicode="&#xcf;" horiz-adv-x="375" 
d="M205 -7l-15 1q-60 10 -84 36q-16 17 -22.5 47.5t-10.5 97.5q-1 38 -1.5 198t-0.5 347q0 188 0.5 343t1.5 183q5 71 12 121t14 60q21 19 89 19l33 -1q37 -3 52 -9t23 -21q5 -6 7 -11t2 -14v-30q0 -17 -1 -50.5t-3 -65.5q-2 -39 -2.5 -157.5t-0.5 -261.5q0 -142 0.5 -271.5
t2.5 -189.5q2 -74 3 -161q1 -30 1 -54v-61t-0.5 -33t-2 -16t-4.5 -9q-8 -21 -22 -28.5t-47 -7.5zM299 1502q-13 0 -26 5q-38 18 -56 65q-3 8 -4 14.5t-1 17.5v13q1 17 2.5 25.5t6.5 18.5q8 14 20 26t23 15q5 1 13 1.5t14 0.5q12 0 18 -1.5t16 -8.5q48 -35 48 -96v-3
q0 -41 -22 -67t-52 -26zM87 1500q-11 0 -21 3q-13 4 -21.5 9.5t-16.5 14.5q-28 34 -28 77q0 26 11 50q15 30 41 43q8 4 13.5 5.5t11.5 1.5h11q36 -1 59 -28q25 -23 25 -76q0 -12 -0.5 -19t-2.5 -13t-6 -14q-31 -54 -76 -54z" />
    <glyph glyph-name="Eth" unicode="&#xd0;" horiz-adv-x="762" 
d="M257 0q-52 0 -55 1q-63 13 -82 63q-10 24 -14 136q-3 125 -8 239l-4 95q-47 3 -99 10q-28 26 -28 112q0 41 4 50q20 24 117 30l-3 153q-5 412 -16 492q0 19 15.5 30.5t41.5 11.5q9 0 16.5 -1t61.5 -18q413 -140 483 -693q5 -52 5 -128q0 -55 -3 -91q-23 -195 -107 -319
q-33 -45 -91.5 -89.5t-113.5 -63t-120 -20.5zM358 81q5 0 28 12.5t52.5 32.5t55.5 43q62 60 98.5 177t36.5 248q0 157 -50.5 312.5t-125.5 251.5q-62 74 -144 129q0 -2 -0.5 -3.5t-0.5 -3t-0.5 -3t-0.5 -10.5q0 -27 2 -61q3 -49 3 -475q42 -2 69 -2q17 0 26 1q1 -2 4 -5
t5 -6t4 -10.5t3.5 -35t1.5 -58.5q0 -32 -2 -44q-6 -34 -30 -39l-78 -2q9 -224 26 -367q10 -82 17 -82z" />
    <glyph glyph-name="Ntilde" unicode="&#xd1;" horiz-adv-x="762" 
d="M230 5h-18q-15 0 -31.5 1t-27.5 3q-61 10 -76 49q0 2 -1 10.5t-1.5 30.5t-0.5 63t-0.5 107t-0.5 163v231q0 22 -1 44q0 264 -0.5 452.5t-1.5 201.5v8q0 30 30 32q4 0 16 2t24 5l28 4t22 2h10q7 0 12 -1.5t10 -5.5q15 -8 26.5 -29.5t26.5 -69t37 -133.5l59 -219
q6 -22 10 -35q2 -6 2 -8l17 -61q17 -59 52 -178t67 -226.5t39 -131.5l31 -93q4 -8 6 -13.5l2 -5.5q1 0 2 11.5t1 27.5l7 132q10 169 14.5 340t5.5 409q1 19 1 36q0 63 0.5 103t1.5 62.5t2.5 33t4.5 14t8 5.5l1 1q8 4 15 4t14 -5q2 -1 3 -1q4 -3 7 -7t4.5 -14.5t2 -32.5
t0.5 -62l-1 -153q-2 -448 -19 -722l-9 -170q-3 -61 -5.5 -97t-5.5 -54.5t-8 -25.5t-13 -11l-10 -4t-8 -2q-6 0 -14.5 6t-13.5 13q-4 9 -21 56.5t-42 119.5l-13 39q-13 38 -62 203l-67 228l-67 236q-16 61 -28 103q-8 29 -10 36q-3 13 -4 13l1 -93q2 -32 4 -94.5t3 -125.5
l6 -198q2 -32 4 -84q1 -26 2 -48q1 -35 3 -87t4 -98q4 -76 4 -123q0 -66 -7 -79q-9 -25 -33 -35q-6 -3 -13 -4t-19 -1zM500 1500q-16 0 -33 6q-18 7 -35 23t-50 57q-29 40 -64 40q-13 0 -29 -6q-29 -11 -56 -58q-15 -29 -32 -29q-8 0 -17 5q-14 8 -14 27q0 6 1 14
q13 76 59 120q58 55 122 55q31 0 61 -14q41 -19 64 -72q14 -28 20 -39t10 -11q3 0 6 4q8 9 16.5 25.5t12.5 30.5q8 31 26 35l11 2q11 0 21 -7.5t12 -20.5l1 -15l-1 -25q-3 -69 -48 -116q-29 -31 -64 -31z" />
    <glyph glyph-name="Ograve" unicode="&#xd2;" 
d="M325 -1q-15 0 -25 2q-15 3 -33.5 12.5t-31.5 18.5q-48 38 -87 135q-77 187 -77 453v32q2 199 56 414q28 114 68 197q6 10 9.5 18t4.5 11q3 6 16 26.5t27 40.5t20 26q22 20 58 33t68 13h6q11 0 18 -2q82 -15 145 -92q54 -60 85 -182q30 -111 30 -260q0 -161 -34 -368
q-39 -252 -107 -376q-61 -118 -150 -144q-12 -4 -30.5 -6t-35.5 -2zM362 69l5 1q4 1 10.5 3t11.5 4q65 24 118 140q65 139 102 453q8 60 11 100t3 93l1 40q0 116 -18 193q-9 46 -25 90t-32 72q-15 25 -41 50.5t-46 35.5q-5 3 -8 3q-5 -1 -10.5 -7t-15.5 -20
q-42 -70 -79 -205.5t-53 -282.5q-9 -80 -12 -134.5t-3 -134.5q1 -196 28 -355q9 -50 17.5 -77t22.5 -49q5 -7 7 -10t6 -3zM524 1500h-8q-27 5 -74 18t-92.5 28t-65.5 25q-34 23 -34 58q0 21 13 41l16.5 19.5t11 8.5t15.5 3q2 0 3 1q6 1 11 1q8 0 24.5 -5t56.5 -20
q8 -3 17 -6q34 -11 51 -17.5t26.5 -11t20.5 -9.5q2 -1 3 -2q49 -25 62 -59q3 -7 4.5 -13.5t1.5 -9.5q0 -12 -7.5 -25t-20.5 -20q-5 -2 -15.5 -3.5t-19.5 -1.5z" />
    <glyph glyph-name="Oacute" unicode="&#xd3;" 
d="M325 -1q-15 0 -25 2q-15 3 -33.5 12.5t-31.5 18.5q-48 38 -87 135q-77 187 -77 453v32q2 199 56 414q28 114 68 197q6 10 9.5 18t4.5 11q3 6 16 26.5t27 40.5t20 26q22 20 58 33t68 13h6q11 0 18 -2q82 -15 145 -92q54 -60 85 -182q30 -111 30 -260q0 -161 -34 -368
q-39 -252 -107 -376q-61 -118 -150 -144q-12 -4 -30.5 -6t-35.5 -2zM362 69l5 1q4 1 10.5 3t11.5 4q65 24 118 140q65 139 102 453q8 60 11 100t3 93l1 40q0 116 -18 193q-9 46 -25 90t-32 72q-15 25 -41 50.5t-46 35.5q-5 3 -8 3q-5 -1 -10.5 -7t-15.5 -20
q-42 -70 -79 -205.5t-53 -282.5q-9 -80 -12 -134.5t-3 -134.5q1 -196 28 -355q9 -50 17.5 -77t22.5 -49q5 -7 7 -10t6 -3zM296 1500h-5q-9 0 -15 3q-30 15 -30 43v3q2 28 33 55q10 9 23 16.5t36.5 17t65.5 24.5q51 19 75.5 27t36.5 8h2q5 0 9.5 -2t9.5 -6q2 -1 3 -2
q15 -10 24 -26.5t9 -32.5l-1 -6q-2 -19 -25.5 -35.5t-81.5 -37.5q-125 -49 -169 -49z" />
    <glyph glyph-name="Ocircumflex" unicode="&#xd4;" 
d="M325 -1q-15 0 -25 2q-15 3 -33.5 12.5t-31.5 18.5q-48 38 -87 135q-77 187 -77 453v32q2 199 56 414q28 114 68 197q6 10 9.5 18t4.5 11q3 6 16 26.5t27 40.5t20 26q22 20 58 33t68 13h6q11 0 18 -2q82 -15 145 -92q54 -60 85 -182q30 -111 30 -260q0 -161 -34 -368
q-39 -252 -107 -376q-61 -118 -150 -144q-12 -4 -30.5 -6t-35.5 -2zM362 69l5 1q4 1 10.5 3t11.5 4q65 24 118 140q65 139 102 453q8 60 11 100t3 93l1 40q0 116 -18 193q-9 46 -25 90t-32 72q-15 25 -41 50.5t-46 35.5q-5 3 -8 3q-5 -1 -10.5 -7t-15.5 -20
q-42 -70 -79 -205.5t-53 -282.5q-9 -80 -12 -134.5t-3 -134.5q1 -196 28 -355q9 -50 17.5 -77t22.5 -49q5 -7 7 -10t6 -3zM233 1500q-1 1 -3 1t-4 1q-11 3 -19.5 16.5t-8.5 28.5v5q3 12 22 43.5t43 66.5t43 56q6 6 14 12t15 10q10 5 17.5 6.5t23.5 1.5t24 -1.5t17 -5.5
q27 -12 49 -35.5t49 -67.5q36 -57 39 -85v-3q0 -21 -22 -34q-8 -4 -16 -4q-27 0 -71 44q-27 27 -42 37t-28 10q-4 0 -10.5 -1.5t-10.5 -3.5t-19 -15.5t-34 -32.5q-25 -26 -37 -35.5t-18 -11.5q-7 -1 -10 -2q-2 -1 -3 -1z" />
    <glyph glyph-name="Otilde" unicode="&#xd5;" 
d="M325 -1q-15 0 -25 2q-15 3 -33.5 12.5t-31.5 18.5q-48 38 -87 135q-77 187 -77 453v32q2 199 56 414q28 114 68 197q6 10 9.5 18t4.5 11q3 6 16 26.5t27 40.5t20 26q22 20 58 33t68 13h6q11 0 18 -2q82 -15 145 -92q54 -60 85 -182q30 -111 30 -260q0 -161 -34 -368
q-39 -252 -107 -376q-61 -118 -150 -144q-12 -4 -30.5 -6t-35.5 -2zM362 69l5 1q4 1 10.5 3t11.5 4q65 24 118 140q65 139 102 453q8 60 11 100t3 93l1 40q0 116 -18 193q-9 46 -25 90t-32 72q-15 25 -41 50.5t-46 35.5q-5 3 -8 3q-5 -1 -10.5 -7t-15.5 -20
q-42 -70 -79 -205.5t-53 -282.5q-9 -80 -12 -134.5t-3 -134.5q1 -196 28 -355q9 -50 17.5 -77t22.5 -49q5 -7 7 -10t6 -3zM525 1500q-16 0 -33 6q-18 7 -35 23t-50 57q-29 40 -64 40q-13 0 -29 -6q-29 -11 -56 -58q-15 -29 -32 -29q-8 0 -17 5q-14 8 -14 27q0 6 1 14
q13 76 59 120q58 55 122 55q31 0 61 -14q41 -19 64 -72q14 -28 20 -39t10 -11q3 0 6 4q8 9 16.5 25.5t12.5 30.5q8 31 26 35l11 2q11 0 21 -7.5t12 -20.5l1 -15l-1 -25q-3 -69 -48 -116q-29 -31 -64 -31z" />
    <glyph glyph-name="Odieresis" unicode="&#xd6;" 
d="M325 -1q-15 0 -25 2q-15 3 -33.5 12.5t-31.5 18.5q-48 38 -87 135q-77 187 -77 453v32q2 199 56 414q28 114 68 197q6 10 9.5 18t4.5 11q3 6 16 26.5t27 40.5t20 26q22 20 58 33t68 13h6q11 0 18 -2q82 -15 145 -92q54 -60 85 -182q30 -111 30 -260q0 -161 -34 -368
q-39 -252 -107 -376q-61 -118 -150 -144q-12 -4 -30.5 -6t-35.5 -2zM362 69l5 1q4 1 10.5 3t11.5 4q65 24 118 140q65 139 102 453q8 60 11 100t3 93l1 40q0 116 -18 193q-9 46 -25 90t-32 72q-15 25 -41 50.5t-46 35.5q-5 3 -8 3q-5 -1 -10.5 -7t-15.5 -20
q-42 -70 -79 -205.5t-53 -282.5q-9 -80 -12 -134.5t-3 -134.5q1 -196 28 -355q9 -50 17.5 -77t22.5 -49q5 -7 7 -10t6 -3zM487 1502q-13 0 -26 5q-38 18 -56 65q-3 8 -4 14.5t-1 17.5v13q1 17 2.5 25.5t6.5 18.5q8 14 20 26t23 15q5 1 13 1.5t14 0.5q12 0 18 -1.5t16 -8.5
q48 -35 48 -96v-3q0 -41 -22 -67t-52 -26zM275 1500q-11 0 -21 3q-13 4 -21.5 9.5t-16.5 14.5q-28 34 -28 77q0 26 11 50q15 30 41 43q8 4 13.5 5.5t11.5 1.5h11q36 -1 59 -28q25 -23 25 -76q0 -12 -0.5 -19t-2.5 -13t-6 -14q-31 -54 -76 -54z" />
    <glyph glyph-name="multiply" unicode="&#xd7;" horiz-adv-x="772" 
d="M190 302q-18 0 -69 50l-17 16q-34 35 -34 57q0 17 15 36l154 156q-71 75 -150 166q-2 10 -2 20q0 43 48 91l9 10q24 20 31 22q49 -6 213 -166q80 74 169 149q10 3 19 3q41 0 86 -45q32 -31 37 -46q-8 -46 -143 -183l-24 -25l37 -39q101 -105 129 -131q4 -10 4 -21
q0 -20 -67 -85q-22 -22 -32.5 -27.5t-22.5 -5.5q-17 0 -36 14l-161 153l-42 -39q-112 -103 -132 -128q-11 -2 -19 -2z" />
    <glyph glyph-name="Oslash" unicode="&#xd8;" 
d="M388 77h1q65 24 118 140q65 139 102 453q7 60 10 100t4 93v40q0 57 -4 105q-70 -268 -196 -787q-15 -67 -29 -121q-3 -13 -6 -23zM281 564l24 99q26 103 69.5 257.5t91.5 317.5q14 44 25 86q-16 13 -29 20q-5 3 -8 3q-5 -1 -10.5 -7t-15.5 -20q-42 -70 -79 -205.5
t-53 -282.5q-9 -80 -12 -134q-3 -55 -3 -134zM367 2q-11 -35 -22 -52q-16 -23 -41 -30q-5 -1 -15.5 -2t-21.5 -1l-20 1q-10 2 -24 6t-26.5 7.5t-16.5 5.5q-3 2 -6.5 3t-6.5 1q-7 1 -14 5.5t-10 9.5q-2 4 -2 12q0 21 14 77l16 71q-12 23 -23 51q-77 187 -77 453v32
q2 199 56 414q28 114 68 197l9 18t5 11q3 6 16 26.5t27 40.5t20 26q21 20 57 33t69 13h6q11 0 18 -2q47 -9 87 -37q3 6 4 12q4 13 6.5 22.5t3.5 11.5q5 7 20 11.5t36 6.5h14q19 0 44 -1.5t45 -4t25 -5.5q14 -9 14 -23l-15 -76q-10 -51 -20 -90t-29 -105q-1 -4 -2 -7
q27 -108 27 -249q0 -161 -34 -368q-39 -252 -107 -376q-61 -118 -150 -144q-10 -3 -24 -5z" />
    <glyph glyph-name="Ugrave" unicode="&#xd9;" horiz-adv-x="700" 
d="M357 0q-33 0 -64 6q-111 24 -172 130q-15 23 -24 69.5t-14 159t-7.5 333.5t-4.5 593v34q0 34 1.5 51.5t6 25t12.5 11.5t30.5 6t48.5 2q24 0 46.5 -2t34.5 -5q52 -9 58 -123q5 -69 5 -177q0 -91 -4 -190q-5 -125 -5 -279q0 -107 2.5 -175t8.5 -203q3 -40 4 -82
q2 -35 3 -56q1 -23 2 -39t2 -18t7.5 -3t15.5 -1q11 0 24 1.5t22 4.5q98 30 136 133q17 46 24 115.5t7 189.5q0 82 -3 230t-7 258l-4 202l-1 98q0 17 0.5 25t1.5 11.5t3 6.5q12 15 28 15t27 -14q2 -2 3 -8.5t1.5 -23t1.5 -47.5t2 -82q1 -50 3 -107q1 -96 3 -159
q9 -291 9 -417q0 -63 -2 -104.5t-7 -82.5q-12 -129 -62 -201q-12 -18 -33 -38t-40 -33q-18 -12 -39.5 -21.5t-41.5 -14.5t-49 -5zM479 1500h-8q-27 5 -74 18t-92.5 28t-65.5 25q-34 23 -34 58q0 21 13 41l16.5 19.5t11 8.5t15.5 3q2 0 3 1q6 1 11 1q8 0 24.5 -5t56.5 -20
q8 -3 17 -6q34 -11 51 -17.5t26.5 -11t20.5 -9.5q2 -1 3 -2q49 -25 62 -59q3 -7 4.5 -13.5t1.5 -9.5q0 -12 -7.5 -25t-20.5 -20q-5 -2 -15.5 -3.5t-19.5 -1.5z" />
    <glyph glyph-name="Uacute" unicode="&#xda;" horiz-adv-x="700" 
d="M357 0q-33 0 -64 6q-111 24 -172 130q-15 23 -24 69.5t-14 159t-7.5 333.5t-4.5 593v34q0 34 1.5 51.5t6 25t12.5 11.5t30.5 6t48.5 2q24 0 46.5 -2t34.5 -5q52 -9 58 -123q5 -69 5 -177q0 -91 -4 -190q-5 -125 -5 -279q0 -107 2.5 -175t8.5 -203q3 -40 4 -82
q2 -35 3 -56q1 -23 2 -39t2 -18t7.5 -3t15.5 -1q11 0 24 1.5t22 4.5q98 30 136 133q17 46 24 115.5t7 189.5q0 82 -3 230t-7 258l-4 202l-1 98q0 17 0.5 25t1.5 11.5t3 6.5q12 15 28 15t27 -14q2 -2 3 -8.5t1.5 -23t1.5 -47.5t2 -82q1 -50 3 -107q1 -96 3 -159
q9 -291 9 -417q0 -63 -2 -104.5t-7 -82.5q-12 -129 -62 -201q-12 -18 -33 -38t-40 -33q-18 -12 -39.5 -21.5t-41.5 -14.5t-49 -5zM251 1500h-5q-9 0 -15 3q-30 15 -30 43v3q2 28 33 55q10 9 23 16.5t36.5 17t65.5 24.5q51 19 75.5 27t36.5 8h2q5 0 9.5 -2t9.5 -6q2 -1 3 -2
q15 -10 24 -26.5t9 -32.5l-1 -6q-2 -19 -25.5 -35.5t-81.5 -37.5q-125 -49 -169 -49z" />
    <glyph glyph-name="Ucircumflex" unicode="&#xdb;" horiz-adv-x="700" 
d="M357 0q-33 0 -64 6q-111 24 -172 130q-15 23 -24 69.5t-14 159t-7.5 333.5t-4.5 593v34q0 34 1.5 51.5t6 25t12.5 11.5t30.5 6t48.5 2q24 0 46.5 -2t34.5 -5q52 -9 58 -123q5 -69 5 -177q0 -91 -4 -190q-5 -125 -5 -279q0 -107 2.5 -175t8.5 -203q3 -40 4 -82
q2 -35 3 -56q1 -23 2 -39t2 -18t7.5 -3t15.5 -1q11 0 24 1.5t22 4.5q98 30 136 133q17 46 24 115.5t7 189.5q0 82 -3 230t-7 258l-4 202l-1 98q0 17 0.5 25t1.5 11.5t3 6.5q12 15 28 15t27 -14q2 -2 3 -8.5t1.5 -23t1.5 -47.5t2 -82q1 -50 3 -107q1 -96 3 -159
q9 -291 9 -417q0 -63 -2 -104.5t-7 -82.5q-12 -129 -62 -201q-12 -18 -33 -38t-40 -33q-18 -12 -39.5 -21.5t-41.5 -14.5t-49 -5zM228 1500q-1 1 -3 1t-4 1q-11 3 -19.5 16.5t-8.5 28.5v5q3 12 22 43.5t43 66.5t43 56q6 6 14 12t15 10q10 5 17.5 6.5t23.5 1.5t24 -1.5
t17 -5.5q27 -12 49 -35.5t49 -67.5q36 -57 39 -85v-3q0 -21 -22 -34q-8 -4 -16 -4q-27 0 -71 44q-27 27 -42 37t-28 10q-4 0 -10.5 -1.5t-10.5 -3.5t-19 -15.5t-34 -32.5q-25 -26 -37 -35.5t-18 -11.5q-7 -1 -10 -2q-2 -1 -3 -1z" />
    <glyph glyph-name="Udieresis" unicode="&#xdc;" horiz-adv-x="700" 
d="M357 0q-33 0 -64 6q-111 24 -172 130q-15 23 -24 69.5t-14 159t-7.5 333.5t-4.5 593v34q0 34 1.5 51.5t6 25t12.5 11.5t30.5 6t48.5 2q24 0 46.5 -2t34.5 -5q52 -9 58 -123q5 -69 5 -177q0 -91 -4 -190q-5 -125 -5 -279q0 -107 2.5 -175t8.5 -203q3 -40 4 -82
q2 -35 3 -56q1 -23 2 -39t2 -18t7.5 -3t15.5 -1q11 0 24 1.5t22 4.5q98 30 136 133q17 46 24 115.5t7 189.5q0 82 -3 230t-7 258l-4 202l-1 98q0 17 0.5 25t1.5 11.5t3 6.5q12 15 28 15t27 -14q2 -2 3 -8.5t1.5 -23t1.5 -47.5t2 -82q1 -50 3 -107q1 -96 3 -159
q9 -291 9 -417q0 -63 -2 -104.5t-7 -82.5q-12 -129 -62 -201q-12 -18 -33 -38t-40 -33q-18 -12 -39.5 -21.5t-41.5 -14.5t-49 -5zM482 1502q-13 0 -26 5q-38 18 -56 65q-3 8 -4 14.5t-1 17.5v13q1 17 2.5 25.5t6.5 18.5q8 14 20 26t23 15q5 1 13 1.5t14 0.5q12 0 18 -1.5
t16 -8.5q48 -35 48 -96v-3q0 -41 -22 -67t-52 -26zM270 1500q-11 0 -21 3q-13 4 -21.5 9.5t-16.5 14.5q-28 34 -28 77q0 26 11 50q15 30 41 43q8 4 13.5 5.5t11.5 1.5h11q36 -1 59 -28q25 -23 25 -76q0 -12 -0.5 -19t-2.5 -13t-6 -14q-31 -54 -76 -54z" />
    <glyph glyph-name="Yacute" unicode="&#xdd;" horiz-adv-x="721" 
d="M353 0q-4 0 -7 2t-9 8l-11 12v431q-38 3 -64.5 8t-55.5 19q-43 20 -70 52q-27 31 -41 77.5t-20 128.5q-2 25 -3.5 61t-1.5 105.5v200.5v302l9 10q1 0 1 1q4 3 7 5t8.5 2.5t17.5 0.5q11 0 30.5 1t37.5 3q25 2 45 2q44 0 61 -11q16 -10 23 -36t7 -89l-2 -85
q-5 -163 -5 -317q0 -229 10 -337l4 -37q54 4 95.5 16.5t72.5 42.5q57 52 79 173q7 33 10 64.5t3 90.5l-1 78q-1 95 -3.5 167t-7.5 151l-1 41q0 19 2.5 26.5t9.5 12.5q8 5 18 5t18.5 -4.5t12.5 -12.5q11 -35 18 -362l1 -92q0 -98 -8 -146q-31 -207 -149 -275
q-19 -11 -44 -20.5t-43 -13.5l-16 -3q0 -4 -0.5 -6t-0.5 -3q-1 -1 -1 -2.5v-5.5t-0.5 -11.5t-0.5 -20.5l2 -70q1 -28 1.5 -99.5t0.5 -125.5v-52l-1 -44l-5 -5q-6 -7 -10.5 -9.5t-14.5 -3.5zM302 1500h-5q-9 0 -15 3q-30 15 -30 43v3q2 28 33 55q10 9 23 16.5t36.5 17
t65.5 24.5q51 19 75.5 27t36.5 8h2q5 0 9.5 -2t9.5 -6q2 -1 3 -2q15 -10 24 -26.5t9 -32.5l-1 -6q-2 -19 -25.5 -35.5t-81.5 -37.5q-125 -49 -169 -49z" />
    <glyph glyph-name="Ydieresis" unicode="&#x178;" horiz-adv-x="721" 
d="M353 0q-4 0 -7 2t-9 8l-11 12v431q-38 3 -64.5 8t-55.5 19q-43 20 -70 52q-27 31 -41 77.5t-20 128.5q-2 25 -3.5 61t-1.5 105.5v200.5v302l9 10q1 0 1 1q4 3 7 5t8.5 2.5t17.5 0.5q11 0 30.5 1t37.5 3q25 2 45 2q44 0 61 -11q16 -10 23 -36t7 -89l-2 -85
q-5 -163 -5 -317q0 -229 10 -337l4 -37q54 4 95.5 16.5t72.5 42.5q57 52 79 173q7 33 10 64.5t3 90.5l-1 78q-1 95 -3.5 167t-7.5 151l-1 41q0 19 2.5 26.5t9.5 12.5q8 5 18 5t18.5 -4.5t12.5 -12.5q11 -35 18 -362l1 -92q0 -98 -8 -146q-31 -207 -149 -275
q-19 -11 -44 -20.5t-43 -13.5l-16 -3q0 -4 -0.5 -6t-0.5 -3q-1 -1 -1 -2.5v-5.5t-0.5 -11.5t-0.5 -20.5l2 -70q1 -28 1.5 -99.5t0.5 -125.5v-52l-1 -44l-5 -5q-6 -7 -10.5 -9.5t-14.5 -3.5zM493 1502q-13 0 -26 5q-38 18 -56 65q-3 8 -4 14.5t-1 17.5v13q1 17 2.5 25.5
t6.5 18.5q8 14 20 26t23 15q5 1 13 1.5t14 0.5q12 0 18 -1.5t16 -8.5q48 -35 48 -96v-3q0 -41 -22 -67t-52 -26zM281 1500q-11 0 -21 3q-13 4 -21.5 9.5t-16.5 14.5q-28 34 -28 77q0 26 11 50q15 30 41 43q8 4 13.5 5.5t11.5 1.5h11q36 -1 59 -28q25 -23 25 -76
q0 -12 -0.5 -19t-2.5 -13t-6 -14q-31 -54 -76 -54z" />
    <glyph glyph-name="Thorn" unicode="&#xde;" horiz-adv-x="709" 
 />
    <glyph glyph-name="germandbls" unicode="&#xdf;" horiz-adv-x="642" 
d="M173 -31l-15 1q-52 4 -64 56q-2 15 -6 111t-7.5 215t-6.5 202q0 53 -1 123.5t-1 120.5v195t-1 119v55q0 91 3 197q1 37 4.5 55.5t14.5 26t33 12.5q11 3 30 5t39 3l30 1q24 0 35 -3q28 -7 43 -27q8 -11 11.5 -27t3.5 -48l-1 -18q0 -20 0.5 -34.5t0.5 -15.5l16 11
q42 36 94 36l13 -1q95 -9 147 -112q24 -46 24 -112v-3q0 -193 -178 -303l-18 -11q81 -33 125 -116q8 -16 12.5 -25.5t7.5 -17.5t6 -21q15 -46 15 -88l-1 -19q-1 -21 -3 -35t-10 -41q-16 -59 -55 -112t-86 -80q-6 -4 -13 -4q-12 0 -22 9t-11 23v3q0 19 27 37q30 23 55 58
t36 72q15 45 15 87q0 58 -30 116q-28 59 -74 86q-15 9 -33.5 15.5t-33.5 8.5l-13 1l-1 -20q0 -23 2 -93.5t5 -162.5q3 -96 5 -199.5t2 -144.5l-1 -16q-1 -73 -20 -100t-80 -40q-39 -11 -69 -11zM328 830q2 0 13 6t27 14q1 0 2 1q101 53 139 123q37 72 37 142q0 18 -3 34
q-7 33 -22.5 61t-35.5 42q-11 8 -26 14t-29 8h-10q-28 1 -80 -48l-22 -20l1 -130l5 -173q1 -74 4 -74z" />
    <glyph glyph-name="agrave" unicode="&#xe0;" horiz-adv-x="659" 
d="M198 -40q-13 0 -26 5q-14 7 -31.5 20t-27.5 26q-34 43 -43 121q-2 15 -2 43q0 100 17 311.5t42 412.5q16 126 38 248t40 189q19 68 52 84q13 5 36 5q37 -2 74 -19q6 -4 16 -12t19 -17q37 -36 54 -110q4 -21 8 -45t8.5 -67t12.5 -122l18 -186q7 -68 21.5 -189t22.5 -185
q16 -131 27.5 -251t12.5 -183v-44q-3 -2 -4 -4q-7 -7 -12 -10.5t-14 -3.5q-10 0 -19 9q-3 3 -5 6t-3 9.5t-2 18t-3 31.5v4l-11 113q-3 19 -6.5 52t-7 67.5t-6 59t-2.5 25.5l-8 1q-12 0 -38.5 -1.5t-55 -3.5t-49 -3.5t-22.5 -2.5q-1 -2 -3 -22t-4 -49q-19 -221 -45 -276
t-69 -55zM326 429l2 1q1 1 22.5 3.5t52.5 4.5q18 2 34 3q18 2 29.5 3t13.5 2q1 0 1 5q0 7 -2 23q-12 94 -31 263.5t-30 283.5q-7 69 -12 117.5t-6 51.5q-1 1 -1 2l-0.5 0.5l-0.5 0.5v-3l-12 -87q-33 -245 -52 -519q-5 -68 -7.5 -100.5t-2.5 -44.5q0 -6 0.5 -8t1.5 -2z
M426 1500h-7q-27 5 -74.5 18t-92.5 28t-65 25q-34 23 -34 58q0 21 13 41q10 13 16 19.5t11.5 8.5t15.5 3q1 0 2 1q6 1 12 1q8 0 24 -5t57 -20q8 -3 17 -6q34 -11 51 -17.5t26.5 -11t20.5 -9.5q1 -1 3 -2q49 -25 62 -59q2 -7 4 -13.5t2 -9.5q0 -12 -8 -25t-20 -20
q-5 -2 -15.5 -3.5t-20.5 -1.5z" />
    <glyph glyph-name="aacute" unicode="&#xe1;" horiz-adv-x="659" 
d="M198 -40q-13 0 -26 5q-14 7 -31.5 20t-27.5 26q-34 43 -43 121q-2 15 -2 43q0 100 17 311.5t42 412.5q16 126 38 248t40 189q19 68 52 84q13 5 36 5q37 -2 74 -19q6 -4 16 -12t19 -17q37 -36 54 -110q4 -21 8 -45t8.5 -67t12.5 -122l18 -186q7 -68 21.5 -189t22.5 -185
q16 -131 27.5 -251t12.5 -183v-44q-3 -2 -4 -4q-7 -7 -12 -10.5t-14 -3.5q-10 0 -19 9q-3 3 -5 6t-3 9.5t-2 18t-3 31.5v4l-11 113q-3 19 -6.5 52t-7 67.5t-6 59t-2.5 25.5l-8 1q-12 0 -38.5 -1.5t-55 -3.5t-49 -3.5t-22.5 -2.5q-1 -2 -3 -22t-4 -49q-19 -221 -45 -276
t-69 -55zM326 429l2 1q1 1 22.5 3.5t52.5 4.5q18 2 34 3q18 2 29.5 3t13.5 2q1 0 1 5q0 7 -2 23q-12 94 -31 263.5t-30 283.5q-7 69 -12 117.5t-6 51.5q-1 1 -1 2l-0.5 0.5l-0.5 0.5v-3l-12 -87q-33 -245 -52 -519q-5 -68 -7.5 -100.5t-2.5 -44.5q0 -6 0.5 -8t1.5 -2z
M199 1500h-5q-9 0 -15 3q-30 15 -30 43v3q2 28 33 55q10 9 23 16.5t36.5 17t65.5 24.5q51 19 75 27t36 8h3q5 0 9.5 -2t9.5 -6q1 -1 3 -2q15 -10 24 -26.5t9 -32.5l-1 -6q-2 -19 -26 -35.5t-81 -37.5q-126 -49 -169 -49z" />
    <glyph glyph-name="acircumflex" unicode="&#xe2;" horiz-adv-x="659" 
d="M198 -40q-13 0 -26 5q-14 7 -31.5 20t-27.5 26q-34 43 -43 121q-2 15 -2 43q0 100 17 311.5t42 412.5q16 126 38 248t40 189q19 68 52 84q13 5 36 5q37 -2 74 -19q6 -4 16 -12t19 -17q37 -36 54 -110q4 -21 8 -45t8.5 -67t12.5 -122l18 -186q7 -68 21.5 -189t22.5 -185
q16 -131 27.5 -251t12.5 -183v-44q-3 -2 -4 -4q-7 -7 -12 -10.5t-14 -3.5q-10 0 -19 9q-3 3 -5 6t-3 9.5t-2 18t-3 31.5v4l-11 113q-3 19 -6.5 52t-7 67.5t-6 59t-2.5 25.5l-8 1q-12 0 -38.5 -1.5t-55 -3.5t-49 -3.5t-22.5 -2.5q-1 -2 -3 -22t-4 -49q-19 -221 -45 -276
t-69 -55zM326 429l2 1q1 1 22.5 3.5t52.5 4.5q18 2 34 3q18 2 29.5 3t13.5 2q1 0 1 5q0 7 -2 23q-12 94 -31 263.5t-30 283.5q-7 69 -12 117.5t-6 51.5q-1 1 -1 2l-0.5 0.5l-0.5 0.5v-3l-12 -87q-33 -245 -52 -519q-5 -68 -7.5 -100.5t-2.5 -44.5q0 -6 0.5 -8t1.5 -2z
M184 1500q-1 1 -3 1t-4 1q-11 3 -19.5 16.5t-8.5 28.5v5q2 12 21 43.5t43.5 66.5t43.5 56q5 6 13 12t16 10q10 5 17 6.5t24 1.5q16 0 23.5 -1.5t17.5 -5.5q26 -12 48.5 -35.5t49.5 -67.5q35 -57 39 -85v-3q0 -21 -22 -34q-8 -4 -17 -4q-26 0 -70 44q-28 27 -42.5 37
t-27.5 10q-5 0 -11 -1.5t-10 -3.5t-19 -15.5t-34 -32.5q-26 -26 -38 -35.5t-17 -11.5q-7 -1 -11 -2q-1 -1 -2 -1z" />
    <glyph glyph-name="atilde" unicode="&#xe3;" horiz-adv-x="659" 
d="M198 -40q-13 0 -26 5q-14 7 -31.5 20t-27.5 26q-34 43 -43 121q-2 15 -2 43q0 100 17 311.5t42 412.5q16 126 38 248t40 189q19 68 52 84q13 5 36 5q37 -2 74 -19q6 -4 16 -12t19 -17q37 -36 54 -110q4 -21 8 -45t8.5 -67t12.5 -122l18 -186q7 -68 21.5 -189t22.5 -185
q16 -131 27.5 -251t12.5 -183v-44q-3 -2 -4 -4q-7 -7 -12 -10.5t-14 -3.5q-10 0 -19 9q-3 3 -5 6t-3 9.5t-2 18t-3 31.5v4l-11 113q-3 19 -6.5 52t-7 67.5t-6 59t-2.5 25.5l-8 1q-12 0 -38.5 -1.5t-55 -3.5t-49 -3.5t-22.5 -2.5q-1 -2 -3 -22t-4 -49q-19 -221 -45 -276
t-69 -55zM326 429l2 1q1 1 22.5 3.5t52.5 4.5q18 2 34 3q18 2 29.5 3t13.5 2q1 0 1 5q0 7 -2 23q-12 94 -31 263.5t-30 283.5q-7 69 -12 117.5t-6 51.5q-1 1 -1 2l-0.5 0.5l-0.5 0.5v-3l-12 -87q-33 -245 -52 -519q-5 -68 -7.5 -100.5t-2.5 -44.5q0 -6 0.5 -8t1.5 -2z
M435 1500q-16 0 -32 6q-19 7 -36 23t-49 57q-29 40 -64 40q-14 0 -29 -6q-29 -11 -56 -58q-15 -29 -33 -29q-7 0 -16 5q-14 8 -14 27q0 6 1 14q12 76 59 120q58 55 121 55q32 0 62 -14q40 -19 64 -72q14 -28 20 -39t9 -11q4 0 7 4q7 9 16 25.5t13 30.5q8 31 26 35l10 2
q12 0 21.5 -7.5t12.5 -20.5l1 -15l-1 -25q-4 -69 -48 -116q-29 -31 -65 -31z" />
    <glyph glyph-name="adieresis" unicode="&#xe4;" horiz-adv-x="659" 
d="M198 -40q-13 0 -26 5q-14 7 -31.5 20t-27.5 26q-34 43 -43 121q-2 15 -2 43q0 100 17 311.5t42 412.5q16 126 38 248t40 189q19 68 52 84q13 5 36 5q37 -2 74 -19q6 -4 16 -12t19 -17q37 -36 54 -110q4 -21 8 -45t8.5 -67t12.5 -122l18 -186q7 -68 21.5 -189t22.5 -185
q16 -131 27.5 -251t12.5 -183v-44q-3 -2 -4 -4q-7 -7 -12 -10.5t-14 -3.5q-10 0 -19 9q-3 3 -5 6t-3 9.5t-2 18t-3 31.5v4l-11 113q-3 19 -6.5 52t-7 67.5t-6 59t-2.5 25.5l-8 1q-12 0 -38.5 -1.5t-55 -3.5t-49 -3.5t-22.5 -2.5q-1 -2 -3 -22t-4 -49q-19 -221 -45 -276
t-69 -55zM326 429l2 1q1 1 22.5 3.5t52.5 4.5q18 2 34 3q18 2 29.5 3t13.5 2q1 0 1 5q0 7 -2 23q-12 94 -31 263.5t-30 283.5q-7 69 -12 117.5t-6 51.5q-1 1 -1 2l-0.5 0.5l-0.5 0.5v-3l-12 -87q-33 -245 -52 -519q-5 -68 -7.5 -100.5t-2.5 -44.5q0 -6 0.5 -8t1.5 -2z
M439 1502q-12 0 -25 5q-39 18 -56 65q-3 8 -4 15t-1 17v13q0 17 2 26t7 18q7 14 19.5 26t23.5 15q5 1 12.5 1.5t14.5 0.5q11 0 17 -1.5t17 -8.5q48 -34 48 -95v-4q0 -40 -22 -66.5t-53 -26.5zM227 1500q-10 0 -20 3q-13 5 -21.5 10t-16.5 14q-28 35 -28 77q0 26 11 50
q14 30 41 43q8 4 13 5.5t12 1.5h11q35 -1 59 -28q25 -23 25 -76q0 -12 -0.5 -19t-2.5 -13t-6 -14q-31 -54 -77 -54z" />
    <glyph glyph-name="aring" unicode="&#xe5;" horiz-adv-x="659" 
d="M198 -40q-13 0 -26 5q-14 7 -31.5 20t-27.5 26q-34 43 -43 121q-2 15 -2 43q0 100 17 311.5t42 412.5q16 126 38 248t40 189q19 68 52 84q13 5 36 5q37 -2 74 -19q6 -4 16 -12t19 -17q37 -36 54 -110q4 -21 8 -45t8.5 -67t12.5 -122l18 -186q7 -68 21.5 -189t22.5 -185
q16 -131 27.5 -251t12.5 -183v-44q-3 -2 -4 -4q-7 -7 -12 -10.5t-14 -3.5q-10 0 -19 9q-3 3 -5 6t-3 9.5t-2 18t-3 31.5v4l-11 113q-3 19 -6.5 52t-7 67.5t-6 59t-2.5 25.5l-8 1q-12 0 -38.5 -1.5t-55 -3.5t-49 -3.5t-22.5 -2.5q-1 -2 -3 -22t-4 -49q-19 -221 -45 -276
t-69 -55zM326 429l2 1q1 1 22.5 3.5t52.5 4.5q18 2 34 3q18 2 29.5 3t13.5 2q1 0 1 5q0 7 -2 23q-12 94 -31 263.5t-30 283.5q-7 69 -12 117.5t-6 51.5q-1 1 -1 2l-0.5 0.5l-0.5 0.5v-3l-12 -87q-33 -245 -52 -519q-5 -68 -7.5 -100.5t-2.5 -44.5q0 -6 0.5 -8t1.5 -2z
M332 1500q-9 0 -18 1t-14 3q-46 17 -70 65q-4 8 -5.5 14t-2 14t-0.5 25v25t2.5 14t6.5 14q17 34 50 49q9 5 17 6t23 1q17 1 24.5 -1t19.5 -8q67 -36 69 -113q-1 -71 -62 -101q-11 -5 -18.5 -6.5t-21.5 -1.5zM332 1583q8 0 14 5q7 8 7 18q0 15 -14 30q-5 5 -8 7.5t-6 2.5h-3
t-2 -1q-17 -7 -17 -25q0 -17 16 -33q6 -4 13 -4z" />
    <glyph glyph-name="ae" unicode="&#xe6;" horiz-adv-x="1147" 
d="M198 -40q-13 0 -26 5q-14 7 -31.5 20t-27.5 26q-34 43 -43 121q-2 15 -2 43q0 100 17 311.5t42 412.5q16 126 38 248t40 189q19 68 52 84q13 5 36 5q37 -2 74 -19q6 -4 16 -12t19 -17q37 -36 54 -110q4 -21 8 -45t8.5 -67t12.5 -122l18 -186q7 -68 21.5 -189t22.5 -185
q16 -131 27.5 -251t12.5 -183v-44q-3 -2 -4 -4q-7 -7 -12 -10.5t-14 -3.5q-10 0 -19 9q-3 3 -5 6t-3 9.5t-2 18t-3 31.5v4l-11 113q-3 19 -6.5 52t-7 67.5t-6 59t-2.5 25.5l-8 1q-12 0 -38.5 -1.5t-55 -3.5t-49 -3.5t-22.5 -2.5q-1 -2 -3 -22t-4 -49q-19 -221 -45 -276
t-69 -55zM326 429l2 1q1 1 22.5 3.5t52.5 4.5q18 2 34 3q18 2 29.5 3t13.5 2q1 0 1 5q0 7 -2 23q-12 94 -31 263.5t-30 283.5q-7 69 -12 117.5t-6 51.5q-1 1 -1 2l-0.5 0.5l-0.5 0.5v-3l-12 -87q-33 -245 -52 -519q-5 -68 -7.5 -100.5t-2.5 -44.5q0 -6 0.5 -8t1.5 -2zM759 3
q-34 0 -51 3q-70 10 -92 89q-2 6 -3 14.5t-2 25.5t-1.5 49.5t-1.5 88.5q-1 68 -2 133.5t-3 99.5q-4 102 -5.5 169.5t-1.5 156.5l1 235l4 326q0 15 5.5 23t25.5 11t63 5q31 2 78.5 3.5t87.5 1.5h51.5t30 -0.5t15 -1.5t7.5 -3q4 -2 8 -5.5t6 -5.5q5 -8 5 -18t-6 -18
q-3 -6 -7.5 -9t-14 -4t-28.5 -1l-94 1h-17t-8 -1t-3 -2v-5q0 -19 5 -90q5 -81 5 -196q0 -83 2.5 -215.5t4.5 -202.5l2 -48q41 3 62 4.5t33 1.5q8 0 11.5 -1t6.5 -3q17 -11 17 -28q0 -7 -4 -14q-3 -8 -8 -12t-14.5 -6t-28.5 -4q-15 -2 -30.5 -3t-23.5 -1h-19q1 -15 2 -25.5
t1.5 -27.5t2.5 -51q0 -12 1 -26q3 -34 6 -87.5t5 -102.5l2 -36q3 -36 4.5 -62.5t1.5 -32.5q1 -7 1.5 -12.5t1.5 -6.5l4 -1q10 0 45 4t79 10q24 3 37 4.5t19 1.5q5 0 8 -0.5t6 -1.5q23 -13 23 -32q0 -16 -16 -26q-9 -4 -58.5 -11.5t-114.5 -13.5q-73 -7 -129 -7z" />
    <glyph glyph-name="oe" unicode="&#x153;" horiz-adv-x="1271" 
d="M325 -1q-15 0 -25 2q-15 3 -33.5 12.5t-31.5 18.5q-48 38 -87 135q-77 187 -77 453v32q2 199 56 414q28 114 68 197q6 10 9.5 18t4.5 11q3 6 16 26.5t27 40.5t20 26q22 20 58 33t68 13h6q11 0 18 -2q82 -15 145 -92q54 -60 85 -182q30 -111 30 -260q0 -161 -34 -368
q-39 -252 -107 -376q-61 -118 -150 -144q-12 -4 -30.5 -6t-35.5 -2zM362 69l5 1q4 1 10.5 3t11.5 4q65 24 118 140q65 139 102 453q8 60 11 100t3 93l1 40q0 116 -18 193q-9 46 -25 90t-32 72q-15 25 -41 50.5t-46 35.5q-5 3 -8 3q-5 -1 -10.5 -7t-15.5 -20
q-42 -70 -79 -205.5t-53 -282.5q-9 -80 -12 -134.5t-3 -134.5q1 -196 28 -355q9 -50 17.5 -77t22.5 -49q5 -7 7 -10t6 -3zM884 3q-34 0 -51 3q-70 10 -92 89q-2 6 -3 14.5t-2 25.5t-1.5 49.5t-1.5 88.5q-1 68 -2.5 133.5t-2.5 99.5q-4 102 -6 169.5t-2 156.5l2 235l4 326
q0 15 5.5 23t25.5 11t63 5q31 2 78.5 3.5t87.5 1.5h51.5t29.5 -0.5t15 -1.5t8 -3q4 -2 7.5 -5.5t6.5 -5.5q4 -8 4 -18t-5 -18q-3 -6 -7.5 -9t-14 -4t-28.5 -1l-95 1h-16.5t-8 -1t-2.5 -2v-5q0 -19 5 -90q5 -81 5 -196q0 -83 2 -215.5t5 -202.5l2 -48q40 3 61.5 4.5t32.5 1.5
q9 0 12 -1t7 -3q16 -11 16 -28q0 -7 -3 -14q-4 -8 -8.5 -12t-14.5 -6t-28 -4q-15 -2 -31 -3t-23 -1h-19q1 -15 1.5 -25.5t1.5 -27.5l3 -51q0 -12 1 -26q2 -34 5 -87.5t6 -102.5l2 -36q3 -36 4.5 -62.5t1.5 -32.5q1 -7 1.5 -12.5t1.5 -6.5l3 -1q11 0 46 4t79 10
q24 3 36.5 4.5t19.5 1.5q5 0 8 -0.5t6 -1.5q23 -13 23 -32q0 -16 -16 -26q-10 -4 -59.5 -11.5t-113.5 -13.5q-73 -7 -129 -7z" />
    <glyph glyph-name="ccedilla" unicode="&#xe7;" horiz-adv-x="709" 
d="M286 16q-75 34 -129 110q-56 87 -75 245q-13 128 -13 276q0 173 17 315q16 110 52 221q72 215 202 260q20 7 40 7q52 0 93 -43q53 -61 53 -167l-2 -40q-2 -24 -7.5 -58.5t-11 -63.5t-8.5 -35q-3 -7 -10.5 -11.5t-15.5 -4.5l-5 1q-7 2 -14 9t-9 14v2q0 7 2 24.5t5 40.5
q9 65 9 114q0 64 -15 96l-5 10q-4 -6 -8 -11q-7 -10 -11.5 -18.5t-10 -22t-14.5 -38.5q-21 -61 -29.5 -147t-10.5 -268q-3 -156 -3 -271q0 -208 9 -314q6 -92 16.5 -127t36.5 -46q4 -2 6.5 -3.5t4.5 -1.5q4 0 11 3q53 18 85 86q9 18 15 39.5t13 58.5q7 40 10.5 67.5
t6.5 70.5q1 14 2 26q2 31 3 48t2 25t3 11t4 5l1 1q11 10 23 10q18 0 30 -20q2 -3 2.5 -7.5t0.5 -13.5l-3 -69q-3 -62 -7.5 -99t-13.5 -81q-7 -35 -12.5 -54t-18.5 -45q-21 -46 -47 -73.5t-66 -45.5q-45 -20 -88 -20q-14 0 -29 2q1 -8 2 -20q0 -11 0.5 -20t1.5 -12
q1 -7 25 -20q45 -25 64 -65q16 -31 16 -59q0 -11 -3 -23q-8 -35 -33 -53q-33 -23 -76 -23q-12 0 -23 2q-49 9 -73 56q-8 14 -8 25q0 13 12 24q6 6 10.5 8t14.5 2q6 0 9.5 -1t7.5 -4.5t11 -10.5l11.5 -11.5t8.5 -7.5q6 -3 12 -3q12 0 20.5 9t8.5 22v5q-3 16 -11 24.5
t-25 14.5q-51 19 -59 64q-2 9 -3 22.5t-1 27.5q0 17 2 26q4 14 12 22z" />
    <glyph glyph-name="egrave" unicode="&#xe8;" horiz-adv-x="621" 
d="M233 3q-34 0 -51 3q-70 10 -92 89q-2 7 -3.5 15t-2 25t-1.5 49.5t-1 88.5q-1 68 -2.5 134t-2.5 99q-4 102 -6 169.5t-2 156.5l2 235l4 326q-1 16 4.5 23.5t25.5 10.5t64 5q31 2 78.5 3.5t87.5 1.5h51t29.5 -0.5t15.5 -1.5t8 -3t7 -5.5t7 -5.5q4 -8 4 -18t-5 -18
q-4 -5 -8 -8t-13.5 -4.5t-28.5 -1.5l-95 2q-11 0 -16.5 -0.5t-8 -1.5t-2.5 -2l-1 -5q0 -19 6 -90q5 -80 5 -196q0 -83 2 -215.5t5 -202.5l2 -48q40 3 61.5 4.5t32.5 1.5q8 0 11.5 -1t7.5 -3q16 -11 16 -28q0 -7 -3 -14q-4 -8 -8.5 -12t-14.5 -6t-28 -4q-15 -2 -31 -3t-23 -1
h-19q1 -15 1.5 -25.5t1.5 -27.5t2 -51q1 -12 2 -26q2 -34 5 -87.5t6 -102.5l2 -36q2 -36 4 -62.5t2 -32.5q0 -7 1 -12.5t2 -6.5h3q11 0 45.5 3.5t79.5 9.5q24 3 36.5 5t19.5 2q4 0 7 -1t7 -2q22 -13 22 -32q0 -16 -15 -26q-10 -4 -59.5 -11.5t-113.5 -13.5q-74 -7 -129 -7z
M358 1500h-7q-27 5 -74.5 18t-92.5 28t-65 25q-34 23 -34 58q0 21 13 41q10 13 15.5 19.5t11.5 8.5t16 3q1 0 2 1q6 1 12 1q8 0 24 -5t57 -20q8 -3 17 -6q34 -11 51 -17.5t26.5 -11t20.5 -9.5q1 -1 3 -2q49 -25 62 -59q2 -7 4 -13.5t2 -9.5q0 -12 -8 -25t-20 -20
q-5 -2 -15.5 -3.5t-20.5 -1.5z" />
    <glyph glyph-name="eacute" unicode="&#xe9;" horiz-adv-x="621" 
d="M233 3q-34 0 -51 3q-70 10 -92 89q-2 7 -3.5 15t-2 25t-1.5 49.5t-1 88.5q-1 68 -2.5 134t-2.5 99q-4 102 -6 169.5t-2 156.5l2 235l4 326q-1 16 4.5 23.5t25.5 10.5t64 5q31 2 78.5 3.5t87.5 1.5h51t29.5 -0.5t15.5 -1.5t8 -3t7 -5.5t7 -5.5q4 -8 4 -18t-5 -18
q-4 -5 -8 -8t-13.5 -4.5t-28.5 -1.5l-95 2q-11 0 -16.5 -0.5t-8 -1.5t-2.5 -2l-1 -5q0 -19 6 -90q5 -80 5 -196q0 -83 2 -215.5t5 -202.5l2 -48q40 3 61.5 4.5t32.5 1.5q8 0 11.5 -1t7.5 -3q16 -11 16 -28q0 -7 -3 -14q-4 -8 -8.5 -12t-14.5 -6t-28 -4q-15 -2 -31 -3t-23 -1
h-19q1 -15 1.5 -25.5t1.5 -27.5t2 -51q1 -12 2 -26q2 -34 5 -87.5t6 -102.5l2 -36q2 -36 4 -62.5t2 -32.5q0 -7 1 -12.5t2 -6.5h3q11 0 45.5 3.5t79.5 9.5q24 3 36.5 5t19.5 2q4 0 7 -1t7 -2q22 -13 22 -32q0 -16 -15 -26q-10 -4 -59.5 -11.5t-113.5 -13.5q-74 -7 -129 -7z
M151 1500h-5q-9 0 -15 3q-30 15 -30 43v3q2 28 33 55q9 9 22 16.5t37 17t66 24.5q51 19 75 27t36 8h3q5 0 9.5 -2t9.5 -6q1 -1 3 -2q15 -10 24 -26.5t9 -32.5l-1 -6q-2 -19 -26 -35.5t-81 -37.5q-126 -49 -169 -49z" />
    <glyph glyph-name="ecircumflex" unicode="&#xea;" horiz-adv-x="621" 
d="M233 3q-34 0 -51 3q-70 10 -92 89q-2 7 -3.5 15t-2 25t-1.5 49.5t-1 88.5q-1 68 -2.5 134t-2.5 99q-4 102 -6 169.5t-2 156.5l2 235l4 326q-1 16 4.5 23.5t25.5 10.5t64 5q31 2 78.5 3.5t87.5 1.5h51t29.5 -0.5t15.5 -1.5t8 -3t7 -5.5t7 -5.5q4 -8 4 -18t-5 -18
q-4 -5 -8 -8t-13.5 -4.5t-28.5 -1.5l-95 2q-11 0 -16.5 -0.5t-8 -1.5t-2.5 -2l-1 -5q0 -19 6 -90q5 -80 5 -196q0 -83 2 -215.5t5 -202.5l2 -48q40 3 61.5 4.5t32.5 1.5q8 0 11.5 -1t7.5 -3q16 -11 16 -28q0 -7 -3 -14q-4 -8 -8.5 -12t-14.5 -6t-28 -4q-15 -2 -31 -3t-23 -1
h-19q1 -15 1.5 -25.5t1.5 -27.5t2 -51q1 -12 2 -26q2 -34 5 -87.5t6 -102.5l2 -36q2 -36 4 -62.5t2 -32.5q0 -7 1 -12.5t2 -6.5h3q11 0 45.5 3.5t79.5 9.5q24 3 36.5 5t19.5 2q4 0 7 -1t7 -2q22 -13 22 -32q0 -16 -15 -26q-10 -4 -59.5 -11.5t-113.5 -13.5q-74 -7 -129 -7z
M107 1500q-1 1 -3 1t-4 1q-11 3 -19.5 16.5t-8.5 28.5v5q2 12 21 43.5t43.5 66.5t43.5 56q5 6 13 12t16 10q10 5 17 6.5t24 1.5q16 0 23.5 -1.5t17.5 -5.5q26 -12 48.5 -35.5t49.5 -67.5q35 -57 39 -85v-3q0 -21 -22 -34q-8 -4 -17 -4q-26 0 -70 44q-28 27 -42.5 37
t-27.5 10q-5 0 -11 -1.5t-10 -3.5t-19 -15.5t-34 -32.5q-26 -26 -38 -35.5t-17 -11.5q-7 -1 -11 -2z" />
    <glyph glyph-name="edieresis" unicode="&#xeb;" horiz-adv-x="621" 
d="M233 3q-34 0 -51 3q-70 10 -92 89q-2 7 -3 15t-2 25t-1.5 49.5t-1.5 88.5q-1 68 -2 134t-3 99q-4 102 -6 169.5t-2 156.5l2 235l4 326q0 16 5.5 23.5t25.5 10.5t63 5q31 2 78.5 3.5t87.5 1.5h51.5t30 -0.5t15 -1.5t7.5 -3q4 -2 8 -5.5t6 -5.5q4 -8 4 -18t-5 -18
q-3 -5 -7.5 -8t-14 -4.5t-28.5 -1.5l-95 2q-11 0 -16.5 -0.5t-7.5 -1.5t-3 -2v-5q0 -19 5 -90q5 -80 5 -196q0 -83 2.5 -215.5t4.5 -202.5l2 -48q41 3 62 4.5t33 1.5q8 0 11.5 -1t6.5 -3q17 -11 17 -28q0 -7 -4 -14q-4 -8 -8.5 -12t-14 -6t-28.5 -4q-15 -2 -30.5 -3
t-23.5 -1h-19q1 -15 1.5 -25.5t1.5 -27.5l3 -51q0 -12 1 -26q2 -34 5.5 -87.5t5.5 -102.5l2 -36q3 -36 4.5 -62.5t1.5 -32.5q1 -7 1.5 -12.5t1.5 -6.5h4q10 0 45 3.5t79 9.5q24 3 37 5t19 2q5 0 8 -1l6 -2q23 -13 23 -32q0 -16 -16 -26q-10 -4 -59.5 -11.5t-113.5 -13.5
q-73 -7 -129 -7zM362 1502q-13 0 -26 5q-38 18 -56 65q-3 8 -4 15t-1 17v13q1 17 2.5 26t6.5 18q8 14 20 26t23 15q5 1 13 1.5t14 0.5q12 0 18 -1.5t16 -8.5q48 -34 48 -95v-4q0 -40 -22 -66.5t-52 -26.5zM150 1500q-11 0 -21 3q-13 5 -21.5 10t-16.5 14q-28 35 -28 77
q0 26 11 50q15 30 41 43q8 4 13.5 5.5t11.5 1.5h11q36 -1 59 -28q25 -23 25 -76q0 -12 -0.5 -19t-2.5 -13t-6 -14q-31 -54 -76 -54z" />
    <glyph glyph-name="igrave" unicode="&#xec;" horiz-adv-x="375" 
d="M204 -7l-14 1q-61 10 -84 36q-16 17 -23 47.5t-10 97.5q-1 38 -1.5 198t-0.5 347q0 188 0.5 343t1.5 183q5 71 12 121t14 60q21 19 89 19l33 -1q36 -3 51 -9t24 -21q4 -6 6 -11t2.5 -14t0.5 -30q0 -17 -1 -50.5t-3 -65.5q-2 -39 -3 -157.5t-1 -261.5q0 -142 1 -271.5
t3 -189.5q2 -74 3 -161q1 -30 1 -54v-61t-1 -33t-2 -16t-4 -9q-9 -21 -22.5 -28.5t-46.5 -7.5zM315 1500h-8q-27 5 -74 18t-92.5 28t-65.5 25q-34 23 -34 58q0 21 13 41l16.5 19.5t11 8.5t15.5 3q2 0 3 1q6 1 11 1q8 0 24.5 -5t56.5 -20q8 -3 17 -6q34 -11 51 -17.5
t26.5 -11t20.5 -9.5q2 -1 3 -2q49 -25 62 -59q3 -7 4.5 -13.5t1.5 -9.5q0 -12 -7.5 -25t-20.5 -20q-5 -2 -15.5 -3.5t-19.5 -1.5z" />
    <glyph glyph-name="iacute" unicode="&#xed;" horiz-adv-x="375" 
d="M204 -7l-14 1q-61 10 -84 36q-16 17 -23 47.5t-10 97.5q-1 38 -1.5 198t-0.5 347q0 188 0.5 343t1.5 183q5 71 12 121t14 60q21 19 89 19l33 -1q36 -3 51 -9t24 -21q4 -6 6 -11t2.5 -14t0.5 -30q0 -17 -1 -50.5t-3 -65.5q-2 -39 -3 -157.5t-1 -261.5q0 -142 1 -271.5
t3 -189.5q2 -74 3 -161q1 -30 1 -54v-61t-1 -33t-2 -16t-4 -9q-9 -21 -22.5 -28.5t-46.5 -7.5zM79 1500h-5q-9 0 -15 3q-30 15 -30 43v3q2 28 33 55q10 9 23 16.5t36.5 17t65.5 24.5q51 19 75.5 27t36.5 8h2q5 0 9.5 -2t9.5 -6q2 -1 3 -2q15 -10 24 -26.5t9 -32.5l-1 -6
q-2 -19 -25.5 -35.5t-81.5 -37.5q-125 -49 -169 -49z" />
    <glyph glyph-name="icircumflex" unicode="&#xee;" horiz-adv-x="375" 
d="M204 -7l-14 1q-61 10 -84 36q-16 17 -23 47.5t-10 97.5q-1 38 -1.5 198t-0.5 347q0 188 0.5 343t1.5 183q5 71 12 121t14 60q21 19 89 19l33 -1q36 -3 51 -9t24 -21q4 -6 6 -11t2.5 -14t0.5 -30q0 -17 -1 -50.5t-3 -65.5q-2 -39 -3 -157.5t-1 -261.5q0 -142 1 -271.5
t3 -189.5q2 -74 3 -161q1 -30 1 -54v-61t-1 -33t-2 -16t-4 -9q-9 -21 -22.5 -28.5t-46.5 -7.5zM45 1500q-1 1 -3 1t-4 1q-11 3 -19.5 16.5t-8.5 28.5v5q3 12 22 43.5t43 66.5t43 56q6 6 14 12t15 10q10 5 17.5 6.5t23.5 1.5t24 -1.5t17 -5.5q27 -12 49 -35.5t49 -67.5
q36 -57 39 -85v-3q0 -21 -22 -34q-8 -4 -16 -4q-27 0 -71 44q-27 27 -42 37t-28 10q-4 0 -10.5 -1.5t-10.5 -3.5t-19 -15.5t-34 -32.5q-25 -26 -37 -35.5t-18 -11.5q-7 -1 -10 -2q-2 -1 -3 -1z" />
    <glyph glyph-name="idieresis" unicode="&#xef;" horiz-adv-x="375" 
d="M204 -7l-14 1q-61 10 -84 36q-16 17 -23 47.5t-10 97.5q-1 38 -1.5 198t-0.5 347q0 188 0.5 343t1.5 183q5 71 12 121t14 60q21 19 89 19l33 -1q36 -3 51 -9t24 -21q4 -6 6 -11t2.5 -14t0.5 -30q0 -17 -1 -50.5t-3 -65.5q-2 -39 -3 -157.5t-1 -261.5q0 -142 1 -271.5
t3 -189.5q2 -74 3 -161q1 -30 1 -54v-61t-1 -33t-2 -16t-4 -9q-9 -21 -22.5 -28.5t-46.5 -7.5zM300 1502q-13 0 -26 5q-38 18 -56 65q-3 8 -4 15t-1 17v13q1 17 2.5 26t6.5 18q8 14 20 26t23 15q5 1 13 1.5t14 0.5q12 0 18 -1.5t16 -8.5q48 -34 48 -95v-4q0 -40 -22 -66.5
t-52 -26.5zM88 1500q-11 0 -21 3q-13 5 -21.5 10t-16.5 14q-28 35 -28 77q0 26 11 50q15 30 41 43q8 4 13.5 5.5t11.5 1.5h11q36 -1 59 -28q25 -23 25 -76q0 -12 -0.5 -19t-2.5 -13t-6 -14q-31 -54 -76 -54z" />
    <glyph glyph-name="eth" unicode="&#xf0;" horiz-adv-x="762" 
d="M257 0q-52 0 -55 1q-63 13 -82 63q-10 24 -14 136q-3 125 -8 239l-4 95q-47 3 -99 10q-28 26 -28 112q0 41 4 50q20 24 117 30l-3 153q-5 412 -16 492q0 19 15.5 30.5t41.5 11.5q9 0 16.5 -1t61.5 -18q413 -140 483 -693q5 -52 5 -128q0 -55 -3 -91q-23 -195 -107 -319
q-33 -45 -91.5 -89.5t-113.5 -63t-120 -20.5zM358 81q5 0 28 12.5t52.5 32.5t55.5 43q62 60 98.5 177t36.5 248q0 157 -50.5 312.5t-125.5 251.5q-62 74 -144 129q0 -2 -0.5 -3.5t-0.5 -3t-0.5 -3t-0.5 -10.5q0 -27 2 -61q3 -49 3 -475q42 -2 69 -2q17 0 26 1q1 -2 4 -5
t5 -6t4 -10.5t3.5 -35t1.5 -58.5q0 -32 -2 -44q-6 -34 -30 -39l-78 -2q9 -224 26 -367q10 -82 17 -82z" />
    <glyph glyph-name="ntilde" unicode="&#xf1;" horiz-adv-x="762" 
d="M230 5h-18q-15 0 -31.5 1t-27.5 3q-61 10 -76 49q0 2 -1 10.5t-1.5 30.5t-0.5 63t-0.5 107t-0.5 163v231q0 22 -1 44q0 264 -0.5 452.5t-1.5 201.5v8q0 30 30 32q4 0 16 2t24 5l28 4t22 2h10q7 0 12 -1.5t10 -5.5q15 -8 26.5 -29.5t26.5 -69t37 -133.5l59 -219
q6 -22 10 -35q2 -6 2 -8l17 -61q17 -59 52 -178t67 -226.5t39 -131.5l31 -93q4 -8 6 -13.5l2 -5.5q1 0 2 11.5t1 27.5l7 132q10 169 14.5 340t5.5 409q1 19 1 36q0 63 0.5 103t1.5 62.5t2.5 33t4.5 14t8 5.5l1 1q8 4 15 4t14 -5q2 -1 3 -1q4 -3 7 -7t4.5 -14.5t2 -32.5
t0.5 -62l-1 -153q-2 -448 -19 -722l-9 -170q-3 -61 -5.5 -97t-5.5 -54.5t-8 -25.5t-13 -11l-10 -4t-8 -2q-6 0 -14.5 6t-13.5 13q-4 9 -21 56.5t-42 119.5l-13 39q-13 38 -62 203l-67 228l-67 236q-16 61 -28 103q-8 29 -10 36q-3 13 -4 13l1 -93q2 -32 4 -94.5t3 -125.5
l6 -198q2 -32 4 -84q1 -26 2 -48q1 -35 3 -87t4 -98q4 -76 4 -123q0 -66 -7 -79q-9 -25 -33 -35q-6 -3 -13 -4t-19 -1zM499 1500q-16 0 -32 6q-19 7 -36 23t-49 57q-29 40 -64 40q-14 0 -29 -6q-30 -11 -56 -58q-15 -29 -33 -29q-7 0 -16 5q-15 8 -15 27q0 6 2 14
q12 76 59 120q58 55 121 55q32 0 62 -14q40 -19 64 -72q13 -28 19.5 -39t9.5 -11t7 4q7 9 16 25.5t13 30.5q8 31 26 35l10 2q12 0 21.5 -7.5t12.5 -20.5l1 -15l-1 -25q-4 -69 -48 -116q-29 -31 -65 -31z" />
    <glyph glyph-name="ograve" unicode="&#xf2;" 
d="M325 -1q-15 0 -25 2q-15 3 -33.5 12.5t-31.5 18.5q-48 38 -87 135q-77 187 -77 453v32q2 199 56 414q28 114 68 197q6 10 9.5 18t4.5 11q3 6 16 26.5t27 40.5t20 26q22 20 58 33t68 13h6q11 0 18 -2q82 -15 145 -92q54 -60 85 -182q30 -111 30 -260q0 -161 -34 -368
q-39 -252 -107 -376q-61 -118 -150 -144q-12 -4 -30.5 -6t-35.5 -2zM362 69l5 1q4 1 10.5 3t11.5 4q65 24 118 140q65 139 102 453q8 60 11 100t3 93l1 40q0 116 -18 193q-9 46 -25 90t-32 72q-15 25 -41 50.5t-46 35.5q-5 3 -8 3q-5 -1 -10.5 -7t-15.5 -20
q-42 -70 -79 -205.5t-53 -282.5q-9 -80 -12 -134.5t-3 -134.5q1 -196 28 -355q9 -50 17.5 -77t22.5 -49q5 -7 7 -10t6 -3zM525 1500h-7q-27 5 -74.5 18t-92.5 28t-65 25q-35 23 -35 58q0 21 14 41q10 13 15.5 19.5t11.5 8.5t16 3q1 0 2 1q6 1 12 1q8 0 24 -5t57 -20
q8 -3 17 -6q33 -11 50.5 -17.5t27 -11t19.5 -9.5l4 -2q49 -25 62 -59q2 -7 4 -13.5t2 -9.5q0 -12 -8 -25t-20 -20q-6 -2 -16 -3.5t-20 -1.5z" />
    <glyph glyph-name="oacute" unicode="&#xf3;" 
d="M325 -1q-15 0 -25 2q-15 3 -33.5 12.5t-31.5 18.5q-48 38 -87 135q-77 187 -77 453v32q2 199 56 414q28 114 68 197q6 10 9.5 18t4.5 11q3 6 16 26.5t27 40.5t20 26q22 20 58 33t68 13h6q11 0 18 -2q82 -15 145 -92q54 -60 85 -182q30 -111 30 -260q0 -161 -34 -368
q-39 -252 -107 -376q-61 -118 -150 -144q-12 -4 -30.5 -6t-35.5 -2zM362 69l5 1q4 1 10.5 3t11.5 4q65 24 118 140q65 139 102 453q8 60 11 100t3 93l1 40q0 116 -18 193q-9 46 -25 90t-32 72q-15 25 -41 50.5t-46 35.5q-5 3 -8 3q-5 -1 -10.5 -7t-15.5 -20
q-42 -70 -79 -205.5t-53 -282.5q-9 -80 -12 -134.5t-3 -134.5q1 -196 28 -355q9 -50 17.5 -77t22.5 -49q5 -7 7 -10t6 -3zM297 1500h-5q-9 0 -15 3q-30 15 -30 43v3q3 28 33 55q10 9 23 16.5t36.5 17t65.5 24.5q51 19 75.5 27t36.5 8h2q6 0 10 -2t10 -6l2 -2
q16 -10 24.5 -26.5t8.5 -32.5l-1 -6q-2 -19 -25.5 -35.5t-81.5 -37.5q-125 -49 -169 -49z" />
    <glyph glyph-name="ocircumflex" unicode="&#xf4;" 
d="M325 -1q-15 0 -25 2q-15 3 -33.5 12.5t-31.5 18.5q-48 38 -87 135q-77 187 -77 453v32q2 199 56 414q28 114 68 197q6 10 9.5 18t4.5 11q3 6 16 26.5t27 40.5t20 26q22 20 58 33t68 13h6q11 0 18 -2q82 -15 145 -92q54 -60 85 -182q30 -111 30 -260q0 -161 -34 -368
q-39 -252 -107 -376q-61 -118 -150 -144q-12 -4 -30.5 -6t-35.5 -2zM362 69l5 1q4 1 10.5 3t11.5 4q65 24 118 140q65 139 102 453q8 60 11 100t3 93l1 40q0 116 -18 193q-9 46 -25 90t-32 72q-15 25 -41 50.5t-46 35.5q-5 3 -8 3q-5 -1 -10.5 -7t-15.5 -20
q-42 -70 -79 -205.5t-53 -282.5q-9 -80 -12 -134.5t-3 -134.5q1 -196 28 -355q9 -50 17.5 -77t22.5 -49q5 -7 7 -10t6 -3zM234 1500q-1 1 -4 1q-1 0 -3 1q-12 3 -20.5 16.5t-8.5 28.5l1 5q2 12 21 43.5t43.5 66.5t43.5 56q5 6 13 12t16 10q9 5 16.5 6.5t24.5 1.5
q15 0 23 -1.5t18 -5.5q26 -12 48.5 -35.5t49.5 -67.5q35 -57 39 -85v-3q0 -21 -22 -34q-8 -4 -17 -4q-27 0 -70 44q-28 27 -43 37t-27 10q-5 0 -11 -1.5t-10 -3.5q-5 -2 -20 -15.5t-33 -32.5q-26 -26 -38 -35.5t-17 -11.5q-7 -1 -11 -2z" />
    <glyph glyph-name="otilde" unicode="&#xf5;" 
d="M325 -1q-15 0 -25 2q-15 3 -33.5 12.5t-31.5 18.5q-48 38 -87 135q-77 187 -77 453v32q2 199 56 414q28 114 68 197q6 10 9.5 18t4.5 11q3 6 16 26.5t27 40.5t20 26q22 20 58 33t68 13h6q11 0 18 -2q82 -15 145 -92q54 -60 85 -182q30 -111 30 -260q0 -161 -34 -368
q-39 -252 -107 -376q-61 -118 -150 -144q-12 -4 -30.5 -6t-35.5 -2zM362 69l5 1q4 1 10.5 3t11.5 4q65 24 118 140q65 139 102 453q8 60 11 100t3 93l1 40q0 116 -18 193q-9 46 -25 90t-32 72q-15 25 -41 50.5t-46 35.5q-5 3 -8 3q-5 -1 -10.5 -7t-15.5 -20
q-42 -70 -79 -205.5t-53 -282.5q-9 -80 -12 -134.5t-3 -134.5q1 -196 28 -355q9 -50 17.5 -77t22.5 -49q5 -7 7 -10t6 -3zM525 1500q-16 0 -32 6q-19 7 -36 23t-49 57q-29 40 -65 40q-13 0 -28 -6q-30 -11 -56 -58q-16 -29 -33 -29q-8 0 -16 5q-15 8 -15 27q0 6 2 14
q12 76 59 120q58 55 121 55q32 0 62 -14q40 -19 64 -72q13 -28 19 -39t10 -11q3 0 7 4q7 9 15.5 25.5t13.5 30.5q7 31 26 35l10 2q12 0 21.5 -7.5t12.5 -20.5v-15v-25q-4 -69 -48 -116q-30 -31 -65 -31z" />
    <glyph glyph-name="odieresis" unicode="&#xf6;" 
d="M325 -1q-15 0 -25 2q-15 3 -33.5 12.5t-31.5 18.5q-48 38 -87 135q-77 187 -77 453v32q2 199 56 414q28 114 68 197q6 10 9.5 18t4.5 11q3 6 16 26.5t27 40.5t20 26q22 20 58 33t68 13h6q11 0 18 -2q82 -15 145 -92q54 -60 85 -182q30 -111 30 -260q0 -161 -34 -368
q-39 -252 -107 -376q-61 -118 -150 -144q-12 -4 -30.5 -6t-35.5 -2zM362 69l5 1q4 1 10.5 3t11.5 4q65 24 118 140q65 139 102 453q8 60 11 100t3 93l1 40q0 116 -18 193q-9 46 -25 90t-32 72q-15 25 -41 50.5t-46 35.5q-5 3 -8 3q-5 -1 -10.5 -7t-15.5 -20
q-42 -70 -79 -205.5t-53 -282.5q-9 -80 -12 -134.5t-3 -134.5q1 -196 28 -355q9 -50 17.5 -77t22.5 -49q5 -7 7 -10t6 -3zM488 1502q-12 0 -25 5q-39 18 -56 65q-3 8 -4.5 15t-1.5 17l1 13q0 17 2 26t7 18q7 14 19.5 26t23.5 15q4 1 12 1.5t15 0.5q11 0 17 -1.5t17 -8.5
q48 -34 48 -95v-4q0 -40 -22.5 -66.5t-52.5 -26.5zM276 1500q-10 0 -20 3q-14 5 -22.5 10t-15.5 14q-29 35 -29 77q0 26 12 50q14 30 41 43q8 4 13 5.5t12 1.5h11q35 -1 59 -28q25 -23 25 -76q0 -12 -1 -19t-2.5 -13t-5.5 -14q-32 -54 -77 -54z" />
    <glyph glyph-name="divide" unicode="&#xf7;" horiz-adv-x="889" 
d="M482 511q-159 0 -366 16q-46 26 -46 111v14q1 15 2 23t4 14q25 18 102.5 24.5t176.5 6.5q125 0 249 -5q90 -3 143 -3q27 0 41 1l6 -4q6 -4 10 -7t6 -9q4 -9 6.5 -36.5t2.5 -53.5l-1 -18v-3q-1 -13 -1.5 -20t-2 -11t-5.5 -10q-11 -22 -43 -26q-58 -1 -110 -2
q-88 -2 -174 -2zM437 148q-14 0 -28 4q-42 12 -67 45t-25 77l1 11q7 69 44 102.5t82 33.5q40 0 76 -26t51 -76q3 -13 3 -26q0 -39 -22.5 -77t-58.5 -55q-29 -13 -56 -13zM456 810q-14 0 -28 4q-42 12 -67 45t-25 77l1 11q7 69 44 102.5t82 33.5q40 0 76 -26t51 -76
q3 -13 3 -26q0 -39 -22.5 -77t-58.5 -55q-29 -13 -56 -13z" />
    <glyph glyph-name="oslash" unicode="&#xf8;" 
d="M388 77h1q65 24 118 140q65 139 102 453q7 60 10 100t4 93v40q0 57 -4 105q-70 -268 -196 -787q-15 -67 -29 -121q-3 -13 -6 -23zM281 564l24 99q26 103 69.5 257.5t91.5 317.5q14 44 25 86q-16 13 -29 20q-5 3 -8 3q-5 -1 -10.5 -7t-15.5 -20q-42 -70 -79 -205.5
t-53 -282.5q-9 -80 -12 -134q-3 -55 -3 -134zM367 2q-11 -35 -22 -52q-16 -23 -41 -30q-5 -1 -15.5 -2t-21.5 -1l-20 1q-10 2 -24 6t-26.5 7.5t-16.5 5.5q-3 2 -6.5 3t-6.5 1q-7 1 -14 5.5t-10 9.5q-2 4 -2 12q0 21 14 77l16 71q-12 23 -23 51q-77 187 -77 453v32
q2 199 56 414q28 114 68 197l9 18t5 11q3 6 16 26.5t27 40.5t20 26q21 20 57 33t69 13h6q11 0 18 -2q47 -9 87 -37q3 6 4 12q4 13 6.5 22.5t3.5 11.5q5 7 20 11.5t36 6.5h14q19 0 44 -1.5t45 -4t25 -5.5q14 -9 14 -23l-15 -76q-10 -51 -20 -90t-29 -105q-1 -4 -2 -7
q27 -108 27 -249q0 -161 -34 -368q-39 -252 -107 -376q-61 -118 -150 -144q-10 -3 -24 -5z" />
    <glyph glyph-name="ugrave" unicode="&#xf9;" horiz-adv-x="700" 
d="M357 0q-33 0 -64 6q-111 24 -172 130q-15 23 -24 69.5t-14 159t-7.5 333.5t-4.5 593v34q0 34 1.5 51.5t6 25t12.5 11.5t30.5 6t48.5 2q24 0 46.5 -2t34.5 -5q52 -9 58 -123q5 -69 5 -177q0 -91 -4 -190q-5 -125 -5 -279q0 -107 2.5 -175t8.5 -203q3 -40 4 -82
q2 -35 3 -56q1 -23 2 -39t2 -18t7.5 -3t15.5 -1q11 0 24 1.5t22 4.5q98 30 136 133q17 46 24 115.5t7 189.5q0 82 -3 230t-7 258l-4 202l-1 98q0 17 0.5 25t1.5 11.5t3 6.5q12 15 28 15t27 -14q2 -2 3 -8.5t1.5 -23t1.5 -47.5t2 -82q1 -50 3 -107q1 -96 3 -159
q9 -291 9 -417q0 -63 -2 -104.5t-7 -82.5q-12 -129 -62 -201q-12 -18 -33 -38t-40 -33q-18 -12 -39.5 -21.5t-41.5 -14.5t-49 -5zM480 1500h-8q-27 5 -74 18t-92.5 28t-65.5 25q-34 23 -34 58q0 21 13 41l16.5 19.5t11 8.5t15.5 3q2 0 3 1q6 1 11 1q8 0 24.5 -5t56.5 -20
q8 -3 17 -6q34 -11 51 -17.5t26.5 -11t20.5 -9.5q2 -1 3 -2q49 -25 62 -59q3 -7 4.5 -13.5t1.5 -9.5q0 -12 -7.5 -25t-20.5 -20q-5 -2 -15.5 -3.5t-19.5 -1.5z" />
    <glyph glyph-name="uacute" unicode="&#xfa;" horiz-adv-x="700" 
d="M357 0q-33 0 -64 6q-111 24 -172 130q-15 23 -24 69.5t-14 159t-7.5 333.5t-4.5 593v34q0 34 1.5 51.5t6 25t12.5 11.5t30.5 6t48.5 2q24 0 46.5 -2t34.5 -5q52 -9 58 -123q5 -69 5 -177q0 -91 -4 -190q-5 -125 -5 -279q0 -107 2.5 -175t8.5 -203q3 -40 4 -82
q2 -35 3 -56q1 -23 2 -39t2 -18t7.5 -3t15.5 -1q11 0 24 1.5t22 4.5q98 30 136 133q17 46 24 115.5t7 189.5q0 82 -3 230t-7 258l-4 202l-1 98q0 17 0.5 25t1.5 11.5t3 6.5q12 15 28 15t27 -14q2 -2 3 -8.5t1.5 -23t1.5 -47.5t2 -82q1 -50 3 -107q1 -96 3 -159
q9 -291 9 -417q0 -63 -2 -104.5t-7 -82.5q-12 -129 -62 -201q-12 -18 -33 -38t-40 -33q-18 -12 -39.5 -21.5t-41.5 -14.5t-49 -5zM252 1500h-5q-9 0 -15 3q-30 15 -30 43v3q2 28 33 55q10 9 23 16.5t36.5 17t65.5 24.5q51 19 75.5 27t36.5 8h2q5 0 9.5 -2t9.5 -6q2 -1 3 -2
q15 -10 24 -26.5t9 -32.5l-1 -6q-2 -19 -25.5 -35.5t-81.5 -37.5q-125 -49 -169 -49z" />
    <glyph glyph-name="ucircumflex" unicode="&#xfb;" horiz-adv-x="700" 
d="M357 0q-33 0 -64 6q-111 24 -172 130q-15 23 -24 69.5t-14 159t-7.5 333.5t-4.5 593v34q0 34 1.5 51.5t6 25t12.5 11.5t30.5 6t48.5 2q24 0 46.5 -2t34.5 -5q52 -9 58 -123q5 -69 5 -177q0 -91 -4 -190q-5 -125 -5 -279q0 -107 2.5 -175t8.5 -203q3 -40 4 -82
q2 -35 3 -56q1 -23 2 -39t2 -18t7.5 -3t15.5 -1q11 0 24 1.5t22 4.5q98 30 136 133q17 46 24 115.5t7 189.5q0 82 -3 230t-7 258l-4 202l-1 98q0 17 0.5 25t1.5 11.5t3 6.5q12 15 28 15t27 -14q2 -2 3 -8.5t1.5 -23t1.5 -47.5t2 -82q1 -50 3 -107q1 -96 3 -159
q9 -291 9 -417q0 -63 -2 -104.5t-7 -82.5q-12 -129 -62 -201q-12 -18 -33 -38t-40 -33q-18 -12 -39.5 -21.5t-41.5 -14.5t-49 -5zM228 1500q-1 1 -3 1t-4 1q-11 3 -19.5 16.5t-8.5 28.5v5q3 12 22 43.5t43 66.5t43 56q6 6 14 12t15 10q10 5 17.5 6.5t23.5 1.5t24 -1.5
t17 -5.5q27 -12 49 -35.5t49 -67.5q36 -57 39 -85v-3q0 -21 -22 -34q-8 -4 -16 -4q-27 0 -71 44q-27 27 -42 37t-28 10q-4 0 -10.5 -1.5t-10.5 -3.5t-19 -15.5t-34 -32.5q-25 -26 -37 -35.5t-18 -11.5q-7 -1 -10 -2q-2 -1 -3 -1z" />
    <glyph glyph-name="udieresis" unicode="&#xfc;" horiz-adv-x="700" 
d="M357 0q-33 0 -64 6q-111 24 -172 130q-15 23 -24 69.5t-14 159t-7.5 333.5t-4.5 593v34q0 34 1.5 51.5t6 25t12.5 11.5t30.5 6t48.5 2q24 0 46.5 -2t34.5 -5q52 -9 58 -123q5 -69 5 -177q0 -91 -4 -190q-5 -125 -5 -279q0 -107 2.5 -175t8.5 -203q3 -40 4 -82
q2 -35 3 -56q1 -23 2 -39t2 -18t7.5 -3t15.5 -1q11 0 24 1.5t22 4.5q98 30 136 133q17 46 24 115.5t7 189.5q0 82 -3 230t-7 258l-4 202l-1 98q0 17 0.5 25t1.5 11.5t3 6.5q12 15 28 15t27 -14q2 -2 3 -8.5t1.5 -23t1.5 -47.5t2 -82q1 -50 3 -107q1 -96 3 -159
q9 -291 9 -417q0 -63 -2 -104.5t-7 -82.5q-12 -129 -62 -201q-12 -18 -33 -38t-40 -33q-18 -12 -39.5 -21.5t-41.5 -14.5t-49 -5zM483 1502q-13 0 -26 5q-38 18 -56 65q-3 8 -4 15t-1 17v13q1 17 2.5 26t6.5 18q8 14 20 26t23 15q5 1 13 1.5t14 0.5q12 0 18 -1.5t16 -8.5
q48 -34 48 -95v-4q0 -40 -22 -66.5t-52 -26.5zM271 1500q-11 0 -21 3q-13 5 -21.5 10t-16.5 14q-28 35 -28 77q0 26 11 50q15 30 41 43q8 4 13.5 5.5t11.5 1.5h11q36 -1 59 -28q25 -23 25 -76q0 -12 -0.5 -19t-2.5 -13t-6 -14q-31 -54 -76 -54z" />
    <glyph glyph-name="yacute" unicode="&#xfd;" horiz-adv-x="721" 
d="M353 0q-4 0 -7 2t-9 8l-11 12v431q-38 3 -64.5 8t-55.5 19q-43 20 -70 52q-27 31 -41 77.5t-20 128.5q-2 25 -3.5 61t-1.5 105.5v200.5v302l9 10q1 0 1 1q4 3 7 5t8.5 2.5t17.5 0.5q11 0 30.5 1t37.5 3q25 2 45 2q44 0 61 -11q16 -10 23 -36t7 -89l-2 -85
q-5 -163 -5 -317q0 -229 10 -337l4 -37q54 4 95.5 16.5t72.5 42.5q57 52 79 173q7 33 10 64.5t3 90.5l-1 78q-1 95 -3.5 167t-7.5 151l-1 41q0 19 2.5 26.5t9.5 12.5q8 5 18 5t18.5 -4.5t12.5 -12.5q11 -35 18 -362l1 -92q0 -98 -8 -146q-31 -207 -149 -275
q-19 -11 -44 -20.5t-43 -13.5l-16 -3q0 -4 -0.5 -6t-0.5 -3q-1 -1 -1 -2.5v-5.5t-0.5 -11.5t-0.5 -20.5l2 -70q1 -28 1.5 -99.5t0.5 -125.5v-52l-1 -44l-5 -5q-6 -7 -10.5 -9.5t-14.5 -3.5zM302 1500h-5q-9 0 -15 3q-30 15 -30 43v3q2 28 33 55q10 9 23 16.5t36.5 17
t65.5 24.5q51 19 75.5 27t36.5 8h2q5 0 9.5 -2t9.5 -6q2 -1 3 -2q15 -10 24 -26.5t9 -32.5l-1 -6q-2 -19 -25.5 -35.5t-81.5 -37.5q-125 -49 -169 -49z" />
    <glyph glyph-name="thorn" unicode="&#xfe;" horiz-adv-x="721" 
 />
    <glyph glyph-name="ydieresis" unicode="&#xff;" horiz-adv-x="721" 
d="M353 0q-4 0 -7 2t-9 8l-11 12v431q-38 3 -64.5 8t-55.5 19q-43 20 -70 52q-27 31 -41 77.5t-20 128.5q-2 25 -3.5 61t-1.5 105.5v200.5v302l9 10q1 0 1 1q4 3 7 5t8.5 2.5t17.5 0.5q11 0 30.5 1t37.5 3q25 2 45 2q44 0 61 -11q16 -10 23 -36t7 -89l-2 -85
q-5 -163 -5 -317q0 -229 10 -337l4 -37q54 4 95.5 16.5t72.5 42.5q57 52 79 173q7 33 10 64.5t3 90.5l-1 78q-1 95 -3.5 167t-7.5 151l-1 41q0 19 2.5 26.5t9.5 12.5q8 5 18 5t18.5 -4.5t12.5 -12.5q11 -35 18 -362l1 -92q0 -98 -8 -146q-31 -207 -149 -275
q-19 -11 -44 -20.5t-43 -13.5l-16 -3q0 -4 -0.5 -6t-0.5 -3q-1 -1 -1 -2.5v-5.5t-0.5 -11.5t-0.5 -20.5l2 -70q1 -28 1.5 -99.5t0.5 -125.5v-52l-1 -44l-5 -5q-6 -7 -10.5 -9.5t-14.5 -3.5zM493 1502q-13 0 -26 5q-38 18 -56 65q-3 8 -4 15t-1 17v13q1 17 2.5 26t6.5 18
q8 14 20 26t23 15q5 1 13 1.5t14 0.5q12 0 18 -1.5t16 -8.5q48 -34 48 -95v-4q0 -40 -22 -66.5t-52 -26.5zM281 1500q-11 0 -21 3q-13 5 -21.5 10t-16.5 14q-28 35 -28 77q0 26 11 50q15 30 41 43q8 4 13.5 5.5t11.5 1.5h11q36 -1 59 -28q25 -23 25 -76q0 -12 -0.5 -19
t-2.5 -13t-6 -14q-31 -54 -76 -54z" />
    <glyph glyph-name="dotlessi" unicode="&#x131;" horiz-adv-x="514" 
 />
    <glyph glyph-name="circumflex" unicode="&#x2c6;" horiz-adv-x="496" 
d="M106 1300q-1 1 -3 1t-4 1q-11 3 -19.5 16.5t-8.5 28.5v5q3 12 22 43.5t43 66.5t43 56q6 6 14 12t15 10q10 5 17.5 6.5t23.5 1.5t24 -1.5t17 -5.5q27 -12 49 -35.5t49 -67.5q36 -57 39 -85v-3q0 -21 -22 -34q-8 -4 -16 -4q-27 0 -71 44q-27 27 -42 37t-28 10
q-4 0 -10.5 -1.5t-10.5 -3.5t-19 -15.5t-34 -32.5q-25 -26 -37 -35.5t-18 -11.5q-7 -1 -10 -2q-2 -1 -3 -1z" />
    <glyph glyph-name="caron" unicode="&#x2c7;" horiz-adv-x="496" 
d="M106 1548q1 0 3 -1q3 -1 10 -2q6 -2 18 -11.5t37 -35.5q19 -19 34 -32.5t19 -15.5t10.5 -3.5t10.5 -1.5q13 0 28 10t42 37q44 44 71 44q8 0 16 -4q22 -13 22 -34v-3q-3 -27 -39 -85q-27 -44 -49 -67.5t-49 -35.5q-9 -4 -17 -5.5t-24 -1.5t-23.5 1.5t-17.5 6.5
q-7 4 -15 10t-14 12q-19 21 -43 56t-43 66.5t-22 43.5v5q0 15 8.5 28.5t19.5 16.5q2 1 4 1t3 1z" />
    <glyph glyph-name="uni02C9" unicode="&#x2c9;" horiz-adv-x="683" 
d="M369 1257q-115 0 -265 12q-34 19 -34 80v10q1 12 1.5 17.5t3.5 9.5q17 13 73.5 17.5t127.5 4.5q91 0 181 -3q66 -2 104 -2q20 0 30 1q2 -2 4 -3q4 -3 7 -5.5t5 -6.5q2 -6 4 -26t2 -39v-13q-1 -1 -1 -2q0 -10 -0.5 -15t-2 -8l-3.5 -7q-9 -16 -31 -19q-42 -1 -80 -1
q-64 -2 -126 -2z" />
    <glyph glyph-name="breve" unicode="&#x2d8;" horiz-adv-x="434" 
 />
    <glyph glyph-name="dotaccent" unicode="&#x2d9;" horiz-adv-x="395" 
d="M190 1200q-14 0 -29 4q-42 12 -66.5 45t-24.5 77v11q8 69 45 102.5t82 33.5q40 0 76 -26t50 -76q4 -13 4 -26q0 -39 -23 -77t-59 -55q-28 -13 -55 -13z" />
    <glyph glyph-name="ring" unicode="&#x2da;" horiz-adv-x="352" 
d="M181 1300q-10 0 -19 1t-13 3q-47 17 -70 65q-4 8 -6 14t-2.5 14t-0.5 25t0.5 25t2.5 14t6 14q17 34 50 49q9 5 17.5 6t23.5 1q16 1 24 -1t20 -8q66 -36 68 -113q0 -71 -62 -101q-10 -5 -18 -6.5t-21 -1.5zM180 1383q8 0 14 5q7 8 7 18q0 15 -14 30q-5 5 -8 7.5t-6 2.5h-2
t-3 -1q-17 -7 -17 -25q0 -17 16 -33q6 -4 13 -4z" />
    <glyph glyph-name="ogonek" unicode="&#x2db;" horiz-adv-x="338" 
 />
    <glyph glyph-name="tilde" unicode="&#x2dc;" horiz-adv-x="582" 
d="M401 1270q-16 0 -33 6q-18 7 -35 23t-50 57q-29 40 -64 40q-13 0 -29 -6q-29 -11 -56 -58q-15 -29 -32 -29q-8 0 -17 5q-14 8 -14 27q0 6 1 14q13 76 59 120q58 55 122 55q31 0 61 -14q41 -19 64 -72q14 -28 20 -39t10 -11q3 0 6 4q8 9 16.5 25.5t12.5 30.5q8 31 26 35
l11 2q11 0 21 -7.5t12 -20.5l1 -15l-1 -25q-3 -69 -48 -116q-29 -31 -64 -31z" />
    <glyph glyph-name="hungarumlaut" unicode="&#x2dd;" horiz-adv-x="1024" 
 />
    <glyph glyph-name="endash" unicode="&#x2013;" horiz-adv-x="1116" 
d="M607 511q-207 0 -477 16q-60 26 -60 111v14q1 15 2.5 23t5.5 14q32 18 133 24.5t230 6.5q163 0 325 -5q118 -3 186 -3q36 0 54 1q4 -2 7 -4q8 -4 13 -7t9 -9q4 -9 7.5 -36.5t3.5 -53.5l-1 -18v-3q-1 -13 -2 -20t-3 -11t-6 -10q-16 -22 -56 -26q-76 -1 -144 -2
q-115 -2 -227 -2z" />
    <glyph glyph-name="emdash" unicode="&#x2014;" horiz-adv-x="1320" 
d="M719 511q-250 0 -576 16q-73 26 -73 111l1 14q1 15 2.5 23t6.5 14q39 18 161 24.5t277 6.5q198 0 394 -5q142 -3 225 -3q43 0 65 1q5 -2 9 -4q9 -4 15 -7t11 -9q5 -9 9 -36.5t4 -53.5l-1 -18v-3q-1 -13 -2.5 -20t-4 -11t-7.5 -10q-18 -22 -68 -26q-91 -1 -173 -2
q-140 -2 -275 -2z" />
    <glyph glyph-name="quoteleft" unicode="&#x2018;" horiz-adv-x="325" 
d="M200 1543h2q13 0 25.5 -6.5t20.5 -17.5q2 -5 4.5 -15t3.5 -20q0 -27 -9.5 -78t-21 -98.5t-20.5 -68.5q-18 -35 -55 -39h-5q-19 0 -37 10q-14 9 -20.5 14.5t-9.5 11t-5 14.5l-3 14v3q0 8 4 24.5t14 53.5q2 9 5 19q9 33 13.5 50.5t8 27t7.5 19.5q1 3 2 7q23 51 54 67
q7 3 13 5z" />
    <glyph glyph-name="quoteright" unicode="&#x2019;" horiz-adv-x="325" 
d="M126 1200h-2q-13 0 -25.5 6.5t-20.5 17.5q-2 6 -4.5 16t-3.5 19q0 28 9.5 79t21 98t20.5 68q19 35 55 39h5q19 0 37 -10q14 -9 21 -14.5t9.5 -10.5t4.5 -15l3 -14v-3q0 -8 -4 -24.5t-14 -53.5q-2 -9 -5 -19q-8 -33 -13 -50.5t-8.5 -27t-6.5 -19.5q-2 -3 -3 -7
q-22 -51 -54 -67q-7 -3 -13 -5z" />
    <glyph glyph-name="quotesinglbase" unicode="&#x201a;" horiz-adv-x="325" 
d="M126 -110h-2q-13 0 -25.5 6.5t-20.5 17.5q-2 6 -4.5 16t-3.5 19q0 28 9.5 79t21 98t20.5 68q19 35 55 39h5q19 0 37 -10q14 -9 21 -14.5t9.5 -10.5t4.5 -15l3 -14v-3q0 -8 -4 -24.5t-14 -53.5q-2 -9 -5 -19q-8 -33 -13 -50.5t-8.5 -27t-6.5 -19.5q-2 -3 -3 -7
q-22 -51 -54 -67q-7 -3 -13 -5z" />
    <glyph glyph-name="quotedblleft" unicode="&#x201c;" horiz-adv-x="534" 
d="M126 1543l9 -3t13 -5q31 -16 54 -67q1 -4 2 -7q4 -10 7.5 -19.5t8 -27t13.5 -50.5q3 -10 5 -19q10 -37 14 -53.5t4 -24.5v-3l-3 -14q-2 -9 -5 -14.5t-9.5 -11t-20.5 -14.5q-18 -10 -37 -10h-5q-37 4 -55 39q-9 21 -20.5 68.5t-21 98.5t-9.5 78q1 10 3.5 20t4.5 15
q8 11 20.5 17.5t25.5 6.5h2zM335 1543l9 -3t13 -5q31 -16 54 -67q1 -4 2 -7q4 -10 7.5 -19.5t8 -27t13.5 -50.5q3 -10 5 -19q10 -37 14 -53.5t4 -24.5v-3l-3 -14q-2 -9 -5 -14.5t-9.5 -11t-20.5 -14.5q-18 -10 -37 -10h-5q-37 4 -55 39q-9 21 -20.5 68.5t-21 98.5t-9.5 78
q1 10 3.5 20t4.5 15q8 11 20.5 17.5t25.5 6.5h2z" />
    <glyph glyph-name="quotedblright" unicode="&#x201d;" horiz-adv-x="534" 
d="M126 1200h-2q-13 0 -25.5 6.5t-20.5 17.5q-2 6 -4.5 16t-3.5 19q0 28 9.5 79t21 98t20.5 68q19 35 55 39h5q19 0 37 -10q14 -9 21 -14.5t9.5 -10.5t4.5 -15l3 -14v-3q0 -8 -4 -24.5t-14 -53.5q-2 -9 -5 -19q-8 -33 -13 -50.5t-8.5 -27t-6.5 -19.5q-2 -3 -3 -7
q-22 -51 -54 -67q-7 -3 -13 -5zM335 1200h-2q-13 0 -25.5 6.5t-20.5 17.5q-2 6 -4.5 16t-3.5 19q0 28 9.5 79t21 98t20.5 68q19 35 55 39h5q19 0 37 -10q14 -9 21 -14.5t9.5 -10.5t4.5 -15l3 -14v-3q0 -8 -4 -24.5t-14 -53.5q-2 -9 -5 -19q-8 -33 -13 -50.5t-8.5 -27
t-6.5 -19.5q-2 -3 -3 -7q-22 -51 -54 -67q-7 -3 -13 -5z" />
    <glyph glyph-name="quotedblbase" unicode="&#x201e;" horiz-adv-x="534" 
d="M126 -110h-2q-13 0 -25.5 6.5t-20.5 17.5q-2 6 -4.5 16t-3.5 19q0 28 9.5 79t21 98t20.5 68q19 35 55 39h5q19 0 37 -10q14 -9 21 -14.5t9.5 -10.5t4.5 -15l3 -14v-3q0 -8 -4 -24.5t-14 -53.5q-2 -9 -5 -19q-8 -33 -13 -50.5t-8.5 -27t-6.5 -19.5q-2 -3 -3 -7
q-22 -51 -54 -67q-7 -3 -13 -5zM335 -110h-2q-13 0 -25.5 6.5t-20.5 17.5q-2 6 -4.5 16t-3.5 19q0 28 9.5 79t21 98t20.5 68q19 35 55 39h5q19 0 37 -10q14 -9 21 -14.5t9.5 -10.5t4.5 -15l3 -14v-3q0 -8 -4 -24.5t-14 -53.5q-2 -9 -5 -19q-8 -33 -13 -50.5t-8.5 -27
t-6.5 -19.5q-2 -3 -3 -7q-22 -51 -54 -67q-7 -3 -13 -5z" />
    <glyph glyph-name="guilsinglleft" unicode="&#x2039;" horiz-adv-x="571" 
d="M394 209q-7 0 -14 4q-14 11 -75 106q-42 67 -79.5 122.5t-112.5 164.5q-25 36 -34.5 52t-9.5 29q0 7 2 16q0 9 74 128l110 179q49 80 72 109.5t40 34.5q11 4 18 4q8 0 17 -5q13 -7 33 -26t37.5 -40t22.5 -33q6 -13 6 -29q0 -18 -7 -34q-19 -43 -91 -156.5t-152 -224.5
q-14 -20 -19.5 -29t-5.5 -12l1 -3l44 -67q18 -27 39 -61t37 -60q15 -25 30.5 -50t23.5 -38q8 -12 14.5 -22.5t7.5 -14.5l2 -11q0 -13 -9.5 -23t-21.5 -10z" />
    <glyph glyph-name="guilsinglright" unicode="&#x203a;" horiz-adv-x="571" 
d="M186 210q-8 0 -17 5q-13 7 -33 26t-37.5 40t-22.5 33q-6 13 -6 29q0 17 7 34q18 42 90.5 155.5t152.5 225.5q14 20 19 28.5t5 12.5v3q-1 1 -4 5q-11 18 -40 62q-18 26 -39.5 60t-36.5 60t-30.5 51t-23.5 37t-14.5 22.5t-7.5 14.5l-2 11q0 13 9 23t21 10q7 0 15 -4
q14 -10 75 -105q38 -62 71 -111t92 -135q13 -19 29 -41q26 -37 35 -53.5t9 -28.5l-1 -15q0 -9 -75 -129q-18 -28 -37 -59q-48 -77 -73 -119q-49 -80 -72 -109.5t-40 -34.5q-11 -4 -18 -4z" />
    <glyph glyph-name="fraction" unicode="&#x2044;" horiz-adv-x="741" 
d="M197 -61l-20 1q-10 2 -24 6t-26.5 7.5t-16.5 5.5q-3 2 -6.5 3t-6.5 1q-7 1 -14 5.5t-10 9.5q-2 4 -2 12q0 21 14 77l22 96q4 20 10 46t11 46q5 19 10.5 42t9.5 40q1 1 1 3q10 40 22 86q19 77 36 144l28 115q26 103 69.5 257.5t91.5 317.5q13 44 25 86.5t17 62.5q3 9 5 17
q4 13 6.5 22.5t3.5 11.5q4 7 19.5 11.5t36.5 6.5h14q19 0 44 -1.5t44.5 -4t25.5 -5.5q14 -9 14 -23l-15 -76q-10 -51 -20 -90t-29 -105q-69 -249 -234 -930q-15 -67 -29 -121.5t-19 -72.5q-15 -54 -30.5 -77t-40.5 -30q-5 -1 -15.5 -2t-21.5 -1z" />
    <glyph glyph-name="fraction" unicode="&#x2215;" horiz-adv-x="741" 
d="M197 -61l-20 1q-10 2 -24 6t-26.5 7.5t-16.5 5.5q-3 2 -6.5 3t-6.5 1q-7 1 -14 5.5t-10 9.5q-2 4 -2 12q0 21 14 77l22 96q4 20 10 46t11 46q5 19 10.5 42t9.5 40q1 1 1 3q10 40 22 86q19 77 36 144l28 115q26 103 69.5 257.5t91.5 317.5q13 44 25 86.5t17 62.5q3 9 5 17
q4 13 6.5 22.5t3.5 11.5q4 7 19.5 11.5t36.5 6.5h14q19 0 44 -1.5t44.5 -4t25.5 -5.5q14 -9 14 -23l-15 -76q-10 -51 -20 -90t-29 -105q-69 -249 -234 -930q-15 -67 -29 -121.5t-19 -72.5q-15 -54 -30.5 -77t-40.5 -30q-5 -1 -15.5 -2t-21.5 -1z" />
    <glyph glyph-name="franc" unicode="&#x20a3;" horiz-adv-x="657" 
 />
    <glyph glyph-name="lira" unicode="&#x20a4;" horiz-adv-x="802" 
d="M138 261q-1 3 -1 5q-12 210 -15 280q-17 -1 -34 -1q-22 0 -32 -1l-35 -1l-8 8q-5 5 -6.5 9.5t-1.5 12.5t1.5 12t7.5 10q5 6 13.5 9t26 4.5t50.5 2.5l16 1q-2 48 -2 96t2 96l-29 1q-38 2 -57 4t-26 6t-10 11q-5 7 -5 15q0 6 4 14q2 6 7 9t18.5 4t42.5 1h58q5 82 13 148
q16 112 52 226q71 219 202 266q18 7 36 7h3q52 0 94 -43q52 -63 52 -171q0 -20 -1 -41q-3 -24 -8 -59.5t-10.5 -65.5t-8.5 -36q-4 -7 -12 -11.5t-15 -4.5h-4q-8 2 -14.5 9t-8.5 15l-1 3q0 6 2 24t6 41q9 67 9 117q0 66 -15 99l-5 10q-4 -5 -6 -9q-8 -11 -13 -20t-10.5 -23
t-13.5 -41q-22 -62 -30.5 -150t-10.5 -275v-23q109 -6 134 -12q10 -3 17.5 -11t9.5 -17v-5q0 -8 -3.5 -16.5t-9.5 -12.5q-5 -3 -10.5 -5t-9.5 -2l-2 1q-4 2 -40.5 5t-86.5 5q-1 -89 -1 -163q3 1 8 1q59 5 90 5q32 0 39 -5q15 -12 15 -29q0 -18 -15 -29q-9 -4 -60 -8l-77 -4
q0 -86 11 -326q3 -67 6 -113q64 -1 127 -4q66 -3 104 -3q20 0 30 1l4 -4q8 -24 1 -49t-30 -29q-42 -1 -80 -2q-64 -2 -126 -2q-115 0 -265 16q-34 26 -38 91t-9 126z" />
    <glyph glyph-name="peseta" unicode="&#x20a7;" horiz-adv-x="657" 
 />
    <glyph glyph-name="Euro" unicode="&#x20ac;" horiz-adv-x="834" 
d="M509 -50q-16 0 -31 2q-119 23 -195 133q-57 90 -75 252q-7 61 -10 134q-17 -1 -34 -1q-22 0 -32 -1l-35 -1l-8 8q-5 5 -6.5 9.5t-1.5 12.5t1.5 12t7.5 10q5 6 13.5 9t26 4.5t50.5 2.5l16 1q-2 48 -2 96t2 96l-29 1q-38 2 -57 4t-26 6t-10 11q-5 7 -5 15q0 6 4 14q2 6 7 9
t18.5 4t42.5 1h58q5 82 13 148q16 112 52 226q71 219 202 266q18 7 36 7h3q52 0 94 -43q52 -63 52 -171q0 -20 -1 -41q-3 -24 -8 -59.5t-10.5 -65.5t-8.5 -36q-4 -7 -12 -11.5t-15 -4.5h-4q-8 2 -14.5 9t-8.5 15l-1 3q0 6 2 24t6 41q9 67 9 117q0 66 -15 99l-5 10
q-4 -5 -6 -9q-8 -11 -13 -20t-10.5 -23t-13.5 -41q-22 -62 -30.5 -150t-10.5 -275v-23q109 -6 134 -12q10 -3 17.5 -11t9.5 -17v-5q0 -8 -3.5 -16.5t-9.5 -12.5q-5 -3 -10.5 -5t-9.5 -2l-2 1q-4 2 -40.5 5t-86.5 5q-1 -89 -1 -163q3 1 8 1q59 5 90 5q32 0 39 -5
q15 -12 15 -29q0 -18 -15 -29q-9 -4 -60 -8l-77 -4q0 -172 8 -273q6 -95 16.5 -131t36.5 -47q3 -2 5.5 -3t4.5 -1q5 0 12 3q53 18 85 87q8 19 14.5 41.5t13.5 59.5q7 41 10.5 69.5t6.5 71.5q0 14 1 26q2 31 3.5 48.5t2.5 26t2.5 11.5t4.5 6q0 1 1 1q11 10 23 10q18 0 30 -21
q2 -3 2.5 -7t0.5 -13l-3 -71q-4 -65 -8.5 -102t-12.5 -82q-7 -37 -13 -56t-18 -46q-38 -90 -113 -122q-44 -20 -86 -20z" />
    <glyph glyph-name="uni2116" unicode="&#x2116;" horiz-adv-x="2271" 
 />
    <glyph glyph-name="trademark" unicode="&#x2122;" horiz-adv-x="1497" 
 />
    <glyph glyph-name="partialdiff" unicode="&#x2202;" horiz-adv-x="657" 
 />
    <glyph glyph-name="Delta" unicode="&#x2206;" horiz-adv-x="657" 
 />
    <glyph glyph-name="product" unicode="&#x220f;" horiz-adv-x="657" 
 />
    <glyph glyph-name="summation" unicode="&#x2211;" horiz-adv-x="657" 
 />
    <glyph glyph-name="minus" unicode="&#x2212;" horiz-adv-x="889" 
d="M482 511q-159 0 -366 16q-46 26 -46 111v14q1 15 2 23t4 14q25 18 102.5 24.5t176.5 6.5q125 0 249 -5q90 -3 143 -3q27 0 41 1l6 -4q6 -4 10 -7t6 -9q4 -9 6.5 -36.5t2.5 -53.5l-1 -18v-3q-1 -13 -1.5 -20t-2 -11t-5.5 -10q-11 -22 -43 -26q-58 -1 -110 -2
q-88 -2 -174 -2z" />
    <glyph glyph-name="radical" unicode="&#x221a;" horiz-adv-x="657" 
 />
    <glyph glyph-name="infinity" unicode="&#x221e;" horiz-adv-x="657" 
 />
    <glyph glyph-name="integral" unicode="&#x222b;" horiz-adv-x="657" 
 />
    </font>
</defs>
</svg>
